#TITLE:gigadelic;
#SUBTITLE:(DJ CHUCKY remix);
#ARTIST:teranoid feat. MC Natsack;
#TITLETRANSLIT:;
#SUBTITLETRANSLIT:;
#ARTISTTRANSLIT:;
#GENRE:;
#CREDIT:;
#BANNER:gigaremix.png;
#BACKGROUND:gigaremix-bg.png;
#LYRICSPATH:;
#CDTITLE:!auraesimfilesmix2.png;
#MUSIC:gigaremix.mp3;
#OFFSET:-1.429;
#SAMPLESTART:22.320;
#SAMPLELENGTH:17.240;
#SELECTABLE:YES;
#DISPLAYBPM:167.000;
#BPMS:0.000=167.000
;
#STOPS:
;
#BGCHANGES:;
#KEYSOUNDS:;
#ATTACKS:;

//---------------dance-single - aurae----------------
#NOTES:
     dance-single:
     aurae:
     Easy:
     4:
     0.276,0.301,0.186,0.110,0.008,193.000,22.000,13.000,0.000,0.000,0.000,0.276,0.301,0.186,0.110,0.008,193.000,22.000,13.000,0.000,0.000,0.000:
0000
0000
0000
0000
,
0000
0000
0000
0000
,
0000
0000
0000
0000
,
0000
0000
0000
0000
,
0000
0000
0000
0000
,
0000
0000
0000
0000
,
0010
0000
0000
0000
,
0010
0000
0010
0000
,
0010
0000
0010
0000
,
0001
0001
0001
0000
,
1000
1000
1000
0000
,
0100
0000
0100
0000
,
0100
0000
0100
0000
,
1000
1000
0001
0001
,
1000
0000
1001
0000
,
0101
0101
0101
0000
,
0001
1000
0001
0000
,
1100
1100
1100
0000
,
1000
0100
1000
0100
,
0100
1000
0100
0000
,
1000
0100
1000
0010
,
0010
0100
0010
0000
,
0010
1000
0001
0001
,
1000
1000
1000
0000
,
0001
0001
0001
0000
,
0100
0100
0100
0100
,
1001
0000
0000
0000
,
0002
0000
0000
0000
,
2003
0000
0000
0000
,
3020
0000
0000
0000
,
2030
0000
0000
0000
,
3200
0000
0000
0000
,
2300
0000
0000
0000
,
3002
0000
0000
0000
,
0003
0000
1000
0000
,
0020
0000
0000
0000
,
0230
0000
0000
0000
,
0302
0000
0000
0000
,
2003
0000
0000
0000
,
3002
0000
0000
0000
,
0003
0000
0100
0000
,
1001
0000
0000
0000
,
0000
0000
0000
0000
,
0001
0001
0001
0001
,
0001
0001
0001
0001
,
0010
0001
1000
0100
,
1000
0001
0100
0000
,
1001
0000
0101
0000
,
1001
0000
1100
0000
,
1001
0000
0101
0000
,
1001
0000
1100
0000
,
1000
1000
0001
0001
,
1000
1000
0001
0001
,
1001
0000
0110
0000
,
1001
0000
0000
0000
,
0010
0001
0100
0001
,
1000
0010
1000
0100
,
1000
0001
0100
0001
,
0010
0001
0100
0002
,
0000
1003
0100
1000
,
0001
0001
1000
1000
,
0010
1000
0100
0010
,
0001
0000
0000
0000
,
1000
0100
1000
0100
,
1000
0000
0000
0001
0000
0000
0100
0000
0100
0000
0100
0000
,
0001
1000
0001
0010
,
0001
0100
0001
0000
,
1001
0001
0100
0100
,
0001
1000
1000
0000
,
0100
1000
0010
1000
,
1000
0000
0000
0000
,
0100
0100
0010
0010
,
0001
0001
1000
0001
,
0100
0100
0010
0010
,
1000
0001
1000
0000
,
0001
0001
0001
0010
,
0001
0100
0010
1000
,
0100
1000
1000
0001
,
0100
0000
0000
0000
,
1001
0000
0000
0000
;

//---------------dance-single - aurae----------------
#NOTES:
     dance-single:
     aurae:
     Medium:
     6:
     0.471,0.635,0.398,0.271,0.415,311.000,47.000,32.000,0.000,0.000,0.000,0.471,0.635,0.398,0.271,0.415,311.000,47.000,32.000,0.000,0.000,0.000:
0000
0000
0000
0000
,
0000
0000
0000
0000
,
0000
0000
0000
0000
,
0000
0000
0000
0000
,
0000
0000
0000
0000
,
0000
0000
0000
0000
,
0000
0000
0000
0000
,
1000
0001
0001
1000
,
0001
0000
0000
0100
0000
0000
0100
0000
0000
0001
0000
0001
,
1000
0000
1000
0010
0000
0000
0010
0000
0000
0100
0000
0000
,
0010
0100
0100
0001
,
1000
0000
1000
0100
0000
0000
1000
0000
0000
0101
0000
0000
,
1000
0000
1000
0010
0000
0000
0100
0000
0000
0100
0000
0001
,
0010
0000
0010
0001
0000
0000
0010
0000
0000
1100
0000
1000
,
0002
0003
0200
0300
,
0100
0000
0001
1000
0000
0000
1100
0000
0000
1000
0000
1000
,
0010
0000
0000
0100
0000
0001
0100
0000
0100
0001
0000
0001
,
0010
0100
1100
0101
,
0011
0000
0000
0001
0000
1000
0000
0001
0000
0100
0000
0000
,
0010
1010
0110
1010
,
1000
0000
1000
0100
0000
0100
1000
0000
0000
0001
0000
0000
,
0100
0011
1010
1001
,
1000
0000
1000
0010
0000
0010
0100
0000
0100
0001
0000
0000
,
1001
0000
1000
0001
0000
0000
0200
0000
0000
0300
0000
0000
,
0101
0101
2002
3003
,
0001
0000
0001
0100
0000
0100
0010
0000
0010
1000
0000
1000
,
0010
0000
0000
0000
,
1002
0000
0000
0000
,
0203
0000
0000
0000
,
0320
0000
0000
0000
,
2030
0000
0000
0000
,
3200
0000
0000
0000
,
0320
0000
0000
0000
,
0032
0000
0000
0000
,
0000
0000
2003
0000
,
3020
0000
0000
0000
,
0230
0000
0000
0000
,
0302
0000
0000
0000
,
2003
0000
0000
0000
,
3020
0000
0000
0000
,
0000
0000
2030
0000
,
3001
0000
0000
0000
,
0000
0000
0000
0000
,
0101
0000
0001
0100
0000
0100
0001
0000
0001
1000
0000
0000
,
0010
0001
1000
0100
,
0101
0000
0000
1001
0000
0000
1010
0000
0010
1000
0000
0000
,
1000
0000
0100
1000
0000
0010
1000
0000
0001
0100
0000
0100
,
0002
0000
0000
0003
0000
0001
0020
0000
0000
0030
0000
0010
,
0200
0000
0000
0300
0000
0100
2000
0000
0000
3000
0000
1000
,
0020
0000
0000
0030
0000
0010
0200
0000
0000
0300
0000
0100
,
0002
0000
0000
0003
0000
0001
2000
0000
0000
3000
0000
0000
,
1000
0000
1000
0001
0000
0001
1000
0000
1000
0001
0000
0001
,
1000
0000
0001
1000
0000
0001
1000
0000
0001
1000
0000
0001
,
0100
0000
0101
0000
1001
0000
1001
0000
1100
0000
1100
0000
,
2002
0000
0000
3003
,
1001
0000
0001
0100
0000
0100
0010
0000
1000
0010
0000
0010
,
1000
0000
1000
0100
0000
0100
1000
0000
0000
1100
0000
0000
,
1010
0000
0010
1000
0000
0001
0100
0000
0100
0001
0000
0010
,
0001
0000
0001
0100
0000
0100
0010
0000
0000
1010
0000
0000
,
1001
0000
0000
0011
0000
0000
1100
0000
0000
1000
0000
0001
,
0100
0000
0100
0001
0000
1000
0010
0000
0010
1000
0000
0001
,
0010
0000
0000
0010
0000
0001
1000
0000
0000
0001
0000
0100
,
0010
0000
0000
0110
,
1001
0000
1000
0001
0000
0000
1000
0000
0010
1000
0000
0001
,
0100
0000
0000
0010
0000
0100
0001
0000
1001
0000
0110
0000
,
1001
0000
0001
0100
0000
0000
0001
0000
0000
1000
0000
0010
,
1000
0000
1000
0100
0000
0100
0010
0000
0000
0011
0000
0000
,
1001
0000
0000
1000
0000
0100
1000
0000
0000
0001
0000
0100
,
0010
0000
0000
1000
0000
1000
0001
0000
0001
0010
0000
0001
,
1000
0100
0010
0001
,
2100
0000
0000
3000
,
1000
0000
0000
0001
0000
0001
0100
0000
0000
0110
0000
0000
,
0010
0000
0010
1000
0000
1000
0001
0000
0000
1001
0000
0000
,
0001
0000
0000
0010
0000
0010
0100
0000
0000
1000
0000
0000
,
0001
0000
0001
0100
0000
0100
0002
0000
0000
0023
0000
0000
,
0130
0000
0000
1000
0000
0100
1000
0000
1000
0001
0000
0000
,
0010
0000
0000
0011
0000
0001
0100
0000
0000
0101
0000
0000
,
0001
0000
0000
1000
0000
1000
0010
0000
0000
0100
0000
0000
,
0001
0000
0001
1000
0000
1000
0001
0000
0001
1000
0000
0000
,
0110
0000
0000
0000
;

//---------------dance-single - aurae----------------
#NOTES:
     dance-single:
     aurae:
     Hard:
     9:
     0.569,0.668,0.465,0.195,0.673,393.000,55.000,23.000,0.000,0.000,0.000,0.569,0.668,0.465,0.195,0.673,393.000,55.000,23.000,0.000,0.000,0.000:
0000
0000
0000
0000
,
0000
0000
0000
0000
,
0000
0000
0000
0000
,
0000
0000
0000
0000
,
0000
0000
0000
0000
,
0000
0000
0000
0000
,
1001
0000
0000
0000
,
1000
0000
0000
1000
0000
0000
0010
0000
0000
0010
0000
0010
,
1000
0000
0000
0001
0000
0000
0100
0000
0000
0100
0000
0100
,
0001
0000
0001
1000
0000
0000
0010
0000
0000
0010
0000
0010
,
1000
0010
0100
0100
,
0002
1000
1000
0100
,
1003
0000
0000
0001
0000
0000
0100
0000
0100
0001
0000
0001
,
1000
0000
1000
0010
0000
0000
0010
0000
0000
1000
0000
0001
,
1000
0000
0000
0000
0000
0000
0110
0000
0000
1001
0000
1000
,
0001
0000
0100
0001
0000
0001
0010
0000
0000
0001
0000
0001
,
0100
0000
0010
0100
0000
0010
1000
0000
1000
0010
0000
0010
,
0100
0000
0100
0001
0000
1000
0001
0000
0000
1001
0000
1000
,
0010
0000
0100
0010
0000
1000
0000
0001
1000
0020
0000
0000
,
1030
1010
1001
0101
,
0001
0000
0001
0010
0000
0000
0100
0000
0000
0010
0000
0010
,
1000
0000
0001
0100
0000
0000
0100
0000
0000
0010
0000
0000
,
1000
0010
0100
0010
0000
0010
1000
0000
1000
0001
0000
0000
,
0100
0000
0100
0001
0000
0000
0101
0000
0000
1001
0000
0000
,
0110
1001
1100
1001
,
0001
0000
0001
0010
0000
0010
0100
0000
0100
1000
0000
1000
,
0100
0000
0000
0000
,
0002
0000
0000
0000
,
2003
0000
0000
0000
,
3020
0000
0000
0000
,
0230
0000
0000
0000
,
0320
0000
0000
0000
,
2030
0000
0000
0000
,
3002
0000
0000
0000
,
0000
0000
2003
0000
,
3020
0000
1000
0000
,
0230
0000
0001
0000
,
0302
0000
1000
0000
,
2003
0001
0001
0000
,
3002
0000
0100
0000
,
0100
0000
0203
0300
,
2002
0000
0000
0000
,
3003
0000
0000
0000
,
1001
0000
1000
0010
0100
0010
1000
0100
0010
0001
0000
0001
,
0100
0010
0100
0001
0010
0100
1000
0000
0010
1000
0000
1000
,
0100
0000
0100
1000
0001
0010
0001
0100
0010
1000
0000
1000
,
0100
1000
0001
0100
0001
0010
0100
0010
0001
1000
0000
0000
,
0101
0000
0000
0001
0100
0001
1001
0000
0000
1000
0001
1000
,
1010
0000
0000
0010
1000
0010
0110
0000
0000
0010
0100
0010
,
1001
0000
0000
1000
0001
0010
0011
0000
0000
0001
1000
0100
,
1100
0000
0000
1000
0100
0010
1001
0000
0000
0001
0100
0010
,
1000
0000
1000
0001
0000
0001
1000
0000
1000
0010
0000
0010
,
0100
0000
0100
0001
0000
0001
1000
0000
1000
0010
0000
0010
,
1000
0000
1010
0000
1001
0000
0101
0000
0011
0000
1001
0000
,
0220
0000
0000
0330
,
0101
0000
0000
1001
0000
0000
1010
0000
0000
1001
0000
1000
,
0001
1000
0100
0010
0001
0100
0010
0000
0010
1000
0000
1000
,
0001
0000
0000
1010
0000
0000
1001
0000
0000
0101
0000
0001
,
0100
0010
1000
0010
0100
0001
1000
0100
1000
0010
0000
0010
,
0200
0000
0000
0301
0000
0000
0101
0000
0000
1001
0000
1000
,
0010
0100
0010
1000
0100
1000
0001
0000
0100
0010
0000
1000
,
0001
0000
0000
1001
0000
0000
1010
0000
0000
0110
0000
0010
,
1000
0100
1000
0001
0100
0010
1000
0000
1000
0020
0000
0000
,
1030
0000
1000
0010
0000
0000
0100
0000
0000
0001
0000
0001
,
0100
0000
0100
0001
0000
0001
1000
0000
1010
0000
1001
0000
,
0101
0000
0001
0100
0000
0100
0010
0000
0000
0010
0000
1000
,
0100
0000
0100
1000
0100
1000
0001
0000
0000
0101
0000
0000
,
1001
0000
1000
0010
0000
0000
0100
0000
0000
0100
0000
0001
,
0100
0000
0001
1000
0000
1000
0010
0000
0010
0100
0000
0100
,
0001
0000
0001
1000
0000
1000
0010
0000
0000
1010
0000
1000
,
0002
0000
0000
0003
,
1010
0000
0000
0110
0000
0000
0110
0000
0010
1000
0000
0000
,
1000
0000
1000
0001
0000
0100
0001
0000
0010
0001
0000
0000
,
0100
0000
0000
1100
0000
0000
1010
0000
0010
1000
0000
0000
,
0100
0000
1000
0010
1000
0010
1000
0000
0001
0100
0000
0000
,
0101
0000
0001
1000
0000
0010
0100
0000
0100
0010
0000
0000
,
1000
0000
0010
0100
0000
0001
0100
0000
0010
1000
0100
1000
,
0010
0000
0010
0100
0000
0001
1000
0000
1000
0010
0000
0000
,
1010
0000
1000
0001
0000
1000
0001
0000
0100
0010
0000
0000
,
0110
0000
0000
0000
;
