#TITLE:empowering change;
#SUBTITLE:;
#ARTIST:alva noto & byetone;
#TITLETRANSLIT:;
#SUBTITLETRANSLIT:;
#ARTISTTRANSLIT:;
#GENRE:;
#CREDIT:;
#MENUCOLOR:;
#METERTYPE:DDR;
#BANNER:empoweringchange.png;
#BACKGROUND:empoweringchange-bg.png;
#LYRICSPATH:;
#CDTITLE:!auraesimfilesmix2.png;
#MUSIC:empoweringchange.mp3;
#OFFSET:0.035;
#SAMPLESTART:38.415;
#SAMPLELENGTH:19.200;
#SELECTABLE:YES;
#LISTSORT:;
#DISPLAYBPM:125.000;
#BPMS:0.000=125.000,216.000=62.500;
#STOPS:;
#BGCHANGES:;
#ATTACKS:;

//---------------dance-single - aurae----------------
#NOTES:
     dance-single:
     aurae:
     Easy:
     3:
     0.184,0.218,0.027,0.000,0.000: // measure 1
0000
0000
0000
0000
,  // measure 2
0000
0000
0000
0000
,  // measure 3
0000
0000
0000
0000
,  // measure 4
0000
0000
0000
0000
,  // measure 5
0010
0000
0001
0010
,  // measure 6
0010
0000
0001
1000
,  // measure 7
1000
0000
0010
0100
,  // measure 8
0100
0000
0010
1000
,  // measure 9
0100
0000
1000
0001
,  // measure 10
0001
0000
0100
0001
,  // measure 11
0001
0000
1000
0010
,  // measure 12
0010
0000
0100
0010
,  // measure 13
1000
0000
0100
0000
,  // measure 14
1000
0000
0001
0001
,  // measure 15
0001
0000
0010
0000
,  // measure 16
0001
0000
0100
0000
,  // measure 17
0010
0000
1000
0000
,  // measure 18
0010
0000
1000
1000
,  // measure 19
1000
0000
0100
0000
,  // measure 20
1000
0000
0001
0000
,  // measure 21
0010
0010
0001
0001
,  // measure 22
0100
0000
0001
0000
,  // measure 23
1000
1000
0010
0010
,  // measure 24
0100
0000
0010
0000
,  // measure 25
1000
1000
0100
0100
,  // measure 26
0010
0000
0001
0000
,  // measure 27
0100
0100
0001
0001
,  // measure 28
1000
0000
0001
1000
,  // measure 29
1001
0000
0000
0000
,  // measure 30
0000
0000
0000
0000
,  // measure 31
0100
0100
0100
0100
,  // measure 32
1000
0000
1000
0000
,  // measure 33
0001
0010
0001
0000
,  // measure 34
0100
0001
0100
0000
,  // measure 35
0010
0010
0010
0010
,  // measure 36
1000
0000
0100
1000
,  // measure 37
0001
0000
0100
0001
,  // measure 38
1000
0000
0001
0100
,  // measure 39
0001
0010
0010
0001
,  // measure 40
0001
0000
1000
0001
,  // measure 41
0100
0100
0010
0010
,  // measure 42
1000
0000
0100
1000
,  // measure 43
0001
0001
0100
0100
,  // measure 44
0001
0000
0010
0000
,  // measure 45
0001
1000
1000
0001
,  // measure 46
0100
0000
0001
1000
,  // measure 47
1001
0000
0100
0000
,  // measure 48
0010
0000
0001
0100
,  // measure 49
0001
0000
0100
0000
,  // measure 50
0010
0000
1000
0010
,  // measure 51
0100
0000
0010
0000
,  // measure 52
1000
0000
0100
0010
,  // measure 53
0001
0000
0100
0000
,  // measure 54
0010
0000
1000
0001
,  // measure 55
1001
0000
0000
0000
;

//---------------dance-single - aurae----------------
#NOTES:
     dance-single:
     aurae:
     Medium:
     6:
     0.341,0.342,0.036,0.018,0.040:
0000
0000
0000
0000
,
0000
0000
0000
0000
,
0000
0000
0000
0000
,
0000
0000
0000
0000
,
1000
0000
0010
0000
0010
0000
1000
0100
,
1000
0000
0001
0000
0001
0000
0100
0001
,
0100
0000
0001
0000
0001
0000
1000
0010
,
1000
0000
0100
0000
0010
0000
0001
0100
,
0001
0000
0100
0000
0100
0000
0001
1000
,
0001
0000
1000
0000
1000
0000
0010
1000
,
0100
0000
0100
0000
1000
0000
0001
1000
,
0001
0100
0001
0010
,
0001
0000
1001
0000
0000
0000
1000
0100
,
1000
0000
0010
0000
0100
0010
1000
0000
,
0100
0000
1001
0000
0000
0000
0001
0010
,
0001
0000
0100
0000
0001
1000
0001
1000
,
0001
0000
1100
0000
0000
0000
0001
1000
,
0010
0000
0100
0000
0010
1000
0100
0000
,
1000
0000
0011
0000
0000
0000
0001
0100
,
0010
0000
0010
1000
0100
1000
0001
0000
,
0100
0000
0001
0100
0001
0100
0001
0100
,
0010
0000
1000
0000
0001
1000
0001
0000
,
1000
0000
0010
1000
0010
1000
0010
1000
,
0001
0000
0100
0001
1000
0100
1000
0000
,
0010
0000
0100
0001
0100
0001
0010
0000
,
0001
0000
0100
0010
1000
0100
1000
0000
,
0001
0000
0100
0001
0100
0001
0100
0001
,
1000
0000
1000
0010
0100
0000
0010
0000
,
2000
0000
0000
0000
,
0000
0000
0000
0000
,
3001
0000
0000
0000
0100
0000
0001
0000
0000
0000
0001
0000
0000
0100
0000
0000
,
0001
0000
0000
0000
1000
0000
0001
0000
0000
0000
1000
0000
0000
0001
0000
0000
,
1000
0000
0000
0000
0100
0000
1000
0000
0000
0000
0010
0000
0000
1000
0000
0000
,
0010
0000
0000
0000
0100
0000
0001
0000
0000
0000
0100
0000
0000
0001
0000
0000
,
1000
0000
0000
0000
0100
0000
1000
0000
0000
0000
0010
0000
0000
1000
0000
0000
,
0100
0000
0000
0000
1000
0000
0001
0000
0000
0000
0100
0000
0000
0001
0000
0000
,
0010
0000
0000
0000
0001
0000
1000
0000
0000
0000
0100
0000
0000
1000
0000
0000
,
0010
0000
0000
0000
0100
0000
0010
0000
0000
0000
1000
0000
0000
0100
0000
0000
,
1000
0000
0001
0100
0001
0100
0001
0000
,
1000
0000
0010
1000
0010
1000
0100
1000
,
0001
0000
0100
0001
0100
0001
0100
0000
,
0001
0000
0010
0001
0010
0001
0100
0000
,
0001
0000
1000
0100
1000
0010
0100
0000
,
0010
0000
1000
0100
1000
0001
0100
0001
,
0010
0000
0001
0100
0001
1000
0100
0000
,
1000
0000
0010
0100
0001
0010
0100
1000
,
0001
0000
0100
0000
0001
0000
0100
0001
,
0100
0000
0001
0000
1000
0000
0010
1000
,
0010
0000
1000
0000
0100
1000
0100
1000
,
0001
0000
0100
0000
0001
0000
1000
0100
,
1000
0000
0001
0000
0100
0000
0001
0010
,
0001
0000
1000
0000
0010
0000
0100
0010
,
1000
0000
0100
0000
1000
0000
0001
0100
,
0001
0000
0000
0000
1000
0000
0001
0000
0000
0000
0100
0000
0000
0001
0000
0000
,
0200
0000
0300
0000
;

//---------------dance-single - aurae----------------
#NOTES:
     dance-single:
     aurae:
     Hard:
     8:
     0.410,0.415,0.152,0.072,0.126:
0000
0000
0000
0000
,
0000
0000
0000
0000
,
0000
0000
0000
0000
,
0000
0000
0000
0000
,
1000
0010
1000
0010
1000
0000
0000
0000
,
0001
0010
0001
0010
0001
0000
0000
0000
,
0100
0001
0100
0001
0100
0000
0000
0000
,
0001
0000
1000
0000
0001
0000
1000
0000
0001
0000
0000
0100
0000
0000
0001
0000
,
1000
0010
0100
0010
1000
0000
0100
0000
,
0010
0001
0100
0001
1000
0000
0001
0000
,
0100
0010
1000
0001
0100
0000
0010
0000
,
0100
0000
0001
0000
1000
0000
0001
0000
0010
0000
0001
0000
0000
1000
0000
0000
,
1010
0000
1000
0001
0100
0000
0101
0000
,
0001
0000
1000
0010
0100
0000
1001
0000
,
1000
0010
0100
0010
1000
0000
0001
0010
,
0001
0000
0001
0000
0100
0010
1000
0010
,
0100
0000
0101
0000
0001
1000
0100
1000
,
0010
0000
1100
0000
1000
0100
0010
0001
,
0100
0000
0101
0000
0001
1000
0010
0100
,
0001
0000
0100
0010
1000
0010
0100
0010
,
2000
0000
0000
0000
0001
0000
0010
0000
3000
0000
0001
0000
1000
0100
0000
0000
,
1100
0000
1000
0100
0010
0001
0100
0000
,
0001
0000
0010
0001
0100
0000
0001
1000
,
0010
0010
0100
0000
0100
0010
1000
0001
,
0200
0000
0000
0000
0001
0000
0010
0000
0300
0000
0001
0000
0100
0010
0000
0000
,
0110
0000
0010
1000
0100
1000
0001
0000
,
0010
0001
0100
0010
1000
0100
1000
0100
,
0010
0000
0001
0100
0010
1000
0010
0100
,
0002
0000
0000
0000
,
0000
0000
0000
0000
,
1003
0000
0001
0000
0001
0000
0000
0000
0100
0000
0001
0000
0000
1000
0000
0000
,
0010
0000
1000
0000
1000
0000
0000
0000
0100
0000
0010
0000
0001
0010
0000
0000
,
0011
0000
0000
0000
0001
0000
0100
0000
0010
0000
1000
0000
0000
0010
0000
0000
,
1000
0000
0001
0000
0100
0000
0001
0000
0000
0000
1001
0000
0000
0110
0000
0000
,
1001
0000
0000
0000
0001
0000
1000
0000
0100
0000
0010
0000
0000
0001
0000
0000
,
0100
0000
0000
0000
0010
0000
1000
0000
0100
0000
1000
0000
0000
0010
0000
0000
,
0100
0000
0000
0000
0001
0000
1000
0000
0100
0000
1000
0000
0000
0001
0000
0000
,
0010
0000
0001
0000
0100
0000
0001
0000
0000
0000
0101
0000
0000
1100
0000
0000
,
1001
0000
0001
0000
1000
0000
1000
0000
0001
0000
0100
0000
0001
0100
0001
0000
,
0200
0000
0000
0000
0300
0000
0000
0000
0001
0000
1000
0000
0000
0010
0000
0000
,
1000
0000
0001
0000
0001
0000
1000
0000
0001
0000
0100
0000
0001
0100
0001
0000
,
2000
0000
0000
0000
3000
0000
0001
0000
0000
0000
0100
0000
0000
0001
0000
0000
,
1000
0000
0010
0000
0010
0000
1000
0000
0001
0000
0001
0000
1000
0100
1000
0000
,
0020
0000
0000
0000
0030
0000
0000
0000
1000
0000
0100
0000
0010
0001
0000
0000
,
0010
0000
0001
0000
0001
0000
1000
0000
0010
0000
1000
0000
0001
1000
0001
0000
,
0200
0000
0000
0000
0300
0000
0001
0000
0000
0000
1000
0000
0000
0010
0000
0000
,
0100
0000
0000
0000
0001
0000
1000
0000
0000
0000
0001
0000
0000
0100
0000
0000
,
0010
0000
0000
0000
1000
0000
0001
0000
0000
0000
0010
0000
0000
0001
0000
0000
,
0100
0000
0000
0000
0101
0000
0001
0000
0000
0000
1000
0000
0001
0100
0000
0000
,
0001
0000
0000
0000
1001
0000
1000
0000
0000
0000
0010
0000
1000
0100
0000
0000
,
0100
0000
0000
0000
0010
0000
0001
0000
0000
0000
0010
0000
0000
0100
0000
0000
,
1000
0000
0000
0000
0010
0000
1000
0000
0000
0000
0001
0000
0100
0001
0000
0000
,
1000
0000
0000
0000
0010
0000
0100
0000
0000
0000
0001
0000
0000
1000
0000
0000
,
0010
0000
0000
0000
1000
0000
0001
0000
0000
0000
0100
0000
0001
1000
0000
0000
,
0020
0000
0030
0000
;
