#TITLE:animal arithmetic;
#SUBTITLE:;
#ARTIST:jónsi;
#CREDIT:;
#MUSIC:animalarithmetic.mp3;
#SELECTABLE:YES;
#BACKGROUND:animalarithmetic-bg.png;
#BANNER:animalarithmetic.png;
#CDTITLE:!auraesimfilesmix2.png;
#DISPLAYBPM:158.000:158.000;
#OFFSET:-0.415601;
#SAMPLESTART:59.235;
#SAMPLELENGTH:19.760;
#BPMS:0=157.998,5=158.008,6=157.998,11=158.008,12=157.998,17=158.008,18=157.998,23=158.008,24=157.998,29=158.008,30=157.998,35=158.008,36=157.998,41=158.008,42=157.998,47=158.008,48=157.998,53=158.008,54=157.998,59=158.008,60=157.998,66=158.008,67=157.998,72=158.008,73=157.998,78=158.008,79=157.998,84=158.008,85=157.998,90=158.008,91=157.998,96=162.991,97=157.998,98=165.592,99=157.998,101=142.726,102=162.991,103=157.998,108=158.008,109=157.998,114=158.008,115=157.998,120=158.008,121=157.998,126=158.008,127=157.998,133=158.008,134=157.998,139=158.008,140=157.998,145=158.008,146=157.998,151=158.008,152=157.998,157=158.008,158=157.998,163=158.008,164=157.998,169=158.008,170=157.998,175=158.008,176=157.998,181=158.008,182=157.998,187=158.008,188=157.998,193=158.008,194=157.998,199=158.008,200=157.998,205=158.008,206=157.998,211=158.008,212=157.998,217=158.008,218=157.998,223=158.008,224=157.998,230=158.008,231=157.998,236=158.008,237=157.998,242=158.008,243=157.998,248=158.008,249=157.998,254=158.008,255=157.998,261=158.008,262=157.998,267=158.008,268=157.998,273=158.008,274=157.998,279=158.008,280=157.998,285=158.008,286=157.998;
#STOPS:;
#ARTISTTRANSLIT:jonsi;
#BGCHANGES:0.000=animalarithmetic.avi=1.000=1=0=0,288.000=animalarithmetic-bg.png=1.000=1=0=1,99999=-nosongbg-=1.000=0=0=0
;

//---------------dance-single - ----------------
#NOTES:
     dance-single:
     :
     Easy:
     3:
     0.000,0.000,0.000,0.000,0.000:
0000
0000
0000
0000
,
0000
0000
0000
0000
,
0000
0000
0000
0000
,
0000
0000
0000
0000
,
0000
0000
0000
0000
,
0000
0000
0000
0010
,
0000
0010
0000
0010
,
0010
0010
0000
0001
,
0001
1000
1000
0010
,
0010
1000
0000
0100
,
0100
1000
1000
0001
,
0001
0100
0000
0001
,
0001
1000
1000
0010
,
0010
1000
0000
0010
,
0010
0100
0100
0002
,
0000
0000
0000
0023
,
0000
0230
0000
2300
,
0000
0000
0000
3020
,
0000
0000
0030
0100
,
0001
0001
0001
1000
,
0001
0001
0001
0100
,
0001
0001
0001
1000
,
0010
1000
0000
0010
,
1000
0100
0000
1001
,
0000
0000
0000
0000
,
0000
0000
0000
0001
,
0001
0010
0010
0001
,
0000
1000
0000
0100
,
0100
1000
1000
0010
,
0010
0100
0100
0001
,
0001
0010
0010
0001
,
1000
0001
0000
1000
,
1000
0100
0100
1000
,
1000
0001
0001
0100
,
0100
0010
0010
2000
,
0000
0000
0000
3002
,
0000
0203
0000
0320
,
0000
0000
0000
2030
,
0000
0000
0000
3002
,
0000
0000
0000
0203
,
0000
0320
0000
2030
,
0000
0000
0000
3100
,
0000
0000
0000
1000
,
1000
0001
0001
0100
,
0100
0001
0001
0010
,
0001
0010
0000
0100
,
1000
0100
0000
1000
,
0001
1000
0000
0001
,
0001
0100
0100
0001
,
0001
1000
1000
0010
,
0010
1000
0100
1000
,
0000
0001
0010
0001
,
0000
0000
0000
0000
,
0000
0000
0000
0000
,
0000
0000
0000
0000
,
0000
0000
0000
0001
,
0000
0100
0000
0100
,
0000
0001
0000
1000
,
0000
0010
0000
0001
,
0000
1000
0000
0100
,
0000
1000
0010
1000
,
0000
0100
1000
0001
,
0000
0100
0001
0100
,
0000
0001
0000
0010
,
0000
0001
0010
0001
,
0000
0100
0010
1000
,
0000
0100
1000
0001
,
0000
0100
0001
1001
,
0000
0000
0000
0000
,
0000
0000
0000
0000
,
0000
0000
0000
0000
,
0000
0000
0000
0000
,
0000
0000
0000
0000
;

//---------------dance-single - ----------------
#NOTES:
     dance-single:
     :
     Medium:
     5:
     0.000,0.000,0.000,0.000,0.000:
0000
0000
0000
0000
,
0000
0000
0000
0000
,
0000
0000
0000
0000
,
0000
0000
0000
0000
,
0000
0000
0000
0000
,
0000
0000
0000
0001
,
0010
0010
0001
1000
,
0010
0000
0100
0001
0100
0001
0100
0000
,
0001
1000
1000
0010
,
1000
0000
0001
0000
0001
0000
0010
0001
,
0010
0000
0001
0100
0001
0000
0100
0010
,
0100
0000
0010
1000
0100
0000
0010
0000
,
0001
0100
0100
0010
,
1000
0000
0001
0000
0001
0000
0100
0001
,
0100
0000
0001
1000
0001
0000
0200
0000
,
1000
0000
0301
0010
,
0100
0000
1000
0000
0001
0010
0001
0000
,
0100
0010
1000
0100
,
0010
0000
0001
1000
0100
0000
1002
0000
,
0003
0201
0300
0120
,
2030
0100
0010
3100
,
1000
0000
0001
0000
0100
0001
0010
0000
,
0001
0000
0001
0000
1000
0000
0001
1000
,
0010
0000
1000
0000
1000
0100
0010
0000
,
0000
0000
0000
0000
,
0000
0000
0001
0100
0001
0100
0001
0000
,
1000
0000
0100
0000
1000
0000
0010
1000
,
0010
1000
0020
0000
0030
0000
0100
0000
,
0001
0010
0010
0001
,
1000
0000
0100
0000
0100
0000
1000
0010
,
1000
0000
0010
0100
0010
0000
0100
0001
,
0100
0000
0001
0010
0001
0000
0010
0000
,
0100
1000
1000
0001
,
0100
0000
0010
0000
0010
0000
1000
0100
,
1000
0000
0001
0100
0001
0100
0002
0000
,
0100
0010
0103
0001
,
1000
0000
0100
0000
1000
0020
0001
0000
,
0000
1030
0100
0001
,
0100
0000
1000
0000
0010
0000
0100
0010
,
0100
0000
0010
1000
0100
0000
0010
0001
,
0010
0000
0001
0000
0100
0020
1000
0000
,
0000
0000
0031
0000
0010
1000
0100
0000
,
0010
0000
0001
1000
0001
1000
0100
0000
,
1000
1001
1001
0001
,
0100
0020
0030
1000
,
0001
0011
0011
0001
,
0100
0000
0010
0000
1000
0000
0001
0100
,
0001
0000
0110
0000
0100
1000
0010
0000
,
0100
0000
0001
0000
0010
0001
1000
0000
,
0001
0000
0100
0001
0100
0000
0001
1000
,
0001
0000
1000
0000
0010
1000
0100
0000
,
0100
0000
1000
0001
0010
0001
0200
0000
,
0000
0000
0000
0000
,
0000
0000
0000
0000
,
0000
0000
0000
0000
0000
0300
0000
0000
,
0000
0000
0000
0000
0000
0000
0000
0001
,
0010
0001
1000
0000
0100
0000
0000
1000
,
0010
1000
0002
0000
0003
0000
0000
0001
,
0100
0010
0100
0000
0010
0000
0000
1000
,
0001
0010
0002
0000
0003
0000
1000
0000
,
0001
0000
0100
0000
0100
0000
0001
1000
,
0001
0000
1000
0000
1000
0000
0010
1000
,
0010
0000
0100
0000
0001
0000
0010
0001
,
0010
0001
0020
0000
0030
0000
0100
1000
,
0100
0000
1000
0000
1000
0000
0010
0100
,
0010
0000
0100
0000
0100
0000
0001
0010
,
0001
0000
0010
0000
0010
0000
0001
0100
,
1000
0101
1001
0220
,
0000
0000
0000
0000
,
0000
0000
0000
0000
,
0000
0000
0000
0000
,
0000
0000
0000
0330
,
0000
0000
0000
0000
;

//---------------dance-single - ----------------
#NOTES:
     dance-single:
     :
     Hard:
     8:
     0.000,0.000,0.000,0.000,0.000:
0000
0000
0000
0000
,
0000
0000
0000
0000
,
0000
0000
0000
0000
,
0000
0000
0000
0000
,
0000
0000
0000
0000
,
0000
0000
0000
0010
,
1010
1010
1001
0001
,
0100
0100
0001
1000
,
0100
0100
1000
0001
1000
0000
0001
0010
,
0001
0000
0010
0001
0100
0000
0100
0000
,
0101
0000
0101
0000
1001
0000
1000
0010
,
0010
1000
0100
0000
1000
0000
0001
0100
,
1000
0000
0001
0010
1000
0000
0100
0010
,
0001
0000
1000
0100
0010
0000
0100
0000
,
1000
0000
1000
0001
0001
0100
0002
0000
,
0010
0100
0010
0100
,
0103
0000
0001
1000
1000
0010
0100
0000
,
0001
0011
1010
1000
,
0001
0000
0100
0001
1000
0000
0100
0010
,
0001
0010
0100
0000
0010
0001
0000
0100
,
0001
0000
1000
0000
0010
1000
0100
1000
,
0010
0000
0100
0000
0001
1000
0100
0000
,
1100
1100
1001
0001
,
0010
0001
0100
0100
0010
1000
0100
0000
,
0100
0100
0100
0100
,
0010
0000
0010
0001
0010
0001
0100
0001
,
0001
0000
0010
0001
1000
0000
0100
2000
,
0000
3010
0100
0000
0001
0000
1001
0000
,
0100
0000
0010
1000
0010
0000
1000
0100
,
0100
0000
0010
0001
0100
0000
0001
0000
,
0011
0000
0010
0001
0100
0000
0010
1000
,
1000
0100
1000
0001
0100
0000
0101
0000
,
0001
0000
1000
0010
1000
0000
0100
0010
,
0010
0000
0001
1000
0010
0000
1000
0010
,
0100
0000
0010
1000
1000
0001
0200
0000
,
0001
0010
0001
0001
,
0010
0000
0301
0000
0100
1000
0100
0000
,
0010
1000
0100
0000
0010
0000
0001
0010
,
1000
0010
0001
0000
0100
0000
0010
1000
,
0001
0000
0010
0001
1000
0000
0100
0000
,
1100
0000
1001
0000
1000
0010
0001
0000
,
0010
0000
0100
0001
1000
0001
1000
0010
,
0100
0001
0010
0000
0000
0000
1002
0000
,
0100
0000
0103
0001
1000
0020
0100
0000
,
0100
0000
1030
0000
0010
1000
0100
0000
,
0010
0000
0001
1000
0001
1000
0100
0000
,
0010
0011
1001
0110
,
0100
0001
1000
0100
1000
0000
0020
0000
,
0032
0203
2300
3020
,
0130
0000
0010
1000
0010
0000
0100
0000
,
0100
0000
0001
0010
0100
0000
1000
0000
,
0010
0000
1000
0001
0100
0001
0020
0000
,
0000
0100
0000
0100
,
0000
0100
0000
0130
,
0000
0000
0100
0000
0010
0001
1000
0000
,
0100
0000
2000
0000
0000
0000
3000
0010
,
1000
0001
1000
0000
0002
0000
0003
0010
,
0001
0100
0010
0000
2000
0000
3000
0100
,
1000
0001
0100
0000
0010
0000
1000
0100
,
1000
0000
0020
0000
0030
0000
0010
1000
,
0000
0001
0100
0000
0101
0000
0001
1000
,
0000
0010
0100
0000
0010
1000
0100
1000
,
0000
0001
0010
0000
0011
0000
0001
0100
,
0010
0000
1000
0100
0010
0001
0100
0010
,
1000
1000
0010
0000
1010
0000
1000
0100
,
0010
0000
0001
0000
0100
0000
0001
1000
,
0001
0001
0100
0000
0101
0000
0001
1000
,
0100
1000
0010
1000
0001
0100
2002
0000
,
0000
0000
0000
0000
,
0000
0000
0000
0000
,
0000
0000
0000
0000
,
0000
0000
0000
3003
,
0000
0000
0000
0000
;
