#TITLE:What's in your heart;
#SUBTITLE:;
#ARTIST:KNOWER;
#TITLETRANSLIT:;
#SUBTITLETRANSLIT:;
#ARTISTTRANSLIT:;
#GENRE:;
#CREDIT:;
#MENUCOLOR:;
#METERTYPE:DDR;
#BANNER:whatsinyourheart.png;
#BACKGROUND:whatsinyourheart-bg.png;
#LYRICSPATH:;
#CDTITLE:!auraesimfilesmix2.png;
#MUSIC:whatsinyourheart.mp3;
#OFFSET:0.012;
#SAMPLESTART:44.395;
#SAMPLELENGTH:19.720;
#SELECTABLE:YES;
#LISTSORT:;
#DISPLAYBPM:146.000;
#BPMS:0.000=146.000,160.000=310.000,161.000=146.000,180.000=73.000,206.000=146.000;
#STOPS:160.000=0.220
;
#BGCHANGES:;
#ATTACKS:;

//---------------dance-single - aurae----------------
#NOTES:
     dance-single:
     aurae:
     Easy:
     5:
     0.305,0.378,0.158,0.019,0.000: // measure 1
0000
0000
0000
0000
,  // measure 2
0000
0000
0000
0000
,  // measure 3
0000
0000
0000
0000
,  // measure 4
0000
0000
0000
0000
,  // measure 5
0010
0000
0000
0011
0000
0000
0000
0000
,  // measure 6
0001
0000
0000
1001
0000
0000
0000
0000
,  // measure 7
1000
0000
0000
1100
0000
0000
0000
0000
,  // measure 8
1000
0000
0000
1010
0000
0000
0000
0000
,  // measure 9
0010
1000
0100
1000
,  // measure 10
0001
0001
0100
0001
,  // measure 11
1000
1000
0001
0010
,  // measure 12
0001
0000
0100
0001
0000
0001
0100
0000
,  // measure 13
0001
1000
1000
0100
,  // measure 14
1000
0010
0010
0000
,  // measure 15
1000
0001
0100
0001
,  // measure 16
1000
0000
1000
0001
0000
0001
1000
0000
,  // measure 17
0001
0010
0001
0100
,  // measure 18
0001
1000
0100
1000
,  // measure 19
1010
0010
0010
0010
,  // measure 20
0010
0010
0010
0000
,  // measure 21
1000
0000
0001
0000
,  // measure 22
0100
0001
0001
1000
,  // measure 23
0100
0000
1000
0000
,  // measure 24
0001
0010
0001
0001
,  // measure 25
0100
0000
0001
0000
,  // measure 26
1000
0010
0010
1000
,  // measure 27
0100
0000
1000
0000
,  // measure 28
0001
0010
0001
0000
,  // measure 29
0100
0010
1000
0100
,  // measure 30
1000
1000
0100
1100
,  // measure 31
1000
0001
0100
0001
,  // measure 32
0010
0010
0001
0011
,  // measure 33
0001
0000
1000
0001
,  // measure 34
1000
1000
0100
0010
,  // measure 35
0001
1001
1000
0100
,  // measure 36
1000
0001
0001
0100
,  // measure 37
0001
0000
1000
0100
,  // measure 38
1000
0010
0010
0100
,  // measure 39
0010
1000
0100
1000
,  // measure 40
0001
0100
0001
0010
,  // measure 41
0000
0001
1000
1000
,  // measure 42
0001
0000
0010
0000
0001
0000
1000
0001
,  // measure 43
1000
0001
0100
0100
,  // measure 44
0010
0000
1000
0000
0100
0000
1000
0100
,  // measure 45
1000
0001
0100
0001
,  // measure 46
1001
0000
0000
0000
0001
0000
0001
1000
,  // measure 47
0100
0010
0000
0001
,  // measure 48
1000
0100
2000
3002
,  // measure 49
1003
0100
1000
0001
,  // measure 50
0100
0000
0100
0000
0001
0010
0001
0010
,  // measure 51
0001
0010
0001
0000
1000
0100
1000
0100
,  // measure 52
1000
0001
0100
0000
0001
0000
0100
0000
,  // measure 53
0001
1000
1100
1001
,  // measure 54
1100
1001
1000
0010
,  // measure 55
1000
0001
0100
0000
0010
1000
0001
0000
,  // measure 56
0010
0001
0010
0001
0010
0000
0001
0000
,  // measure 57
0100
0001
1001
0101
,  // measure 58
1001
0000
0101
0000
1000
0000
0100
1000
,  // measure 59
0001
1000
0010
0000
0000
0000
0000
0000
;

//---------------dance-single - aurae----------------
#NOTES:
     dance-single:
     aurae:
     Medium:
     7:
     0.472,0.460,0.232,0.223,0.060: // measure 1
0000
0000
0000
0000
,  // measure 2
0000
0000
0000
0000
,  // measure 3
0000
0000
0000
0000
,  // measure 4
0000
0000
0000
0000
,  // measure 5
1000
0100
1000
0010
0100
0100
0010
0000
,  // measure 6
1000
0000
0001
1000
0000
1000
0010
0000
,  // measure 7
0100
0010
1000
0100
1000
0001
0100
0001
,  // measure 8
0010
0000
0010
0001
0100
0000
1001
0000
,  // measure 9
0110
0000
0100
0010
1000
0100
1000
0000
,  // measure 10
0001
0000
1100
0000
1000
0100
0010
0001
,  // measure 11
0100
0000
0010
1000
0100
1000
0001
0010
,  // measure 12
0001
0000
0100
0000
0001
0100
0100
0001
,  // measure 13
1000
0100
1000
0100
1000
0100
0010
0001
,  // measure 14
0100
0000
0101
0000
1001
0000
1000
0001
,  // measure 15
0010
0001
0010
0001
0100
0000
0100
0001
,  // measure 16
0010
0001
1000
0000
1000
0100
1000
0010
,  // measure 17
0100
0000
0110
0000
0010
1000
0100
1000
,  // measure 18
0001
0000
0001
0100
0010
0000
0100
0001
,  // measure 19
0020
0001
0001
0001
,  // measure 20
0031
0010
0100
1000
,  // measure 21
2010
0000
0000
0000
3000
0000
0000
0010
0000
0000
1000
0000
0000
0001
0000
0000
,  // measure 22
0100
0000
0002
0000
0023
0000
0230
0310
,  // measure 23
0100
1100
0001
1100
,  // measure 24
0010
0000
1100
0000
0001
0000
1000
0001
,  // measure 25
0020
0000
0000
0000
0030
0000
0000
0001
0000
0000
0010
0000
0000
0001
0000
0000
,  // measure 26
0100
0000
0020
0000
2030
0000
3020
1030
,  // measure 27
0010
0000
0100
0000
0010
1000
0100
1000
,  // measure 28
0001
0101
1100
0000
,  // measure 29
1000
0100
1000
0001
0100
0001
0010
0001
,  // measure 30
0100
0010
1000
0010
0001
1000
0100
0001
,  // measure 31
0100
0000
0101
0000
0001
1000
0010
0100
,  // measure 32
0001
0100
0010
1000
0001
1000
0010
1000
,  // measure 33
0001
0000
0000
0000
0101
0000
0000
0001
0100
0000
0001
0000
0000
0100
0000
0000
,  // measure 34
0010
1000
0200
0000
2300
0000
3200
1300
,  // measure 35
0100
0000
0010
0001
0100
0001
1000
0000
,  // measure 36
1010
0011
0101
1001
,  // measure 37
1100
0000
0000
0000
1000
0000
0000
1000
0001
0000
0100
0000
0000
0001
0000
0000
,  // measure 38
0010
0001
0200
0000
0302
0000
0203
0301
,  // measure 39
0100
0010
1000
0000
0010
1000
0001
0100
,  // measure 40
0001
0000
0100
0010
1000
0000
0101
0000
,  // measure 41
1001
0000
1001
0000
0100
0001
0010
0001
,  // measure 42
0100
0000
0001
0000
1000
0100
1000
0000
,  // measure 43
0010
0000
1000
0000
0100
1000
0001
0100
,  // measure 44
0010
1000
0001
0100
,  // measure 45
0010
0010
1000
1000
0001
1000
0001
0200
,  // measure 46
0002
0000
0000
0000
0300
0000
0000
2000
,  // measure 47
0003
0200
3000
0000
0000
0000
0020
0000
,  // measure 48
0300
0002
0030
0000
1000
0000
0000
1003
,  // measure 49
0001
1000
0020
0000
0000
0000
2000
0000
,  // measure 50
0030
0002
3000
0000
0103
0001
0100
0001
,  // measure 51
1000
0001
1000
0000
0001
1000
0100
1000
,  // measure 52
0010
0000
0010
1010
,  // measure 53
1001
0000
0001
0100
0010
0100
0001
1000
,  // measure 54
0100
1000
0010
0000
0100
0001
0010
0000
,  // measure 55
0001
0000
0001
0010
0100
1000
0010
1000
,  // measure 56
0001
0000
1000
0000
0100
0000
0000
0000
1000
0000
0000
0000
0101
0000
0000
0001
,  // measure 57
0100
0000
0001
0000
0000
1000
0000
0000
0010
0000
1000
0000
0001
0000
0100
0000
,  // measure 58
0001
0000
1000
0000
0100
0000
1000
0000
0010
0000
0000
1000
0010
0000
0000
1000
,  // measure 59
0000
0000
0001
0000
0000
0100
0000
0000
0000
0000
0000
0000
0000
0000
0000
0000
;

//---------------dance-single - ----------------
#NOTES:
     dance-single:
     :
     Hard:
     9:
     0.573,0.595,0.102,0.111,0.464:
0000
0000
0000
0000
,
0000
0000
0000
0000
,
0000
0000
0000
0000
,
0000
0000
0000
0000
,
0010
0001
0000
0010
0000
0001
0000
1000
0000
0000
0010
0000
1000
0000
0000
0000
,
0001
0000
1100
0001
0010
0000
0001
0000
,
1000
0010
0000
1000
0000
0001
0000
0100
0000
0000
0001
0000
1000
0000
0001
0000
,
0100
0000
0001
1100
0000
0001
1000
0100
,
1000
0001
0000
0001
0010
0000
0001
0000
0100
0000
0001
0000
1000
0000
0100
0000
,
1000
0000
1010
0010
0100
0001
0010
0000
,
0001
1000
0000
0001
1000
0000
0100
0000
0100
0000
1000
0000
0010
0000
0100
0000
,
0001
0000
0011
1000
0001
1000
0100
1000
,
0010
0000
1000
0001
1000
0000
0001
0000
0001
0000
0010
0000
0001
0000
0100
0000
,
0010
0000
1000
0000
0100
0000
1000
0000
0001
0000
0100
0000
0010
1000
0000
1000
,
0001
0100
0001
1000
0100
1000
0010
0100
,
0010
0000
1010
1000
0001
0100
0001
0000
,
1000
0000
0100
1000
0100
0000
1000
0000
0001
0000
0010
0000
0100
0000
1000
0000
,
0001
0000
0100
0000
0010
0000
1000
0000
0100
0000
0010
0000
0001
0000
1000
0001
,
0100
0100
0100
0100
,
0100
0000
0100
0000
0100
0000
0100
0001
,
2001
0000
0000
3000
0000
0000
0000
0001
0000
0000
1000
0000
0000
0010
0000
0000
,
1000
0001
0000
1000
0001
0000
0000
0001
0100
0000
0100
0000
0010
0000
1000
0000
,
0200
0000
0000
0300
0000
0000
0000
1000
0000
0000
0001
0000
0000
0010
0000
0000
,
0001
1000
0000
0001
1000
0000
0000
1000
0010
0000
0100
0000
0002
0000
0000
0000
,
0023
0000
0000
0030
0000
0000
0000
0001
0000
0000
0010
0000
0000
0001
0000
0000
,
1000
0010
0000
1000
0010
0000
0000
0010
0100
0000
0001
0000
1000
0000
0000
0000
,
0200
0000
0000
0300
0000
0000
0000
1000
0000
0000
0001
0000
0000
0010
0000
0000
,
0001
0100
0000
0001
0100
0000
0000
0100
0020
0000
2000
0000
3030
0000
0000
0000
,
1000
0000
0001
0000
0100
0000
0001
1000
0001
0000
0100
0001
0010
0000
0100
1000
,
0000
0001
0000
0100
0001
0000
1000
0100
1000
0000
0100
1000
0010
0000
1000
0000
,
0001
0000
0000
0001
0100
0000
0010
1000
0010
0000
0100
0000
0001
0010
0100
0000
,
1000
0001
0000
0001
0100
0000
0010
1000
0100
0000
1000
0000
0110
0000
0000
0000
,
0100
0000
0000
0000
0101
0000
0000
0001
1000
0000
0010
1000
0000
0010
1000
0000
,
0100
1000
0000
1000
0001
0000
0000
0000
0011
0000
0000
0000
0001
0000
0100
0000
,
0010
0000
1000
0001
1000
0000
0001
0100
0001
0000
0010
0000
0000
0001
0000
0000
,
1000
0000
0000
0010
1000
0000
0001
0000
0100
0000
0000
0000
0101
0000
0000
0000
,
1001
0000
0000
0001
0100
0000
0010
1000
0100
0000
1000
0000
0001
0010
0001
0000
,
0100
0001
0000
0100
0001
0000
0000
0000
1000
0000
0010
0000
0100
0000
0010
0000
,
1000
0000
0000
1000
0010
0000
0100
0000
0001
0000
0010
0000
0000
0001
1000
0000
,
0001
0000
0000
1000
0100
0000
0000
0000
1000
0000
0000
0000
0001
0000
1000
0000
,
0010
0000
1000
0100
1000
0001
0100
0010
,
1000
0001
0000
1000
0001
0000
0010
0000
0001
0000
0100
0000
0010
0000
0100
0000
,
0010
1000
0100
1000
0001
0010
0100
1000
,
0010
1000
0000
0010
1000
0000
0100
0000
1000
0000
0001
0000
0100
0000
0010
0000
,
1000
0000
0000
1000
0010
0000
0000
0100
0001
0000
1000
0000
0000
0100
0000
0000
,
0020
0000
0000
0000
0001
0000
0000
0031
,
0010
0100
1000
0000
0010
0000
0100
0000
,
0001
1000
0020
0000
0200
0000
0300
0200
,
0030
0310
0100
0001
1000
0000
0100
0000
,
1000
0001
0100
0000
0001
1000
0001
1000
,
0010
1000
0100
1000
0001
0010
0001
0010
,
0100
0000
1000
0000
0010
0000
0000
0000
1000
0010
1000
0010
1000
0000
0010
0000
,
0100
0000
0000
0100
0001
0000
0010
0001
0000
1000
0000
0100
1000
0000
0001
0100
,
0001
0000
1000
0001
0200
0000
0000
0000
0301
0000
0100
0010
0100
0000
0001
1000
,
0010
0000
1000
0000
0000
0100
0000
0000
0010
0001
0000
0001
0100
0000
0001
0000
,
1000
0000
0000
0001
0100
0000
0010
1000
0100
0000
0000
1000
0100
0000
0000
1000
,
0001
0000
0010
0001
0100
0000
0100
0000
0010
1000
0000
1000
0001
0000
0100
0000
,
0010
0000
0000
0100
0001
0000
0010
0100
1000
0000
0000
1000
0010
0000
0100
0010
,
0000
0010
1000
0000
0001
0100
0000
0000
0000
0000
0000
0000
0000
0000
0000
0000
;
