#TITLE:Way Down;
#SUBTITLE:(feat. RZA, Barbie Hatch & John Frusciante);
#ARTIST:N.A.S.A.;
#TITLETRANSLIT:;
#SUBTITLETRANSLIT:;
#ARTISTTRANSLIT:;
#GENRE:;
#CREDIT:;
#BANNER:waydown.png;
#BACKGROUND:waydown-bg.png;
#LYRICSPATH:waydown.lrc;
#CDTITLE:!auraesimfilesmix2.png;
#MUSIC:waydown.mp3;
#OFFSET:-0.480;
#SAMPLESTART:29.380;
#SAMPLELENGTH:17.400;
#SELECTABLE:YES;
#DISPLAYBPM:83.000;
#BPMS:0.000=83.000
;
#STOPS:
;
#BGCHANGES:-0.200=waydown.avi=1.000=1=0=0=StretchNoLoop==CrossFade==,
99999=-nosongbg-=1.000=0=0=0 // don't automatically add -songbackground-
;
#KEYSOUNDS:;
#ATTACKS:;

//---------------dance-single - aurae----------------
#NOTES:
     dance-single:
     aurae:
     Easy:
     2:
     0.151,0.134,0.052,0.155,0.000,99.000,6.000,18.000,0.000,0.000,0.000,0.151,0.134,0.052,0.155,0.000,99.000,6.000,18.000,0.000,0.000,0.000:
0000
0000
0000
0000
,
0000
0000
0000
0000
,
2000
3000
0002
0003
,
0200
0000
0300
0000
,
0002
0003
2000
3000
,
1000
1000
0001
0001
,
1000
0000
0010
0000
,
1000
0000
0001
0001
,
0001
0000
0100
0000
,
0001
0000
1000
0000
,
1001
0000
0100
0000
,
0100
0001
0200
0300
,
1001
0000
0010
0000
,
0010
1000
0020
0030
,
2000
3000
0020
0030
,
2000
3000
0002
0003
,
0200
0300
0200
0300
,
0001
0100
0001
0100
,
0001
0000
1000
1000
,
1000
0000
0010
0010
,
1000
1000
0001
0001
,
0100
0000
0100
0000
,
1001
0010
0000
0010
,
1000
0010
1000
1000
,
0001
0100
0000
0100
,
0001
0001
1000
0000
,
1001
0000
0100
0000
,
0001
0000
0001
1000
,
1000
0010
0000
0010
,
1000
0100
1000
0001
,
1000
1000
0001
0000
,
0001
0001
0100
0000
,
0100
0001
0100
0000
,
1001
0000
0010
0100
,
0020
0030
1000
0010
,
1000
0000
0002
0003
,
2000
3000
0001
0000
,
1000
1000
0001
0001
,
0220
0000
0000
0000
,
0330
0000
0000
0000
;

//---------------dance-single - aurae----------------
#NOTES:
     dance-single:
     aurae:
     Medium:
     4:
     0.246,0.201,0.077,0.103,0.000,179.000,9.000,12.000,0.000,0.000,0.000,0.246,0.201,0.077,0.103,0.000,179.000,9.000,12.000,0.000,0.000,0.000:
0000
0000
0000
0000
,
0000
0000
0000
0000
,
1000
0100
1000
0000
0010
1000
0001
0000
,
0100
0000
0001
0000
0100
0001
0100
0000
,
0001
1000
1000
0001
1000
0000
1000
0000
,
0010
1000
0010
0000
1000
0100
1000
0000
,
0100
0000
1000
0000
0100
1000
0100
0000
,
0010
0000
0001
0000
0010
0001
0010
0000
,
0001
2000
0001
3001
,
1000
0100
1000
0000
0010
0000
0010
0000
,
0100
0000
0010
0000
1000
0010
1000
0000
,
0001
0000
0100
0000
0100
0001
1000
0100
,
1000
0000
1000
0000
0001
0100
0001
0000
,
0010
0000
0001
0000
0100
0001
0100
0001
,
0100
0001
1000
0010
,
1000
0010
1000
0000
0100
0000
0010
0000
,
0001
0100
0001
1000
0100
0000
1000
0010
,
0000
0010
0000
1000
0000
1000
0001
0000
,
0100
0000
0001
0000
1000
0100
1000
0000
,
0010
0000
1000
0000
0100
1000
0100
0000
,
1000
0010
1000
0000
0010
0100
0010
1000
,
0000
0001
0000
1000
0000
0001
0000
1000
,
0001
1001
1000
0010
,
0100
0010
1000
0000
0200
0000
0300
0000
,
1000
0000
0010
0000
1000
0001
0100
0000
,
1001
0000
0110
0000
0001
1000
0100
0000
,
1000
0000
0001
0000
0100
0001
0100
0000
,
0001
1000
0100
0000
2002
0000
3003
0000
,
1000
0001
0100
0101
,
1001
0000
0010
0000
1000
0100
1000
0000
,
0220
0000
0330
0000
0001
0100
0001
0000
,
0000
0001
1000
0000
0010
1000
0010
0000
,
1000
0100
0010
0001
,
0010
0001
0010
0000
2002
0000
3000
0000
,
1003
0000
0001
0000
1000
0100
1000
0100
,
1000
0010
0200
0000
,
0320
0000
1030
0000
0010
1000
0010
1000
,
0000
0001
0000
0100
0001
1000
0001
0000
,
2002
0000
0000
0000
,
3003
0000
0000
0000
;

//---------------dance-single - ----------------
#NOTES:
     dance-single:
     :
     Hard:
     6:
     0.314,0.302,0.129,0.069,0.052,232.000,15.000,8.000,0.000,0.000,0.000,0.314,0.302,0.129,0.069,0.052,232.000,15.000,8.000,0.000,0.000,0.000:
0000
0000
0000
0000
,
0000
0000
0000
0000
,
0001
1000
0001
0100
0010
1000
0010
0000
,
2000
0000
3000
0000
1000
1000
1000
0000
,
0001
0100
0001
0000
1000
0000
0010
1000
,
0010
0100
0001
1000
0100
0010
0001
0000
,
1000
0001
1000
0000
0001
0000
0100
0000
,
0001
0010
0001
0000
1000
0001
1000
0100
,
1000
0102
1000
0103
,
1000
0001
0100
0100
0001
0010
0001
0000
,
1001
0000
0001
0100
0100
0010
0100
0000
,
0010
1000
0010
0000
2000
0000
3000
0000
,
0002
0000
1003
0001
1000
0001
0010
0000
,
0001
0100
0001
0100
0010
0000
1000
0001
,
1000
0010
0000
0010
1000
0000
0001
0000
0100
0000
0001
0000
1000
0000
0000
0000
,
0001
0000
1100
0000
1000
0010
1000
0000
,
0010
0100
1000
0000
0100
0010
1000
0001
,
0000
1000
0000
0100
0000
0001
0100
0001
,
0010
0100
1000
0000
0110
0000
1000
0001
,
0100
0000
1001
0000
0001
0010
0100
0010
,
0001
1000
0100
0010
0001
0001
1000
0001
,
0000
1000
0000
0001
0100
0010
1000
0000
,
0110
0000
0000
0000
1001
0000
0000
0000
0001
0000
0100
0000
0001
1000
0001
0000
,
1000
0001
0100
0000
0010
1000
0001
0100
,
0001
1000
1000
0000
0001
0000
0100
0001
,
0001
0000
0000
1000
0000
0000
0100
0000
0000
0000
0000
0000
1000
0000
0010
1000
0000
0000
0010
0000
0000
0100
0000
0000
,
0020
0030
0110
0000
1000
0001
0100
0001
,
0010
0000
0100
0000
1000
0000
0000
0000
0001
0000
1000
0000
0010
0000
1000
0001
,
0000
0001
1000
0000
0100
0000
1000
0001
1000
0000
0001
0000
0100
0000
0000
0000
,
0001
0000
0000
0010
0000
0000
0001
0000
0000
0000
0000
0000
1000
0000
0000
0001
0000
0000
0100
0000
0001
0000
0100
0000
,
0010
1000
0010
0000
1000
0100
1000
0000
,
0101
0000
1000
0001
0100
0001
1000
0100
,
1000
0001
0101
0000
0001
1000
1010
0000
,
1000
0000
0000
0100
0000
0000
0100
0000
0000
0000
0000
0000
1000
0000
0001
0100
0000
0100
0001
0000
0000
0100
0000
0001
,
1000
0000
0110
0000
1000
0001
0100
0001
,
0010
1001
0020
1030
,
0002
0000
0103
0000
0010
1000
0100
1000
,
0100
1001
0010
1001
1000
0100
0010
0001
,
0020
0000
0000
0000
,
0030
0000
0000
0000
;
