#TITLE:Time To Make History;
#SUBTITLE:(AKIRA YAMAOKA remix);
#ARTIST:目黒将司;
#CREDIT:;
#MUSIC:timetomakehistory.mp3;
#SELECTABLE:YES;
#BACKGROUND:timetomakehistory-bg.png;
#BANNER:timetomakehistory.png;
#CDTITLE:!auraesimfilesmix2.png;
#OFFSET:-0.349932;
#SAMPLESTART:59.397;
#SAMPLELENGTH:25.252;
#BPMS:0=190;
#STOPS:;
#ARTISTTRANSLIT:Shoji Meguro;

//---------------dance-single - ----------------
#NOTES:
     dance-single:
     :
     Easy:
     3:
     0.000,0.000,0.000,0.000,0.000:
0000
0000
0000
0000
,
0000
0000
0000
0000
,
0000
0000
0000
0000
,
0000
0000
0000
0001
,
0000
0000
0000
1000
,
0000
0000
0000
0001
,
0000
0000
0000
1000
,
0000
0001
0000
1000
,
1000
0000
1000
0000
,
0001
0000
0001
0100
,
0001
0000
0001
0000
,
1000
0000
1000
0010
,
0100
0000
0100
0000
,
0001
0000
0001
0010
,
0001
0000
0001
0000
,
0010
0000
0010
0001
,
0000
1000
0000
0001
,
0000
1000
1000
0100
,
0000
1000
0000
0010
,
0000
0100
0100
0001
,
0000
0010
0000
0001
,
0000
1000
1000
0100
,
0000
1000
0000
0001
,
1000
0001
1000
0010
,
0000
0010
0010
0100
,
0000
0001
1000
0100
,
0000
1000
0010
0100
,
0100
0010
0000
0010
,
1000
0100
0000
1000
,
0001
0010
0000
0001
,
0001
0100
0000
0001
,
0001
1000
1000
0001
,
0000
0010
0000
0001
,
0100
0001
0100
0010
,
0000
1000
0000
0100
,
0000
1000
0000
0010
,
0000
1000
0000
0100
,
1000
0001
0100
0001
,
0000
1000
0000
0010
,
0000
0100
0000
0001
,
0000
0001
0000
1000
,
1000
1000
0000
0010
,
0000
0100
0000
0001
,
0001
0001
0000
1000
,
0000
0010
0000
0100
,
0100
0100
0000
0001
,
0001
0001
0001
1000
,
1000
1000
0000
0010
,
0000
0100
0000
0001
,
0000
1000
0010
1000
,
0000
1000
0000
0010
,
0000
0001
0100
0001
,
0000
0100
0000
1000
,
0000
0010
0000
0001
,
0000
1000
0000
0101
,
0000
1100
0000
0001
,
0000
1000
0000
0010
,
0100
0010
1000
0100
,
0000
1000
0000
0001
,
0010
0001
0100
0010
,
0010
1000
0000
0010
,
1000
0100
0000
1000
,
0001
0100
0001
1000
,
0010
1000
0100
1000
,
0000
0001
0000
0010
,
0000
0001
0000
0100
,
0100
0100
0100
1001
,
0000
1001
0000
0001
,
0001
0010
0010
0001
,
0001
0100
0100
0010
,
0010
1000
1000
0100
,
0100
1000
0000
0010
,
0010
0100
0100
0001
,
0001
1000
1000
0010
,
0100
0100
0010
1000
,
0100
0100
0000
1000
,
0001
0010
0001
0100
,
0001
1000
0010
0100
,
0010
0000
0000
0000
0000
0000
0000
0000
0000
0000
0000
0000
0000
0000
0000
0000
0000
0000
0000
0000
0000
0000
0000
0000
0000
0000
0000
0000
0000
0000
0000
0000
0000
0000
0000
0000
0000
0000
0000
0000
0000
0000
0000
0000
0000
0000
0000
0000
1000
0000
0000
0000
0000
0000
0000
0000
0000
0000
0000
0000
0000
0000
0000
0000
0000
0000
0000
0000
0000
0000
0000
0000
0000
0000
0000
0000
0000
0000
0000
0000
0000
0000
0000
0000
0000
0000
0000
0000
0000
0000
0000
0000
0000
0000
0000
0000
0100
0000
0000
0000
0000
0000
0000
0000
0000
0000
0000
0000
0000
0000
0000
0000
0000
0000
0000
0000
0000
0000
0000
0000
0000
0000
0000
0000
0000
0000
0000
0000
0000
0000
0000
0000
0000
0000
0000
0000
0000
0000
0000
0000
0000
0000
0000
0000
2000
0000
0000
0000
0000
0000
0000
0000
0000
0000
0000
0000
0000
3000
0000
0000
0000
0000
0000
0000
0000
0000
0000
0000
0000
0000
0000
0000
0000
0000
0000
0000
0000
0000
0000
0000
0000
0000
0000
0000
0000
0000
0000
0000
0000
0000
0000
0000
,
0001
0100
0000
0010
,
1000
0100
1000
0001
,
0010
0001
0100
0010
,
0100
1000
1000
0010
,
0100
1001
1001
0000
,
0000
0000
0000
0000
,
0000
0000
0000
0000
;

//---------------dance-single - ----------------
#NOTES:
     dance-single:
     :
     Medium:
     6:
     0.000,0.000,0.000,0.000,0.000:
0000
0000
0000
0000
,
0000
0000
0000
0000
,
0000
0000
0000
0000
,
0000
0000
0000
0001
,
0000
0000
0000
0001
0000
0000
1000
0000
,
0000
0000
0000
1000
0000
0000
0010
0000
,
0000
0010
0000
0000
0100
0000
0001
0000
,
1000
0001
0000
1000
,
1000
0001
0010
0010
,
0001
0000
0100
0001
0100
0000
0010
0000
,
0001
0000
0001
0000
1000
0000
0010
0100
,
0010
0000
1000
0010
1000
0010
1000
0000
,
0100
0100
1000
0001
,
1000
0001
0010
1000
,
0001
0000
0100
0010
1000
0000
0100
1000
,
0001
0000
1000
0001
1000
0001
1000
0000
,
0001
0010
0011
0001
,
0100
0000
0010
1000
0010
0000
1000
0000
,
0100
0000
1000
0000
1001
0000
0001
0100
,
0001
0100
0000
0001
,
1000
0000
0010
1000
0010
0000
0100
0000
,
0010
0000
1000
0000
0101
0000
1000
0100
,
1000
0000
0001
0100
0001
0100
0001
0000
,
0000
1001
0000
0010
,
0100
0000
0100
0000
0010
0000
1000
0100
,
1000
0000
0001
0000
0000
0000
0001
0100
,
0001
0000
0010
0001
0010
0001
0100
0000
,
0100
0010
0010
1000
,
0001
0000
0100
0010
0100
0000
0010
1000
,
0010
1000
0000
0100
,
0010
0000
0001
0010
0001
0000
0100
0010
,
1000
0010
0100
0000
0100
0000
0100
0000
,
0001
1000
0000
1000
0001
0000
0100
0000
,
0001
0000
0010
0001
0010
0000
0001
0000
,
1000
1000
0001
1000
,
1000
0100
0000
1000
,
0010
1000
0000
1000
0010
0000
0100
0000
,
0001
0000
0010
0001
0010
0001
0100
0000
,
0100
0000
0001
0000
1000
0001
1000
0000
,
0001
2002
3003
0001
,
0100
0001
0000
0100
0001
0000
1000
0000
,
0010
1000
0100
1000
,
0001
1000
0000
0001
1000
0000
0100
0000
,
1000
0010
0000
0100
,
0010
1000
0000
0010
1000
0000
0100
0000
,
1000
0001
0100
1001
,
0100
1001
0100
1001
,
0000
0110
0000
0001
,
0010
0100
1000
0010
,
0100
0000
0001
1000
0001
1000
0100
0000
,
1000
0000
0010
0000
0100
0010
0100
0000
,
0010
1000
0010
1000
0010
0000
0100
0000
,
0001
0000
0010
0001
0010
0000
0001
0000
,
0100
0000
0001
1000
0001
0000
1100
0000
,
0010
0101
0010
1001
,
0100
1001
0000
1000
,
0001
0000
0010
0001
0010
0000
0001
0100
,
0001
1000
0001
0000
0100
0000
0010
1000
,
0010
1000
0100
0000
1000
0000
0001
0000
,
0100
0001
0100
0000
0001
0000
0010
0000
,
0010
0000
0001
0000
1000
0001
1000
0000
,
0001
0000
0100
0010
0100
0000
0010
0000
,
1000
1010
0100
0001
,
0011
1001
0000
0001
,
1000
0010
1000
0001
,
0001
0100
1000
0010
,
0001
0000
1000
0000
0001
1000
0001
0000
,
0000
0000
0000
1000
,
0010
1000
0000
0010
1000
0000
0100
0000
,
1000
0001
0000
1000
0001
0000
0100
0000
,
0001
0010
0000
0001
0010
0000
0001
0100
,
0001
0100
0010
1000
0010
0000
1000
0000
,
0010
0100
0000
0010
0100
0000
0001
0000
,
1000
0100
0000
1000
0100
0000
1000
0000
,
0001
0100
0000
0001
0100
0000
0001
0010
,
0001
0010
0100
1000
0010
0000
0100
0000
,
0001
1000
0000
0001
0100
0000
0001
0000
,
1000
0010
0000
1000
0100
0000
1000
0000
,
0001
0010
0000
0001
1000
0000
0010
0100
,
0010
0100
0001
0100
0001
0000
1000
0000
,
0001
0010
0000
0001
0100
0000
0010
0000
,
1000
0100
0000
1000
0001
0000
0100
0000
,
0001
0010
0000
0001
0100
0000
0010
1000
,
0001
0100
0001
1000
0100
1000
0000
0000
,
0000
0000
0000
0000
,
0000
0000
0000
0000
;

//---------------dance-single - ----------------
#NOTES:
     dance-single:
     :
     Hard:
     8:
     0.000,0.000,0.000,0.000,0.000:
0000
0000
0000
0000
,
0000
0000
0000
0000
,
0000
0000
0000
0000
,
0000
0000
0000
0000
,
0000
0000
0000
0000
,
0000
0000
0000
0000
,
0000
0000
0000
0000
,
0000
0000
0000
0000
0000
0000
0000
0000
0000
0000
1000
0001
1000
0000
0000
0000
,
0101
0001
1100
1000
,
0100
0010
0001
0010
,
1100
0010
0101
0001
,
0010
0000
0100
0000
1000
0000
0010
0100
,
0001
0000
0001
1000
0010
0000
0010
1000
,
0100
0000
1100
0000
0101
0000
1000
0010
,
0100
0000
0010
0100
0001
0000
0010
0000
,
0001
1000
0001
1000
0010
0100
0010
0000
,
1100
0000
0010
0100
0101
0000
0001
0000
,
1000
0010
1000
0000
0010
0000
0100
0000
,
0011
0000
0001
1000
1100
0000
1000
0010
,
0100
0001
0010
0000
0001
0100
0001
0000
,
1010
0000
0100
0001
0011
0000
1000
0100
,
1000
0001
0100
0000
0010
1000
0010
0000
,
0100
0000
0001
1000
0010
1000
0100
0000
,
0011
1010
1100
0101
,
0100
0000
0010
0100
0001
0000
0100
0000
,
0010
0000
1000
0100
0001
0100
1000
0000
,
0010
0000
0100
0001
0010
0000
0001
0010
,
1000
0010
0001
0000
0100
0001
1000
0000
,
1100
0000
1000
0001
1000
0000
0001
0010
,
0100
0010
0001
0000
0100
0000
0001
0000
,
1100
1000
0101
1000
,
0001
0000
1000
0010
0010
0010
0100
0000
,
0001
0010
0000
0010
0001
0000
1000
0100
,
1000
0101
1100
1001
,
0100
0000
0001
0010
0001
0000
1000
0010
,
1000
0010
0100
0000
0001
0000
1000
0000
,
0010
0100
0000
0100
0010
0000
1000
0100
,
1000
1010
0011
1001
,
0100
0000
0001
1000
0010
0100
0001
0010
,
0001
0000
0100
0010
1000
1000
0001
0100
,
0000
0001
0000
1000
0000
0100
1000
0010
,
0100
0000
0001
0000
1000
0100
1000
0001
,
0010
0000
0001
0100
0000
0100
0001
0010
,
0100
1000
0020
0000
0030
0000
0100
0001
,
0000
1000
0000
0100
0000
1000
0010
1000
,
0100
1100
1010
0001
,
0001
0100
0100
2002
,
3000
0000
0003
0000
0100
0100
0100
0000
,
0011
0000
0001
0100
1010
0000
0100
0000
,
0010
0000
1000
0100
0000
0100
1000
0001
,
0010
0000
0010
0001
0100
0100
0001
0000
,
1000
0000
0010
1000
0100
1000
1000
0000
,
0011
0000
0100
0010
1000
0010
0000
0100
,
0000
0010
1000
0100
0010
0000
0012
0000
,
0103
0210
0301
0100
,
0010
0000
1000
0100
0100
0100
1000
0000
,
0101
0000
0001
0100
1010
0000
0010
0000
,
1001
0000
0100
0010
1001
0000
0100
0000
,
0001
0000
1000
0001
1000
0000
0001
0000
,
0100
0010
1000
1000
0010
0100
0100
0000
,
0001
0000
0010
0000
0010
0000
0001
0100
,
0001
0000
1000
0000
1000
0000
0100
1000
,
0010
1000
1000
1100
,
1010
0011
0101
1001
,
0100
1001
0010
1001
,
0110
1001
0000
0001
,
1100
0000
1000
0000
0001
0100
0110
0000
,
0000
0000
0000
0000
0000
0000
1000
0010
,
0100
0001
0100
0010
1000
1000
0001
0100
,
0010
1000
0010
0100
0001
0000
0010
0001
,
0100
0001
1000
0010
0100
0100
0010
1000
,
0100
0000
1000
0001
0001
0001
0010
0001
,
0100
0010
1000
0100
1000
1000
0010
0100
,
0001
1000
0100
0010
0001
0000
0100
0010
,
1000
0001
0100
0010
1000
0100
0100
1000
,
0001
0100
0010
1000
0100
0010
0001
0100
,
0100
0001
1000
1000
0010
0100
0010
1000
,
1000
0001
0100
0010
0010
0000
1000
0100
,
0010
0001
1000
0001
0100
0001
1000
0000
,
1100
0000
0101
0000
1001
0000
0010
0100
,
0001
0001
1000
0100
1000
0010
0010
1000
,
0100
1000
0001
0100
0100
0001
0010
0001
,
0100
0100
0001
1000
0100
1000
0010
0100
,
0100
0010
1000
0001
0100
0001
0000
0000
,
0000
0000
0000
0000
,
0000
0000
0000
0000
;
