#TITLE:TRUE MOMENTS;
#SUBTITLE:(SUNCATCHER REMIX);
#ARTIST:ANDRE VISIOR;
#TITLETRANSLIT:;
#SUBTITLETRANSLIT:;
#ARTISTTRANSLIT:;
#GENRE:;
#CREDIT:;
#BANNER:truemoments.png;
#BACKGROUND:truemoments-bg.png;
#LYRICSPATH:;
#CDTITLE:!auraesimfilesmix2.png;
#MUSIC:truemoments.mp3;
#OFFSET:0.000;
#SAMPLESTART:83.495;
#SAMPLELENGTH:13.900;
#SELECTABLE:YES;
#DISPLAYBPM:138.000;
#BPMS:0.000=138.000
;
#STOPS:
;
#BGCHANGES:;
#KEYSOUNDS:;
#ATTACKS:;

//---------------dance-single - aurae----------------
#NOTES:
     dance-single:
     aurae:
     Easy:
     4:
     0.232,0.279,0.068,0.059,0.000,177.000,8.000,7.000,0.000,0.000,0.000,0.232,0.279,0.068,0.059,0.000,177.000,8.000,7.000,0.000,0.000,0.000:
0000
0000
0000
0000
,
0000
0000
0000
0000
,
0000
0000
0000
0000
,
0000
0000
0000
0000
,
0000
0000
0000
0000
,
0000
0000
0000
0000
,
0000
0000
0000
0000
,
0000
0000
0000
0000
,
0001
0010
0001
0000
,
0001
0010
0001
0010
,
0001
1000
0100
0000
,
1000
0001
0100
0001
,
1000
0100
0010
0000
,
0001
0010
0100
0010
,
0001
1000
0100
0000
,
1000
0001
0100
0000
,
0100
0001
1000
0001
,
0100
0001
1000
0001
,
0100
0001
0010
0001
,
0100
0001
0010
0000
,
0001
1000
0100
1000
,
0010
1000
0100
1000
,
0001
1000
0100
1000
,
0010
0100
0010
0000
,
0010
1000
0000
1000
,
0010
1000
0000
1000
,
0001
0100
0000
0100
,
0001
0010
0000
0010
,
0001
1000
0000
1000
,
0100
1000
0000
1000
,
0100
0010
0000
0001
,
0010
0100
0000
1000
,
0200
0000
0000
0000
,
0000
0000
0000
0000
,
0300
0000
0000
0000
,
0000
0000
0000
0000
,
2002
0000
0000
0000
,
0000
0000
0000
0000
,
0000
0000
0000
0000
,
3003
0000
0000
0000
,
0001
0001
0001
0001
,
1000
1000
1000
1000
,
0010
0010
1000
0001
,
0100
0100
0001
1000
,
0002
1000
1000
1000
,
1000
1000
1000
1003
,
2000
0001
0001
3001
,
1001
0000
0000
0000
,
0001
0010
0001
0100
,
0010
1000
0100
1000
,
0001
1000
1000
0100
,
1000
0000
0001
0000
0010
0000
0001
0100
,
0001
0100
0010
1000
,
0100
1000
0001
0100
,
0001
1000
0001
1000
,
0101
0000
1001
0000
,
1100
0001
1000
0100
,
1000
0010
0100
0010
,
1000
0100
1000
0001
,
0100
0001
0010
0001
,
0100
0010
1000
0100
,
0010
0000
0001
0000
0100
0000
0010
1000
,
0010
1000
0001
1000
,
1001
0100
0100
1001
,
2002
0000
0000
0000
,
0000
0000
0000
0000
,
3003
0000
0000
0000
;

//---------------dance-single - aurae----------------
#NOTES:
     dance-single:
     aurae:
     Medium:
     6:
     0.363,0.418,0.178,0.127,0.000,265.000,21.000,15.000,0.000,0.000,0.000,0.363,0.418,0.178,0.127,0.000,265.000,21.000,15.000,0.000,0.000,0.000:
0000
0000
0000
0000
,
0000
0000
0000
0000
,
0000
0000
0000
0000
,
0000
0000
0000
0000
,
0000
0000
0000
0000
,
0000
0000
0000
0000
,
0000
0000
0000
0000
,
0000
0000
0000
0000
,
1000
0100
1000
0000
0010
0000
0010
1000
,
0001
0010
0001
0000
0100
0001
1000
0001
,
0100
0010
0100
0000
0010
0000
0010
1000
,
0100
1000
0001
0100
0001
1000
0010
0000
,
0100
0001
0010
0000
0010
0001
1000
0100
,
1000
0001
0100
0010
0100
0001
1000
0000
,
0100
1000
0100
0000
1000
0010
1000
0001
,
0010
0000
0200
0000
0000
0320
0000
0000
,
0031
0010
0001
0000
0010
0001
0100
0010
,
1000
0100
0000
1000
0000
0001
0000
1000
,
0100
0010
0001
0000
0100
0010
1000
0001
,
0000
1000
0000
0001
0000
1000
0010
0000
,
0100
0001
0100
0001
1000
0100
1000
0010
,
0100
0010
0000
1000
0000
0001
0000
0100
,
0001
1000
0100
1000
0010
0100
0001
1000
,
0000
0001
0000
0100
0010
1000
0001
0000
,
1001
0000
0001
0000
0100
0000
0100
0010
,
0000
1000
0000
0010
0000
1000
0100
0000
,
1100
0000
1000
0000
0001
0100
0001
1000
,
0000
0001
0000
0010
0000
0001
0100
0000
,
0001
0000
0010
0000
0001
0000
1000
0001
,
0000
0010
0000
0010
0000
0001
0100
0000
,
0010
0000
1000
0000
1000
0000
0001
1000
,
0000
0100
0000
1000
0000
0010
0000
1000
,
0200
0000
0000
0300
,
2000
0000
0000
3000
,
0002
0000
0000
0003
,
0020
0000
0000
0030
,
2002
0000
0000
0000
,
0000
0000
0000
0000
,
3003
0000
0000
0000
,
0000
0000
0000
0000
,
0021
0001
0001
0031
,
0002
1000
0000
1000
0000
1000
0003
0000
,
1200
1000
1000
1300
,
2000
0100
0000
0100
0000
0100
3000
1000
,
0100
0010
0001
1000
,
0100
0010
0001
1000
,
0001
1000
0001
1000
0001
1000
0001
1000
,
0001
0000
0000
0000
,
0100
0001
1000
0000
1100
0000
1001
0000
,
0001
0100
0001
0000
0100
0000
0010
1000
,
0100
0010
0001
0000
0010
0000
0100
1000
,
0010
1000
0100
0000
1100
0000
1000
0002
,
0010
0000
0100
0000
1003
0000
0100
0010
,
0001
0000
0100
0000
0010
1000
0100
1000
,
0001
0000
0011
0000
0001
0100
0010
1000
,
0100
0000
1100
0000
1000
0001
1000
0000
,
0101
0000
0001
0000
0010
0001
0100
0010
,
1000
0100
0000
1000
0000
0001
1000
0100
,
1000
0000
0010
0000
0100
0010
1000
0100
,
1000
0001
0000
0010
0001
0000
0011
0000
,
0101
0000
0100
0010
1000
0100
1000
0001
,
0000
0010
0000
0100
1000
0100
1000
0001
,
0100
0101
1001
1100
,
1001
0110
1001
0110
,
2002
0000
0000
0000
,
3000
0000
0000
0000
,
0003
0000
0000
0000
;

//---------------dance-single - aurae----------------
#NOTES:
     dance-single:
     aurae:
     Hard:
     8:
     0.475,0.530,0.101,0.127,0.097,366.000,12.000,15.000,0.000,0.000,0.000,0.475,0.530,0.101,0.127,0.097,366.000,12.000,15.000,0.000,0.000,0.000:
0000
0000
0000
0000
,
0000
0000
0000
0000
,
0000
0000
0000
0000
,
0000
0000
0000
0000
,
0000
0000
0000
0000
,
0000
0000
0000
0000
,
0000
0000
0000
0000
,
0000
0000
0000
0000
0000
0001
0010
0001
,
1000
0010
1000
0010
1000
0100
1000
0001
,
0100
0001
0010
0001
0100
0000
0101
0000
,
0001
1000
0100
1000
0010
1000
0100
1000
,
0001
0010
0001
0100
0010
0000
0110
0000
,
0100
0001
1000
0100
1000
0001
0010
0001
,
0100
0010
1000
0100
0010
0000
0011
0000
,
0001
1000
0100
1000
0010
0100
0010
1000
,
0100
1000
0020
0000
0001
0000
1030
0100
,
0010
1000
0100
0010
0001
1000
0001
0100
,
0010
1000
0100
0010
0001
0200
0000
1300
,
0100
0010
0100
0001
0010
0100
1000
0100
,
1000
0100
0010
0001
1000
0020
0000
0031
,
0010
0100
0001
1000
0001
0100
0010
1000
,
0100
1000
0001
0010
0001
2000
0000
3001
,
1000
0010
0100
0010
1000
0100
1000
0001
,
0100
0010
1000
0100
1000
0001
0100
0001
,
1002
0000
0010
0000
0100
1000
0000
0100
,
0000
1000
0000
1000
0000
0010
0003
0010
,
0200
0000
1000
0000
0001
0000
1300
0100
,
0000
1000
0000
1000
0000
0001
0000
0100
,
0010
0000
1000
0000
0001
0000
0100
0001
,
0000
1000
0000
0010
0000
1000
0000
0100
,
1000
0000
0001
0000
0010
0000
0001
0100
,
0000
0010
0000
1000
0000
0100
0000
1000
,
0001
0000
0000
0100
0000
0000
0100
0000
0000
0001
0000
0000
1000
0000
0000
0000
,
0010
0000
0000
1000
0000
0000
1000
0000
0000
0001
0000
0000
0100
0000
0000
0000
,
0100
0000
0000
0010
0000
0000
0010
0000
0000
1000
0000
0000
0001
0000
0000
0000
,
0100
0000
0000
0001
0000
0000
1000
0000
0000
0001
0000
0000
0100
0000
0001
0000
,
2100
0000
0000
0000
,
3002
0000
0000
0000
,
0023
0000
0000
0000
,
0032
0000
2003
0000
,
3010
1000
0010
1000
0001
1000
0001
1000
,
0100
1000
0100
0010
0001
0100
0001
0100
,
0010
0100
0010
0100
0001
0100
0001
0100
,
0010
1000
0010
1000
0001
0100
0001
0010
,
0100
1000
0010
1000
0010
1000
0100
1000
,
0001
0100
0001
0100
0010
0100
0001
0010
,
0001
0100
0010
1000
0100
1000
0001
0100
,
0010
0000
0000
0000
,
1000
0000
0010
1000
0010
0000
1000
0000
0001
0000
0100
0000
0100
0000
0001
0000
,
1000
0001
0010
0001
1000
0000
0101
1000
,
0001
0000
1000
0001
1000
0000
0010
0000
0100
0000
0010
0000
1000
0000
0100
0000
,
1000
0001
0100
0000
0101
0000
1001
0100
,
1000
0010
1000
0001
0010
0001
0100
0010
,
1000
0000
0000
0010
1000
0000
0100
0000
1000
0000
0001
0000
0100
0000
0001
0000
,
0010
0000
0000
0010
0001
0000
0100
0000
0001
1000
0001
0000
0100
0000
0100
0000
,
0001
0000
0000
0001
1000
0000
0100
0000
1000
0010
1000
0000
0001
0000
1000
0000
,
1010
0100
0010
1000
0100
1000
0001
0100
,
0010
0000
1000
0000
0001
0000
0010
0000
0001
0000
0010
0001
0000
0001
0010
0000
,
0100
1000
0100
1000
0001
0100
0010
1000
,
0100
0000
0000
1000
0010
0000
0100
0000
0100
0000
0001
1000
0100
0000
2000
0000
,
0001
0000
0010
0000
0100
3000
1000
0002
,
0010
0000
0100
0000
1000
0003
0001
0100
,
0001
0000
1000
0100
1000
0000
0001
0000
0100
0001
0100
0000
0001
0000
1000
0001
,
0010
0000
0001
0000
0000
0000
0101
0000
0000
0000
1001
0000
0000
1000
0100
0000
,
0220
0000
0000
0000
,
0000
0000
0000
0000
,
0330
0000
0000
0000
;
