#TITLE:TRAINWRECK 1979;
#SUBTITLE:;
#ARTIST:DEATH FROM ABOVE 1979;
#CREDIT:;
#MUSIC:trainwreck1979.mp3;
#SELECTABLE:YES;
#BACKGROUND:trainwreck1979-bg.png;
#BANNER:trainwreck1979.png;
#CDTITLE:!auraesimfilesmix2.png;
#DISPLAYBPM:135.000:135.000;
#OFFSET:-0.477642;
#SAMPLESTART:42.685;
#SAMPLELENGTH:14.220;
#BPMS:0=135;
#STOPS:;

//---------------dance-single - ----------------
#NOTES:
     dance-single:
     :
     Easy:
     2:
     0.000,0.000,0.000,0.000,0.000:
0000
0000
0000
0010
,
0000
0000
0010
0001
,
0000
0000
0001
1000
,
0000
1000
0100
1000
,
0000
0000
0000
0010
,
0000
0000
0010
1000
,
0000
0000
1000
0001
,
0000
0100
0001
0100
,
0000
0000
0000
0010
,
0000
0010
1000
0010
,
0000
1000
0100
1000
,
0000
1000
0000
1000
,
0000
0001
0000
0100
,
0000
0100
0000
0001
,
0000
0001
0000
1000
,
0000
1000
0000
0010
,
1000
0010
0000
0100
,
0000
0100
0000
0010
,
0000
0010
0000
1000
,
0001
1000
0000
1000
,
0000
0001
0000
0010
,
0010
0010
0010
0010
,
0000
0001
0000
1000
,
1000
1000
1000
1000
,
0000
0010
0000
0100
,
0001
0100
0000
0001
,
1000
0010
0000
0010
,
1000
0100
0000
0010
,
0001
1000
0000
0001
,
0001
1000
1000
0001
,
0001
0010
0000
0100
,
0100
1000
1000
0010
,
0010
0100
0100
0001
,
0000
0001
1000
0100
,
0000
1000
0010
0100
,
0000
0100
0010
1000
,
0000
1000
0001
0010
,
0000
0010
0001
0100
,
0000
0010
0100
0001
,
0000
1000
0100
0010
,
0000
0100
0010
0001
,
1000
0100
0000
1000
,
0001
0010
0000
0001
,
1000
1000
0001
0001
,
0000
1000
0100
1000
,
0001
0010
0000
0010
,
0001
1000
0000
0100
,
0010
0100
0010
0100
,
1000
0001
1000
0001
,
0000
0000
0001
0100
,
0000
0000
0100
0010
,
0000
0010
0000
1000
,
0000
0001
0000
0100
,
0100
0100
0100
0001
,
0000
0001
0000
1000
,
0001
1000
0001
1000
,
0010
0010
0010
0010
,
0000
0000
0000
0000
,
0000
0000
1001
1001
,
0000
0001
1000
0001
,
0000
1000
0010
0100
,
0100
0010
0010
1000
,
1000
0001
0010
2002
,
0000
3003
0000
0000
,
0000
0000
0000
0000
,
0000
0000
0000
0000
,
0000
0000
0000
0000
;

//---------------dance-single - ----------------
#NOTES:
     dance-single:
     :
     Medium:
     5:
     0.000,0.000,0.000,0.000,0.000:
0000
0000
0000
0100
,
0001
0000
0100
0000
0001
1000
0000
0001
,
0100
0000
0100
0000
0001
1000
0000
0001
,
0010
0010
0001
1000
,
0100
0000
1000
0000
0010
0100
0010
0000
,
0100
0000
0100
0000
0001
1000
0000
0001
,
0010
0000
0010
0000
0001
0100
0000
0010
,
0100
0100
0001
1000
,
1000
0100
1000
0010
,
0010
0000
1000
0000
0001
0010
0000
0001
,
0100
0000
0100
0000
0010
1000
0000
0100
,
1000
0000
1000
0000
0001
0100
0001
0000
,
0010
0001
0010
0000
0001
0100
0010
0000
,
0010
0000
0010
0000
1000
0100
0000
1000
,
0010
0000
0010
0000
1000
0001
0000
0100
,
0001
0000
0001
0000
1000
0001
1000
0000
,
1000
0001
0001
0100
,
0100
0000
0010
0000
1000
0010
0000
0100
,
0010
0000
1000
0000
0001
0100
0000
0010
,
0100
0000
0100
0000
0001
1000
0001
0000
,
0100
0100
0000
0010
,
0100
0000
0100
0010
0010
0000
1000
0000
,
0001
0000
0001
0001
1000
0000
0010
0000
,
1000
0000
1000
0001
0001
0000
0010
0000
,
0001
0000
0001
0100
0100
0000
0101
0000
,
0110
0000
0101
0000
0000
0000
0001
1000
,
0000
0100
0000
1000
0010
0000
1010
0000
,
1100
0000
1001
0000
0000
0000
0001
0100
,
0000
0010
0000
0100
0010
0000
1000
0000
,
0100
0010
0001
1000
,
0010
0100
0001
0010
,
0100
1000
0001
0100
,
0010
0000
1000
0001
0100
0000
0001
0010
,
0001
0010
0001
0000
0100
0010
0100
0000
,
0010
0000
1000
0100
1000
0000
0100
0010
,
0100
0010
0100
0000
0010
0001
0010
0000
,
0001
0000
1000
0001
0000
1000
0001
0100
,
0001
0100
0001
0000
0100
0010
0100
0000
,
0010
0000
1000
0010
1000
0000
0100
1000
,
0100
1000
0001
0000
0100
0001
0100
0000
,
0001
0000
1000
0010
0000
0100
0010
0000
,
1000
0000
0001
0000
0101
0000
0100
0010
,
0100
0000
0010
0000
1010
0000
1000
0100
,
1000
0001
0100
0000
0001
1000
0010
1000
,
0100
0000
0010
0001
0100
0010
0100
0000
,
0010
0000
0100
0000
0101
0000
0001
1000
,
0010
0000
1000
0100
0000
1000
0010
0000
,
0100
0000
0010
1000
0100
1000
0001
0000
,
0100
0010
1000
0101
,
0000
0000
0000
0000
0001
1000
0000
0010
,
0000
0000
0000
0000
0010
1000
0000
0100
,
0000
1000
1000
1000
,
0100
0000
0100
0000
0000
0000
0010
0100
,
1000
0100
0010
0000
0100
1000
0010
0000
,
0010
0000
1000
0001
1000
0000
0001
0100
,
0001
0100
0001
0000
1000
0001
1000
0001
,
1000
0000
0010
0100
0010
0100
0001
0000
,
0000
0100
0000
0000
0010
0000
0000
0000
,
0100
0000
0100
0000
0100
0001
0100
0000
,
0001
1000
0000
0010
0000
1000
0100
0000
,
1000
0010
0000
0100
0000
0010
1000
0000
,
0100
0010
0000
0001
0000
0100
0010
0000
,
1000
0001
0100
0001
1000
0100
0020
0000
,
0000
0030
0000
0000
,
0000
0000
0000
0000
,
0000
0000
0000
0000
,
0000
0000
0000
0000
;

//---------------dance-single - ----------------
#NOTES:
     dance-single:
     :
     Hard:
     8:
     0.000,0.000,0.000,0.000,0.000:
0000
0000
0000
0000
,
0000
0000
0000
0000
,
0000
0000
0000
0000
,
0000
0000
0000
0000
,
0000
0000
0000
0001
,
0010
0000
0001
0000
0100
0010
0000
0010
,
1000
0000
0100
0000
1000
0001
0000
0001
,
1000
0000
0100
1000
0100
1000
0010
0000
,
0010
0000
0100
0010
0100
0010
1000
0000
,
1000
0000
0010
0000
1000
0010
0000
0010
,
1000
0000
0100
0000
0010
0001
0000
0001
,
0100
0000
0010
1000
0010
1000
0010
0000
,
0100
0001
0100
0000
0010
1000
0001
0000
,
0100
0000
1000
0000
0001
0010
1000
0100
,
0001
0000
0100
0000
1000
0010
0001
0010
,
0100
0000
0001
0000
1000
0001
1000
0000
,
0100
0000
1000
0010
1000
0100
0010
0000
,
0001
0000
0100
0001
1000
0010
0001
0000
,
0010
0000
1000
0100
0001
0100
1000
0100
,
1000
0000
0010
0100
0010
0100
0010
0000
,
1000
0000
0001
0100
0010
0100
0001
0000
,
0101
1100
0101
1100
,
1000
0100
0010
0001
0100
0010
1000
0000
,
1010
0011
1010
0011
,
0010
1000
0100
0000
1000
0001
0010
0001
,
0100
0010
0000
0010
0000
1000
0010
1000
,
0001
0100
0000
0100
0010
1000
0001
1000
,
0100
0010
0000
0010
0000
0001
0100
0010
,
1000
0010
0100
0010
1000
0000
1010
0000
,
0011
0101
1100
1001
,
0001
0100
0001
0100
0010
1000
0010
0000
,
1010
1100
0101
0011
,
1001
0000
0100
0001
1000
0000
0020
0000
,
1000
0000
0001
0000
1030
0000
0010
1000
,
0100
1000
0001
0010
0010
0001
0001
0000
,
0100
0000
0001
1000
0100
1000
0010
0000
,
0010
1000
0100
1000
0000
1001
0000
0001
,
0100
0000
0100
0010
1000
0100
1000
0000
,
1000
0000
0100
0010
0001
0100
0001
0000
,
0010
0000
0001
0100
0010
0000
0100
0000
,
0100
0010
1000
0010
0000
1010
0000
1000
,
0100
0000
0010
0001
0011
0000
0001
0000
,
0100
0000
0010
1000
1010
0000
1000
0010
,
0100
0001
1000
0100
0010
0001
0100
0000
,
0100
0010
1000
0010
0000
1010
0000
1000
,
0100
0000
1000
0001
1000
0000
0001
0100
,
0010
0000
0010
0100
0001
0100
0100
0000
,
0001
0000
1000
0000
0001
0010
0001
0010
,
0001
0010
0100
1000
0100
0000
2100
0000
,
0000
0000
0000
0000
3001
0020
0000
0100
,
0000
0000
0000
0000
0130
2000
0000
0001
,
0000
0000
3000
0001
,
0010
0000
0001
0000
1000
0000
0010
1000
,
0010
1000
0010
1000
0100
1000
0001
0100
,
0001
0100
0001
0100
0010
1000
0001
1000
,
0001
1000
0001
0010
0100
1000
0001
0100
,
0010
1000
0100
0010
0001
0010
2002
0000
,
0000
0000
3003
0000
,
0000
0000
0000
0000
1001
0100
1001
0100
,
0010
0100
0000
0100
0001
0100
0001
1000
,
0100
1000
0010
0100
0010
0000
1010
0000
,
1001
0101
0011
1100
,
1001
0000
0110
0000
1001
0010
2002
0000
,
0000
3003
0000
0000
,
0000
0000
0000
0000
,
0000
0000
0000
0000
,
0000
0000
0000
0000
;
