#TITLE:THE DEEP STRIKER;
#SUBTITLE:(DJ MYOSUKE REMIX);
#ARTIST:L.E.D.-G;
#TITLETRANSLIT:;
#SUBTITLETRANSLIT:;
#ARTISTTRANSLIT:;
#GENRE:;
#CREDIT:;
#BANNER:strikerrmx.png;
#BACKGROUND:strikerrmx-bg.png;
#LYRICSPATH:;
#CDTITLE:!auraesimfilesmix2.png;
#MUSIC:strikerrmx.mp3;
#OFFSET:-0.008;
#SAMPLESTART:64.835;
#SAMPLELENGTH:12.020;
#SELECTABLE:YES;
#DISPLAYBPM:200.000;
#BPMS:0.000=200.000
,112.000=100.000
,129.000=200.000
;
#STOPS:128.000=0.600
;
#BGCHANGES:;
#KEYSOUNDS:;
#ATTACKS:;

//---------------dance-single - ----------------
#NOTES:
     dance-single:
     :
     Easy:
     6:
     0.451,0.523,0.556,0.207,0.000,254.000,59.000,22.000,0.000,0.000,0.000,0.451,0.523,0.556,0.207,0.000,254.000,59.000,22.000,0.000,0.000,0.000:
0000
0000
0000
0000
,
0000
0000
0000
0000
,
0000
0000
0000
0000
,
0000
0000
0000
0000
,
0002
0000
0003
0000
,
2000
0000
3000
0000
,
0020
0000
0030
0000
,
0200
0000
0300
0000
,
0001
0000
0001
0000
,
1000
0000
1000
0000
,
0010
1000
0100
0010
,
0001
0000
0000
1001
,
0100
0100
0100
0100
,
0001
0001
2000
3000
,
1000
0010
0010
0010
,
1000
0100
0001
0001
,
1000
1000
0100
0100
,
1000
1000
0020
0030
,
1000
0010
1000
1000
,
0200
0000
0300
0000
,
1000
0000
0001
0000
0100
0000
0001
1000
,
0000
1000
0000
1000
0000
1000
0010
0000
,
0010
0100
0001
0001
,
1000
0010
1000
0100
,
0010
0010
0001
0100
,
0001
1000
1000
0010
,
0100
0100
0100
0100
,
2002
0000
3003
0110
,
2002
0000
0000
0000
,
3000
0000
0203
0300
,
0022
0000
0000
0000
,
0003
0000
0230
1300
,
1001
0000
0000
0000
,
0000
0001
0001
0001
,
0100
0000
0010
0000
1000
0000
1000
0100
,
1000
0100
0100
0100
,
0010
0000
0001
0100
0001
0000
0100
0001
,
0100
0010
0010
0010
,
1000
0000
0001
0000
0001
0000
0100
0001
,
0100
0010
0000
0110
,
0000
0110
0000
0000
,
0000
1000
1000
1000
,
0010
0000
1000
0000
0010
0000
1000
0010
,
1000
0100
0100
0100
,
0010
0000
0001
0010
0001
0000
0010
0001
,
0010
0100
0100
0100
,
1000
0000
0010
0000
0100
0000
0100
0001
,
0100
2002
3003
0202
,
0303
0000
0000
0000
,
0000
1001
1001
1001
,
1001
0001
0100
0010
,
0000
1010
1010
1010
,
1010
1000
0100
0010
,
0001
0011
0011
0011
,
0011
0001
0010
0100
,
0000
1100
1100
1100
,
1100
1001
0000
0000
,
0000
0000
0101
0000
0000
0101
0000
0101
,
0000
0001
2000
0000
0000
3010
0000
0000
,
0000
0000
1001
0000
0000
1001
0000
1001
,
0000
1000
0020
0000
0000
0130
0000
0000
,
0000
0101
0101
1001
,
1001
1000
0100
1000
,
0010
1010
1010
1001
,
1001
0101
0101
0110
,
0110
1001
0001
0001
,
0100
0010
0000
0010
0000
0010
0000
1000
,
0010
1000
0010
0000
0100
0000
0100
0000
,
0001
0100
0000
0100
0000
0100
0000
0001
,
0100
0001
0100
0000
0000
0101
0000
0000
,
1001
0000
1001
0000
0000
1010
0000
0000
,
1000
0010
0100
0001
,
1000
0001
0010
0100
,
1000
0100
0010
0001
,
1000
0001
0200
0010
,
0301
0100
0100
0001
,
1000
0000
0100
0000
1000
0000
0010
1000
,
0010
1010
0110
0101
,
1001
1001
0110
1001
,
0110
1001
0000
0000
,
0000
0000
0000
0000
,
0000
0000
0000
0000
,
0000
0000
0000
0000
,
0000
0000
0000
0000
;

//---------------dance-single - ----------------
#NOTES:
     dance-single:
     :
     Medium:
     8:
     0.627,0.560,0.358,0.217,0.038,405.000,38.000,23.000,0.000,0.000,0.000,0.627,0.560,0.358,0.217,0.038,405.000,38.000,23.000,0.000,0.000,0.000:
0000
0000
0000
0000
,
0000
0000
0000
0000
,
0000
0000
0000
0000
,
0220
0000
0000
0330
,
0101
0000
0000
0001
1000
0100
2000
0000
,
3000
0010
0000
0010
1000
0100
0020
0000
,
0001
0000
0130
0010
0001
1000
0000
0010
,
0000
0100
0010
1000
0010
0000
0100
0000
,
0010
1000
0000
1000
0001
0010
0100
0010
,
0100
0000
1000
0000
0110
0000
0100
0001
,
1000
0001
0010
0001
1000
0001
0100
0001
,
1000
0000
1001
0110
,
1001
0000
0001
0100
0001
1000
0000
1000
,
0000
0010
1000
0000
0100
0010
0001
0000
,
0100
0000
0001
1000
0010
1000
0000
1000
,
0000
0010
0100
0000
0001
0100
1000
0100
,
0001
0000
1000
0100
0010
0001
0000
0001
,
0000
1000
0100
1000
0010
0000
1010
0000
,
1001
0000
0001
0100
0010
1000
0000
1000
,
0020
0030
0200
0300
,
0001
0000
1000
0001
1000
0001
1000
0010
,
0000
0010
0000
0010
0100
0010
0200
0000
,
1000
0000
0301
0000
0100
0001
1000
0001
,
0010
0000
0100
0000
1000
0010
1000
0100
,
0010
0000
0001
0100
0010
0100
0001
1000
,
0000
1000
0000
1000
0010
1000
0010
0100
,
0002
0203
0320
2030
,
3100
0000
1001
0110
,
1001
0000
0000
0000
,
0100
0000
0010
0000
,
0110
0000
0000
0000
,
1000
0000
0010
0110
,
1001
0000
0000
1001
,
0110
0000
1001
0000
0001
0100
0001
0100
,
0010
0000
1000
0100
1000
0001
0010
0100
,
0010
0000
0001
0000
1000
0100
1000
0010
,
1000
0000
0100
0010
0200
0000
0001
0000
,
0301
0000
0100
1000
0001
1000
0010
1000
,
0001
0000
0100
0010
1000
0000
0100
0010
,
0001
2002
3003
0220
,
0330
1001
0000
0000
,
0000
0000
1000
0010
0100
0001
1000
0010
,
0100
0001
1000
0000
1000
0000
0100
1000
,
0010
1000
0100
0010
0001
0000
0011
0000
,
0011
0000
0001
0100
0010
0000
0100
0010
,
1000
0010
0100
0001
1000
0010
0100
0001
,
1000
0010
0100
0000
0100
0000
0001
1000
,
0001
0000
2100
0000
0000
0100
0100
0100
,
3200
0300
0000
0000
,
0000
0000
1000
0001
1000
0001
0100
0010
,
1000
0010
0100
0001
0010
0001
1000
0100
,
1000
0000
0001
0100
0001
0100
0010
1000
,
0100
1000
0001
0010
0200
0000
0010
0000
,
1300
0000
0010
0100
0010
0100
0001
1000
,
0100
1000
0001
0000
1100
0000
1001
0000
,
1100
0000
0001
0010
0001
0010
0001
1000
,
0010
0100
0020
0000
0230
0000
0301
0000
,
0001
0000
0000
0000
1000
0000
0000
0010
0000
0000
0100
0000
0000
0000
0100
0000
,
0000
0000
0010
0000
1000
0000
0000
0001
0000
0000
1001
0000
0000
0000
0000
0000
,
0000
0000
0000
0000
0010
0000
0000
0100
0000
0000
0001
0000
0000
0000
0001
0000
,
0000
0000
0010
0000
0100
0000
0000
1000
0000
0000
0100
0000
0010
0000
0001
0000
,
0010
0000
0100
1000
0010
1000
0001
0000
,
0100
0001
0100
0010
1000
0001
1000
0100
,
0010
0000
0001
0100
0010
1000
0001
0100
,
0010
1000
0020
0000
0000
0000
1000
0000
,
0130
0000
0000
0000
0010
0000
0000
1000
0000
0000
0001
0000
0100
0000
0001
0000
,
0100
0010
0000
0110
0000
0110
0000
0010
,
0100
0000
0010
0000
1000
0000
0000
0100
0000
0000
0010
0000
0001
0000
0010
0000
,
0001
0010
0000
0011
0000
0011
0000
0001
,
1000
0001
1000
0010
0000
0010
0000
1000
,
0100
1000
0020
0000
0000
0000
0130
0010
,
0100
0010
0000
0110
0000
0101
0000
1001
,
0000
1100
0000
1001
0000
0001
0100
0010
,
1000
0000
0100
0010
0001
0000
0010
0001
,
0010
0001
0100
0010
0100
0000
0010
0000
,
1000
0000
0100
0000
1000
0000
0000
0100
0000
0000
0010
0000
0001
0000
0010
0000
,
0001
0000
0001
1000
0001
1000
0100
1000
,
0010
0000
0100
0000
0010
0000
0000
1000
0000
0000
0001
0000
0100
0000
0001
0000
,
0100
0000
0010
1000
0100
0010
0001
0000
,
1001
1001
0000
0000
,
0000
0000
0000
0000
,
0000
0000
0000
0000
,
0000
0000
0000
0000
,
0000
0000
0000
0000
;

//---------------dance-single - ----------------
#NOTES:
     dance-single:
     :
     Hard:
     10:
     0.779,0.832,0.782,0.235,0.184,471.000,83.000,25.000,0.000,0.000,0.000,0.779,0.832,0.782,0.235,0.184,471.000,83.000,25.000,0.000,0.000,0.000: // measure 0
0000
0000
0000
0000
,  // measure 1
0000
0000
0000
0000
,  // measure 2
0000
0000
0000
0000
,  // measure 3
2002
0000
3000
0003
,  // measure 4
0201
0000
0310
1000
,  // measure 5
0200
0000
1300
0011
,  // measure 6
0102
0000
1003
0010
,  // measure 7
0200
0000
0310
0100
,  // measure 8
0001
1100
0001
1010
,  // measure 9
0100
1001
0010
0011
,  // measure 10
0101
0000
0001
0000
1000
0010
0100
0001
,  // measure 11
2002
0000
3003
0110
,  // measure 12
0001
0000
0010
0001
1000
0010
0000
1100
,  // measure 13
0000
0100
0010
0000
0001
1000
0010
0000
,  // measure 14
0101
0000
0100
0010
1000
0100
0000
1001
,  // measure 15
0000
0001
0010
0000
0010
0001
0100
0100
,  // measure 16
0010
0000
1000
0100
0001
0100
0000
0010
,  // measure 17
0000
0001
1000
0010
0100
0000
0101
0000
,  // measure 18
1001
0000
1000
0010
0001
0010
0000
0100
,  // measure 19
0001
1100
0101
1001
,  // measure 20
0100
0001
0100
0001
1000
0010
1000
0100
,  // measure 21
0000
0011
0000
1001
1000
0100
1000
0100
,  // measure 22
1000
0000
0101
0000
0001
0010
0100
0000
,  // measure 23
1100
0000
1001
0000
0101
0001
0100
0010
,  // measure 24
1000
0100
1000
0100
0010
0001
0100
0001
,  // measure 25
1000
0010
0000
1000
0100
0010
0001
0100
,  // measure 26
0010
1000
0010
1000
0001
1000
0100
0000
,  // measure 27
0010
0001
0011
0010
0110
0000
1100
0000
,  // measure 28
2002
0000
0003
0000
,  // measure 29
3200
0000
0320
0030
,  // measure 30
0202
0000
0003
0000
,  // measure 31
0320
0000
2030
3100
,  // measure 32
1001
0000
0000
0000
0001
0000
0000
1000
0000
0000
0001
0000
1000
0001
1000
0000
,  // measure 33
0220
0000
0330
0000
0101
0000
0000
0001
0100
0000
0010
0000
1000
0000
0100
0000
,  // measure 34
0100
0000
1000
0000
0010
0000
0000
1000
0010
0000
0100
0000
0001
0000
0010
0001
,  // measure 35
1000
0000
0000
0000
1100
0000
0000
1000
0010
0000
0100
0000
0001
0000
0010
0000
,  // measure 36
0010
0000
0001
0000
1000
0000
0001
0100
0002
0000
0000
0000
1003
0010
1000
0000
,  // measure 37
0100
0010
0001
0010
0001
0000
0000
0001
0010
0000
0001
0000
1000
0000
0010
0000
,  // measure 38
0010
0000
1000
0000
0100
0000
0000
1000
0100
0000
0010
0000
0001
0000
1000
0001
,  // measure 39
1000
0000
0010
1000
1010
0000
0001
0100
,  // measure 40
0101
0000
0001
1000
0001
1000
0200
0000
,  // measure 41
0001
0000
0000
0000
1300
0000
0100
1000
0010
0000
0100
0000
0010
1000
0100
0000
,  // measure 42
1000
0000
0001
0000
0010
0000
0001
0100
0001
0000
0100
0000
0001
0000
1000
0000
,  // measure 43
1010
0000
0000
0000
1001
0000
1001
0000
0110
0000
0010
0000
0100
0001
0010
0000
,  // measure 44
0001
0000
1000
0000
0010
0000
0100
0000
0100
0000
0000
0000
0010
1000
0001
0000
,  // measure 45
0010
0001
1000
0000
0101
0000
0001
0000
1000
0000
0100
0000
1000
0000
1000
0000
,  // measure 46
0010
0100
0010
1000
0100
0100
1000
0001
,  // measure 47
0010
0000
0001
0100
0001
1000
1001
0010
,  // measure 48
1000
0000
0000
0000
,  // measure 49
0000
0000
0011
0000
0101
0000
1010
0010
,  // measure 50
0110
0100
0001
0000
1100
0000
1000
0100
,  // measure 51
0001
0000
0100
0000
1100
0000
1010
1000
,  // measure 52
0010
0001
0010
0000
1000
0100
1000
0001
,  // measure 53
0101
0000
1001
0001
0010
0001
0100
0100
,  // measure 54
0010
0010
1000
0010
0100
0001
1000
0100
,  // measure 55
1000
0000
0011
0000
0001
0100
1100
0000
,  // measure 56
1000
0000
0010
0000
0100
0001
0100
0000
0001
0100
0001
0000
0100
0001
0100
0000
,  // measure 57
0001
0100
0001
0000
1001
0000
0000
1100
0000
0000
1001
0000
0000
0000
0110
0000
,  // measure 58
0000
0000
0101
0000
0101
0000
0000
1001
0000
0000
1010
0000
0000
0000
0000
0000
,  // measure 59
0000
0000
0000
0000
1000
0000
0000
0110
0000
0000
0011
0000
0000
0000
1001
0000
,  // measure 60
0000
0000
0101
0000
1001
0000
0000
1100
0000
0000
0110
0000
0100
0010
0100
0000
,  // measure 61
1001
0000
0001
1000
0100
1000
0010
0010
,  // measure 62
0100
0001
1000
0010
1000
0001
0010
1000
,  // measure 63
0001
0100
1000
0010
0100
0001
1000
0001
,  // measure 64
0100
0000
0010
0000
1000
0010
1000
0010
1000
0010
1000
0010
2000
0000
0000
0000
,  // measure 65
3002
0000
0000
0000
0103
0000
0000
0001
0100
0000
0001
0000
0010
0000
0100
0000
,  // measure 66
1100
1000
0000
0100
0010
0001
0000
0001
,  // measure 67
0010
0000
0100
0000
1001
0000
0000
1000
0010
0000
0100
0000
0001
0000
1000
0000
,  // measure 68
0010
0100
0000
0010
1000
0100
1100
0000
,  // measure 69
0101
0000
1001
0002
0000
0100
0000
1003
,  // measure 70
0001
0000
0101
0100
0000
0010
1000
0000
,  // measure 71
0001
1000
0001
0000
0000
0000
0101
0000
0000
0000
1001
0000
0000
0000
0110
0000
,  // measure 72
0000
0011
0000
1100
0000
1000
0010
1000
,  // measure 73
0100
0010
0001
1000
0100
1000
0010
0010
,  // measure 74
1000
0100
1000
0001
0100
0001
1100
0001
,  // measure 75
1001
0000
0000
0000
0010
0000
0001
0100
0010
0000
0100
0000
0010
0000
1000
0000
,  // measure 76
0100
1000
0010
0100
0100
0001
0010
0001
,  // measure 77
0100
0000
0000
0000
0010
0000
1000
0100
1000
0000
0001
0000
0100
0000
0010
0000
,  // measure 78
1000
0000
0100
0000
1000
0000
0001
0000
0010
0000
0001
0000
1000
0001
1000
0001
,  // measure 79
0100
2002
0000
0000
,  // measure 80
0000
3003
0000
0000
;
