#TITLE:SUNBURN;
#SUBTITLE:;
#ARTIST:Tera Melos;
#TITLETRANSLIT:;
#SUBTITLETRANSLIT:;
#ARTISTTRANSLIT:;
#GENRE:;
#CREDIT:;
#BANNER:sunburn.png;
#BACKGROUND:sunburn-bg.png;
#LYRICSPATH:;
#CDTITLE:!auraesimfilesmix2.png;
#MUSIC:sunburn.mp3;
#OFFSET:-0.010;
#SAMPLESTART:22.595;
#SAMPLELENGTH:17.600;
#SELECTABLE:YES;
#DISPLAYBPM:190.000;
#BPMS:0.000=182.000
,15.000=183.000
,21.000=186.000
,27.000=190.000
,31.000=184.000
,42.000=190.000
,51.000=186.000
,60.000=184.000
,65.000=191.000
,69.000=216.000
,70.000=190.000
,73.000=187.000
,78.000=194.000
,88.000=187.000
,93.000=191.000
,104.000=184.000
,122.000=181.000
,124.000=183.000
,131.000=181.000
,145.000=185.000
,146.000=183.000
,147.000=181.000
,149.000=177.000
,152.000=178.000
,156.000=180.000
,158.000=178.000
,162.000=179.000
,165.000=181.000
,166.000=183.000
,171.000=184.000
,173.000=188.000
,191.000=191.000
,195.000=193.000
,203.000=195.000
,207.000=197.000
,209.000=187.000
,223.000=185.000
,228.000=187.000
,232.000=189.000
,235.000=191.000
,239.000=187.000
,244.000=169.000
,245.000=183.000
,252.000=188.000
,257.000=193.000
,263.000=191.000
,276.000=190.000
,281.000=189.000
,285.000=192.000
,296.000=194.000
,299.000=190.000
,309.000=193.000
,315.000=184.000
,345.000=186.000
,353.000=177.000
,354.000=183.000
,358.000=177.000
;
#STOPS:
;
#BGCHANGES:;
#KEYSOUNDS:;
#ATTACKS:;

//---------------dance-single - aurae----------------
#NOTES:
     dance-single:
     aurae:
     Easy:
     4:
     0.346,0.422,0.043,0.102,0.000,267.000,5.000,12.000,0.000,0.000,0.000,0.346,0.422,0.043,0.102,0.000,267.000,5.000,12.000,0.000,0.000,0.000:
0000
0000
0000
0000
,
0000
0000
0000
0000
,
0000
0000
0000
0000
,
0000
0000
0000
0001
,
0000
0010
0001
0010
,
0000
0001
1000
0100
,
0000
1000
0001
1000
,
0000
1000
0000
0010
,
1000
0010
0000
1000
,
0100
0010
0000
0001
,
0100
0010
1000
0001
,
0001
0001
0001
0001
,
0001
0001
0000
1000
,
0100
1000
0000
0010
,
1000
0010
0010
1000
,
0100
1000
0000
0001
,
0100
1001
0000
0000
,
0000
0000
0001
1000
,
1000
0001
0100
0001
,
0100
0000
0001
1000
,
0020
0000
0000
0030
,
1000
0010
0010
0010
,
1000
0100
1000
0001
,
0100
0000
0001
0010
,
0001
1000
0200
0000
,
0000
0300
1000
0001
,
0100
0000
0001
0000
,
0001
0000
1000
0000
,
0001
0010
0000
0001
,
0000
0010
0001
0010
,
0000
0001
1000
0100
,
0000
1000
0000
0001
,
0000
0100
0000
0001
,
0001
0001
0001
1000
,
1000
1000
0010
0010
,
0010
0010
1000
1000
,
1000
0001
1000
0100
,
0000
1000
0001
0100
,
0001
0001
0001
0000
,
1000
0010
0100
0010
,
1000
0100
1000
0001
,
0001
0001
1000
0010
,
1000
0100
1000
0001
,
0010
2002
3003
0001
,
1000
0010
0010
0100
,
0010
1000
0100
2002
,
3003
2002
3003
0001
,
0010
0010
0010
0001
,
1000
0100
0100
1000
,
0001
0010
0010
0100
,
0000
1001
0000
0001
,
0010
0001
0000
0100
,
0010
1000
1000
1000
,
0000
0001
0001
0001
,
0000
0100
0100
0100
,
0000
0001
1000
0010
,
0010
0010
0000
1000
,
1000
1000
0000
0100
,
0100
0100
0010
0001
,
0010
0100
1000
0001
,
0000
0000
0000
0000
,
0000
1000
0010
0100
,
0010
1000
1000
0100
,
1000
0001
0010
0002
,
0000
0000
0003
1000
,
0001
0001
0000
1000
,
0100
1000
0010
0100
,
0100
0010
1000
0001
,
0100
0020
0000
0000
,
0030
1000
0010
0010
,
0000
1000
0100
1000
,
0001
0100
0001
0001
,
1000
0100
0010
0002
,
0000
0000
0003
1000
,
0001
0001
0100
0001
,
1000
1000
0100
1000
,
0010
0100
0010
0100
,
0001
2000
0000
0000
,
3000
0001
0000
1000
,
0000
0010
0000
0100
,
0010
1000
0000
0100
,
1000
0000
0001
0000
,
0100
0001
0010
0000
,
0010
0001
0100
0000
,
0100
0000
0001
0000
,
1000
0000
0001
0010
,
0000
0001
0000
0100
,
0001
1000
1000
0100
,
1000
0010
0100
0010
,
0000
0010
0000
1000
,
0001
0100
0000
0000
0000
0000
0000
0000
;

//---------------dance-single - aurae----------------
#NOTES:
     dance-single:
     aurae:
     Medium:
     6:
     0.560,0.538,0.230,0.179,0.000,412.000,27.000,21.000,0.000,0.000,0.000,0.560,0.538,0.230,0.179,0.000,412.000,27.000,21.000,0.000,0.000,0.000:
0000
0000
0000
0000
,
0000
0000
0000
0000
,
0000
0000
0000
0000
,
0000
0000
0000
1000
,
0100
1000
0001
0000
0100
0001
1000
0000
,
0001
0000
0001
0000
0010
0001
0100
0000
,
0100
0000
0001
1000
0000
0001
0000
1000
,
0010
0010
1000
0100
,
1000
0001
0010
0000
0001
0100
0010
0000
,
1000
0000
0100
1000
0001
0000
0100
0001
,
0000
1000
0000
0010
1000
0000
0200
0000
,
0010
0010
0010
0310
,
0001
1000
0001
0100
,
0001
0100
0001
0000
1000
0100
0010
0000
,
0001
0000
0100
0000
0010
1000
0100
0000
,
1000
0000
0001
0100
0000
0001
0000
1000
,
0100
1100
0000
0000
,
0000
0000
0010
0001
,
0100
0001
0100
0001
1000
0000
0100
0000
,
0010
0000
0001
0000
1000
0000
0001
1000
,
0001
2002
3003
0010
,
0100
0000
1000
0000
0100
0010
0001
0010
,
0100
0000
1000
0000
0010
1000
0001
0000
,
0100
0000
0001
1000
0001
0000
1000
0100
,
1000
0000
1000
0001
1000
0000
2002
0000
,
3003
0100
0010
1000
,
1001
0100
1001
0010
,
0001
0000
1000
0100
1000
0000
0001
0000
,
0100
0001
0100
0000
1001
0000
0100
0000
,
1001
0000
0010
0001
0010
0000
0001
1000
,
0001
0000
1000
0100
1000
0100
2000
0000
,
3200
0000
0310
0000
0001
0010
0001
0000
,
0100
0000
0001
1000
0001
1000
0002
0000
,
0003
2000
3000
0002
,
0003
2000
3020
0030
,
0200
0300
0020
0030
,
0200
0000
0301
0000
0001
0100
0010
1000
,
0100
0000
0010
0001
0100
0000
0101
0000
,
0001
0000
1000
0100
0010
0001
0100
0000
,
0010
1000
0100
0000
1100
0000
1000
0000
,
0001
0100
0010
1000
0100
0000
0010
0001
,
0100
0000
0011
0000
0001
0000
0010
0100
,
1000
0010
0100
0010
1000
0000
1100
0000
,
1100
0000
1001
0000
0001
0000
1000
0001
,
1000
0000
0100
0000
1000
0000
0100
0010
,
0001
0100
0010
0000
1000
0200
0001
0000
,
0300
0000
0001
0000
0100
0000
1000
0010
,
1000
0000
0010
1000
0100
0010
0001
0000
,
0001
0000
0010
0001
0100
0000
0010
0000
,
1000
0100
1000
0000
0100
1000
0010
0000
,
1000
0020
0001
0000
0030
0000
0001
0000
,
0010
1000
0100
0001
,
0101
1100
1000
1000
,
0000
0001
0000
0010
0000
0001
0000
0000
,
0010
0000
0001
0000
0100
0000
0100
0010
,
0000
1000
0000
0001
0100
0000
0101
0000
,
0001
0000
0001
0000
0000
1000
0000
0100
,
0000
1000
0000
0000
0010
0000
1000
0000
,
0010
0000
0100
0010
0000
1000
0000
0100
,
0000
0010
0001
0000
0010
0000
1100
0000
,
0000
0000
0000
0000
,
0000
0000
1001
0000
1000
0000
0001
0100
,
0001
0100
0001
0000
0010
0000
0001
0100
,
0010
0000
1000
0000
0100
2000
0000
0000
,
3001
0000
0100
0000
0001
0000
1000
0001
,
1000
0000
0001
1000
0001
1000
0010
0000
,
0100
0000
0010
1000
0100
1000
0010
0000
,
0100
0000
0001
0000
0010
0001
0100
0000
,
0100
0002
0000
0000
1003
0000
0001
1000
,
0001
0000
0100
0001
0100
0000
0001
1000
,
0100
1000
0010
0000
1010
0000
1010
0000
,
1000
0001
0100
0000
0001
0000
0010
0001
,
0100
0000
0100
0010
1000
0020
0000
0000
,
0130
0000
0010
0000
1000
0000
0100
1000
,
0001
1000
0001
0010
,
0001
0000
0100
0001
1000
0000
0100
0000
,
1000
0000
0001
0100
0001
0000
1000
0100
,
1000
0002
0000
0000
0013
0000
0001
0010
,
0100
1000
0010
1001
,
0100
0000
1001
0000
0100
0000
0010
0001
,
0100
0000
0001
0000
1000
0000
0100
1000
,
0001
1001
0010
1001
,
0010
1001
1000
0100
,
0010
0001
1000
0010
0100
0001
0100
0000
,
0001
1000
1000
0100
,
1000
0010
0100
0001
,
0110
1000
0110
0001
,
0100
0000
0010
0000
1000
0000
0001
1000
,
0100
0000
0010
0000
0001
0100
0010
1000
,
0100
0000
1000
0000
0001
0100
0001
1000
,
0100
0001
0000
0000
0000
0000
0000
0000
;

//---------------dance-single - aurae----------------
#NOTES:
     dance-single:
     aurae:
     Hard:
     9:
     0.649,0.578,0.503,0.068,0.000,466.000,59.000,8.000,0.000,0.000,0.000,0.649,0.578,0.503,0.068,0.000,466.000,59.000,8.000,0.000,0.000,0.000:
0000
0000
0000
0000
,
0000
0000
0000
0000
,
0000
0000
0000
0000
,
0000
0000
0000
0000
0000
0000
0001
0100
,
0010
1000
0100
1000
0001
0010
0100
1000
,
0010
0100
0001
1000
0100
0000
1000
0000
,
1100
0000
1000
0001
0000
0101
0000
0100
,
0001
0000
0010
0001
0100
0010
1000
0100
,
0010
0001
0100
0010
1000
0001
0100
0001
,
0010
0001
0100
0010
1000
0000
0010
1000
,
0000
0001
0000
1000
0100
0000
1000
0001
,
1000
0000
0001
1000
0100
0000
0100
0001
,
1000
0100
0010
0000
0001
0000
0110
0000
,
0100
1000
0001
0100
0010
1000
0100
0010
,
0001
1000
0100
1000
0001
0010
0001
0100
,
0010
0000
1000
0010
0000
0110
0000
0100
,
0001
0011
0000
0000
,
0000
0000
0000
0000
1001
0000
1000
0100
,
1000
0010
0100
0010
0000
1000
0001
0100
,
0000
0001
1000
0000
1100
0000
1001
0000
,
0001
0010
0001
0000
0100
0010
1000
0100
,
0010
0001
0100
0000
0101
0000
1001
0000
,
1000
0010
1000
0100
1000
0000
0001
1000
,
0000
1000
0010
0100
0000
0100
0010
0000
,
1000
0001
0100
0001
0000
0010
0001
0000
,
0101
0000
0001
1000
0100
1000
0010
0000
,
1010
0001
1100
0001
,
1010
0001
0001
0010
,
0001
0100
0010
1000
0100
0000
1000
0000
,
0001
1000
0100
0000
1000
0000
0011
0000
,
1000
0101
1000
1001
,
0110
0000
1001
0000
0001
0000
0010
0001
,
0100
0000
0100
0000
0001
1000
0200
0000
,
1000
0010
1300
0002
,
0100
0010
0203
0001
,
0010
0301
2000
0001
,
3010
0000
1000
0010
0001
0000
0010
0100
,
0001
0010
0100
0000
1100
0000
1001
0000
,
0001
0100
1000
0000
0100
0001
1000
0100
,
0010
0000
0001
0000
0011
0000
0010
0100
,
1000
0010
0000
0100
0001
0000
1001
0000
,
0110
0000
1001
0000
0001
0010
1000
0001
,
0000
0100
1000
0010
0100
0001
0010
0000
,
0011
0000
1001
0000
1001
0000
1000
0010
,
0100
0010
0000
1000
0100
1000
0000
1000
,
0001
0100
0010
1000
0010
2000
0000
0001
,
3100
0001
1000
0100
1000
0001
0010
0000
,
0100
1000
0001
0101
,
0001
0100
0010
1000
0100
1000
0000
0010
,
1000
0001
0000
0010
0001
1000
0100
0000
,
1000
0002
0000
0000
0013
0100
1000
0000
,
0010
1000
0001
0100
0010
0000
1000
0000
,
0001
1000
0010
0010
,
1000
0001
0000
1000
0000
0001
0000
0001
,
0100
0000
0001
0000
1000
0000
1000
0010
,
0000
1000
0001
0100
0001
0000
1000
0000
,
1000
0000
0010
0000
0010
1000
0000
0001
,
0000
0100
0000
0100
0001
0000
0010
0000
,
0001
0000
0100
0000
0010
1000
0000
0100
,
0000
1000
0001
0000
1001
0000
0110
0000
,
0000
0000
0000
0000
,
0000
0000
1001
0000
0001
0010
0001
0100
,
0010
0100
0000
0001
1000
0010
0000
1000
,
0001
0000
0011
0000
1001
0000
1000
0100
,
1000
0000
0010
0100
0001
0010
0100
1000
,
0010
0000
1010
0000
1001
0000
0001
0100
,
0001
0010
0001
0000
1000
0001
0000
0001
,
0100
0010
0000
0010
0100
0000
0001
1000
,
0010
1000
0000
0100
1000
0000
1010
0000
,
1000
0001
0010
0001
0100
0000
0101
0000
,
1001
0000
1010
0000
1000
0010
0100
0001
,
0010
0001
0000
1000
0100
1000
0000
0010
,
0100
0000
0010
1000
0100
2000
0000
3001
,
0010
0001
0011
1010
,
1000
0001
0100
0001
0010
0001
0100
0000
,
0100
0000
0001
1000
0100
1000
0000
1000
,
0010
0100
0000
0100
0001
0000
0010
0001
,
1000
0001
0100
0000
1001
0000
0100
0000
,
1001
0000
1000
0001
0100
0000
0001
0000
,
1100
0001
1010
0001
,
1100
0000
0010
0000
0010
1000
0100
1000
,
0001
1100
0010
0101
,
0010
0000
1001
0000
0100
0001
0010
0000
,
0001
1000
0010
1000
0100
0000
1000
0000
,
1000
0011
1000
0101
,
0010
0000
1001
0000
0001
1000
0100
0010
,
0001
1000
0101
0010
,
1001
0000
0100
0000
1001
0000
0001
1000
,
0100
1000
0010
0000
1010
0000
1001
0000
,
0101
0000
0001
1000
0100
0000
1000
0001
,
1000
0020
0000
0030
0000
0000
0000
0000
;
