#TITLE:STAR TRAIL;
#SUBTITLE:;
#ARTIST:Nhato;
#TITLETRANSLIT:;
#SUBTITLETRANSLIT:;
#ARTISTTRANSLIT:;
#GENRE:;
#CREDIT:;
#BANNER:startrail.png;
#BACKGROUND:startrail-bg.png;
#LYRICSPATH:;
#CDTITLE:!auraesimfilesmix2.png;
#MUSIC:startrail.mp3;
#OFFSET:-0.005;
#SAMPLESTART:14.600;
#SAMPLELENGTH:16.240;
#SELECTABLE:YES;
#DISPLAYBPM:148.000;
#BPMS:0.000=148.000
;
#STOPS:
;
#BGCHANGES:0.000=startrail.avi=1.000=1=0=0=StretchNoLoop==CrossFade==,
99999=-nosongbg-=1.000=0=0=0 // don't automatically add -songbackground-
;
#KEYSOUNDS:;
#ATTACKS:;

//---------------dance-single - aurae----------------
#NOTES:
     dance-single:
     aurae:
     Easy:
     2:
     0.169,0.198,0.000,0.000,0.000,119.000,0.000,0.000,0.000,0.000,0.000,0.169,0.198,0.000,0.000,0.000,119.000,0.000,0.000,0.000,0.000,0.000:
0000
0000
0000
0000
,
0000
0000
0000
0000
,
0000
0000
0000
0000
,
0000
0000
0000
0000
,
0000
0000
0000
0000
,
0001
0000
0010
0000
,
0001
0000
1000
0000
,
0010
0010
0010
0000
,
0100
0000
0100
0000
,
0001
0000
1000
0000
,
0010
0000
1000
0000
,
0001
0001
0001
0000
,
0100
0000
0000
0000
,
0001
0001
0010
0000
,
0010
0010
0001
0000
,
1000
1000
0100
0000
,
0100
0100
1000
0000
,
0010
0000
0100
0000
,
0010
0000
1000
0000
,
0001
0001
0001
0000
,
0100
0000
0000
0000
,
0001
0001
1000
0000
,
1000
1000
0010
0000
,
0010
0010
0100
0000
,
0001
1000
0001
1000
,
0001
0000
0100
0000
,
0001
0000
0100
0000
,
0010
0010
0010
0000
,
1000
0000
0001
0000
,
1000
0000
0000
0000
,
0100
0000
0000
0000
,
0010
0000
0000
0000
,
0001
0000
0000
0000
,
1000
0000
0001
0000
,
1000
0000
0001
0000
,
0100
0000
0001
0000
,
0010
0000
0001
0000
,
0100
0000
0100
0100
,
0001
0000
1000
0001
,
1000
0000
0010
1000
,
0100
0000
1000
1000
,
0010
0000
0100
0001
,
0100
0000
0001
0001
,
0010
0000
0001
1000
,
0100
0000
0000
0000
,
1000
0000
0001
0001
,
0100
0100
0100
0000
,
0001
0000
0010
0001
,
0010
0010
0001
0000
,
1000
0000
0010
1000
,
0100
0100
1000
0000
,
0010
0100
0100
0010
,
0100
0000
0000
0000
,
0001
0000
0000
0000
,
0000
0000
0000
0000
,
1000
0000
0000
0000
,
0000
0000
0000
0000
,
0100
0000
0000
0000
;

//---------------dance-single - aurae----------------
#NOTES:
     dance-single:
     aurae:
     Medium:
     5:
     0.366,0.368,0.109,0.089,0.000,238.000,11.000,9.000,0.000,0.000,0.000,0.366,0.368,0.109,0.089,0.000,238.000,11.000,9.000,0.000,0.000,0.000:
0000
0000
0000
0000
,
0000
0000
0000
0000
,
0000
0000
0000
0000
,
0000
0000
0000
0000
,
0000
0000
0000
0000
,
1000
0000
1000
0000
0100
0000
1000
0001
,
0010
0000
0010
0000
0001
0000
0010
0001
,
0100
0000
0100
0000
0010
0000
0100
0001
,
0020
0000
0032
0000
,
1003
0000
0001
0000
0100
0000
0001
1000
,
0010
0000
1000
0000
0001
0000
0100
0001
,
0010
0000
0001
0000
1000
0000
0100
0010
,
0001
0000
0000
0000
0000
0000
0001
0010
,
0100
0000
1000
0000
0010
0000
0100
0001
,
0010
0000
0001
0000
1000
0100
1000
0000
,
0010
0000
0100
0000
0001
0000
1000
0100
,
1000
0000
0010
0000
1000
0001
1000
0001
,
0100
0000
0101
0000
0101
0000
0001
1000
,
0010
0000
1010
0000
1010
0000
1000
0001
,
0010
0000
0010
0000
0001
0010
0001
0010
,
0001
0100
1000
0100
,
0010
0000
1000
0010
1000
0000
0001
0000
,
0100
0000
0001
0010
0001
0000
0001
0100
,
0010
0000
1000
0001
0100
0000
0001
0000
,
1000
0000
0010
1000
0010
1000
0010
0000
,
1001
0000
0000
0000
0001
0010
0100
1000
,
0010
0000
0000
0000
1000
0100
0010
0001
,
0100
0000
0000
0000
0010
0100
0001
1000
,
0020
0000
0230
0000
,
0301
0100
0001
0100
,
0001
0000
1000
0000
0010
0000
1000
0001
,
0010
0001
0010
0001
,
1000
0010
1000
0010
,
0100
0000
0101
0001
,
1000
0010
0110
0100
,
0001
0000
1100
1000
,
1000
0100
0010
0000
0011
0000
0000
0000
,
0001
0000
0100
0010
1000
0010
0100
0000
,
0010
0000
1000
0100
1000
0000
0001
0000
,
0100
0000
0001
0010
0001
0100
0010
0000
,
1000
0000
0100
1000
0100
0000
0010
0001
,
0100
0000
0001
0000
1000
0100
1000
0100
,
0010
0000
0001
0000
0100
0001
0100
0001
,
0010
0000
0001
0000
1000
0010
1000
0010
,
0100
0000
0000
0000
,
1010
0000
1001
0000
0001
0100
0001
0100
,
0010
0000
1000
0000
0001
1000
0001
1000
,
0100
0000
1000
0000
0010
1000
0010
0100
,
0010
1000
0010
0000
0100
0001
0100
0000
,
0001
0000
1000
0000
0001
0010
0001
0010
,
0100
0000
0010
0000
0001
0100
0001
0100
,
0010
0000
1000
0000
0100
1000
0001
2000
,
0000
0000
0000
0000
0000
0000
0000
3000
0000
0000
0000
0000
0000
0000
0000
0000
,
0200
0000
0000
0000
0320
0000
0000
0030
,
0000
0000
0000
0000
0000
0000
0000
0001
,
0200
0000
0000
0000
0320
0000
0000
0030
,
0000
0000
0000
0000
0000
1000
0010
0000
,
0100
0000
0000
0000
;

//---------------dance-single - aurae----------------
#NOTES:
     dance-single:
     aurae:
     Hard:
     8:
     0.461,0.453,0.050,0.189,0.204,301.000,5.000,19.000,0.000,0.000,0.000,0.461,0.453,0.050,0.189,0.204,301.000,5.000,19.000,0.000,0.000,0.000:
0000
0000
0000
0000
,
0000
0000
0000
0000
,
0000
0000
0000
0000
,
0000
0000
0000
0000
,
0000
0000
0000
0000
,
0100
0000
0000
0000
0001
0000
0000
0000
1000
0000
0000
0001
0100
0000
0000
0000
,
0001
0000
0000
0000
0010
0000
0000
0000
0001
0000
0000
1000
0100
0000
0000
0000
,
1000
0001
1000
0001
1000
0001
1000
0000
0000
0100
0000
0000
,
0002
0103
2000
3010
,
0100
0000
0000
0000
0001
0000
0000
0000
1000
0000
0000
0001
0010
0000
0000
0000
,
0001
0000
0000
0000
0100
0000
0000
0000
0010
0000
0000
1000
0001
0000
0000
0000
,
0100
0000
0001
0000
1000
0000
0100
0010
,
0002
0000
0000
0000
0000
0000
1003
0001
,
0100
0000
0100
0010
1000
0100
1000
0001
,
0010
0001
0100
0000
0001
1000
0100
1000
,
0010
0000
0010
0100
0001
0010
0001
0100
,
0100
0001
1000
0000
0001
0010
0001
0100
,
2000
0000
0000
0000
3100
0000
0000
0000
0010
0000
0000
1000
0000
0100
0000
0010
,
0002
0000
0000
0000
0103
0000
0000
0000
0010
0000
0000
1000
0000
0001
0000
0010
,
0100
0000
1000
0000
0010
0000
1000
0000
0100
0000
0000
1000
0000
0010
0000
1000
,
0200
0000
0010
0000
0001
0000
0310
0001
,
0100
0100
0010
1000
0100
1000
0001
0000
,
0100
0001
1000
0100
0100
1000
0010
0000
,
1000
0001
0010
0010
0001
0100
0010
0000
,
1000
0100
0010
0100
0100
1000
0001
0100
,
0002
0000
0000
0000
0203
0000
0000
0000
1300
0000
0000
0100
0000
0001
0000
1000
,
0020
0000
0000
0000
0032
0000
0000
0000
0013
0000
0000
1000
0000
0001
0000
1000
,
0100
1000
0010
1000
0100
0000
0010
0001
,
0100
0000
0001
0000
0010
0001
0100
0001
,
0010
0000
0000
0000
0001
0000
0000
1000
0000
0100
0000
0000
1000
0000
0000
0000
,
0010
0100
0001
1000
,
0100
0000
0000
0000
0010
0000
0000
0001
0000
0100
0000
0000
0010
0000
0000
0000
,
1000
0100
0010
0001
1000
0010
0100
0001
,
0020
0000
0030
0000
0011
0000
0001
0100
,
0010
0000
1000
0000
1010
0000
1000
0001
,
0200
0000
0300
0000
0101
0000
0001
1000
,
0100
1000
1100
0000
,
1000
0100
0010
0001
0100
0010
1000
0100
,
1000
0001
0010
0100
1000
0001
0100
0010
,
0010
1000
0001
0100
0001
0010
0001
0100
,
0010
1000
0100
1000
0010
0100
0010
0000
,
1000
0100
1000
0001
0010
0001
0100
0010
,
1000
0001
0010
0001
0100
0010
1000
0001
,
0001
0100
0010
1000
0100
0010
0001
0010
,
0200
2300
3020
0032
,
0013
0000
0000
0000
1000
0000
0001
0000
0100
0000
0000
0010
0000
0000
1000
0001
,
0000
0100
0000
0000
0001
0000
0000
0000
1001
0000
0000
0000
0001
0000
1000
0000
,
0010
0000
0000
0000
1000
0000
0001
0000
0010
0000
0000
0100
0000
0000
1000
0000
,
0010
0000
0000
0000
0000
0000
0000
0000
0000
0100
0000
0000
0000
0000
0000
0000
0000
0000
0001
0000
0000
0000
0000
0000
0100
0000
0000
0000
0000
0000
0010
0000
0000
0000
0000
0000
1000
0000
0000
0000
0100
0000
0000
0000
0010
0000
0000
0000
,
0002
0000
0000
0000
0103
0000
0001
0000
1000
0000
0000
0010
0000
0000
0100
0010
,
0000
1000
0000
0000
0100
0000
1000
0000
0001
0000
0000
0010
0001
0000
0100
0000
,
0001
0000
0000
0000
1000
0000
0000
0000
0001
0000
0000
0100
0000
0002
0000
2000
,
0000
0000
0000
0000
0000
0000
0000
0003
0000
0000
0000
0000
0000
0000
0000
0000
,
3010
0000
0000
0000
0100
0000
0000
0001
,
0000
0000
0000
0000
0000
0000
0000
0001
,
1000
0000
0000
0000
0100
0000
0000
0010
,
0000
0000
0000
0000
0000
0100
1000
0010
,
0001
0000
0000
0000
;
