#TITLE:SOMEBODY TO LOVE;
#SUBTITLE:;
#ARTIST:BOOGIE PIMPS;
#TITLETRANSLIT:;
#SUBTITLETRANSLIT:;
#ARTISTTRANSLIT:;
#GENRE:;
#CREDIT:;
#BANNER:somebodytolove.png;
#BACKGROUND:somebodytolove-bg.png;
#LYRICSPATH:;
#CDTITLE:!auraesimfilesmix2.png;
#MUSIC:somebodytolove.mp3;
#OFFSET:-0.001;
#SAMPLESTART:63.475;
#SAMPLELENGTH:18.400;
#SELECTABLE:YES;
#DISPLAYBPM:130.000;
#BPMS:0.000=130.465
;
#STOPS:
;
#BGCHANGES:0.000=somebodytolove.avi=1.000=1=0=0=StretchNoLoop==CrossFade==,
253.000=somebodytolove-bg.png=1.000=1=0=1===CrossFade==,
99999=-nosongbg-=1.000=0=0=0 // don't automatically add -songbackground-
;
#KEYSOUNDS:;
#ATTACKS:;

//---------------dance-single - aurae----------------
#NOTES:
     dance-single:
     aurae:
     Easy:
     1:
     0.108,0.106,0.000,0.000,0.000,88.000,0.000,0.000,0.000,0.000,0.000,0.108,0.106,0.000,0.000,0.000,88.000,0.000,0.000,0.000,0.000,0.000:
0000
0000
0000
0000
,
0000
0000
0000
0000
,
0000
0000
0000
0000
,
0000
0000
0000
0000
,
0001
0000
0000
0000
,
0001
0000
0000
0000
,
1000
0000
0000
0000
,
1000
0000
0000
0000
,
0100
0000
0100
0000
,
0100
0000
0100
0000
,
0100
0000
0000
0000
,
0010
0000
0000
0000
,
0001
0000
0000
0000
,
1000
0000
0000
0000
,
0001
0000
0001
0000
,
1000
0000
0100
0000
,
1000
0000
0000
0000
,
0010
0000
0100
0000
,
0010
0000
0000
0000
,
0100
0000
0001
0000
,
0100
0000
0001
0000
,
1000
0000
0001
0000
,
1000
0000
0000
0000
,
0010
0000
0010
0000
,
0010
0000
0000
0000
,
0100
0000
0100
0000
,
0100
0000
0000
0000
,
0001
0000
0001
0000
,
0001
0000
0000
0000
,
1000
0000
1000
0000
,
1000
0000
0000
0000
,
0100
0000
0000
0000
,
1000
0000
0000
0000
,
0001
0000
0000
0000
,
0100
0000
0000
0000
,
0010
0000
0010
0000
,
0010
0000
0000
0000
,
1000
0000
1000
0000
,
0001
0000
0001
0000
,
1000
0000
0000
0000
,
0010
0000
0100
0000
,
0010
0000
1000
0000
,
1000
0000
0000
0000
,
0001
0000
0001
0000
,
0100
0000
0000
0000
,
0010
0000
1000
0000
,
0100
0000
1000
0000
,
0001
0000
0000
0000
,
0001
0000
0000
0000
,
1000
0000
0000
0000
,
1000
0000
0000
0000
,
0010
0000
0100
0000
,
0010
0000
1000
0000
,
0001
0000
0100
0000
,
0100
0000
0000
0000
,
0001
0000
0010
0000
,
0001
0000
1000
0000
,
0010
0000
1000
0000
,
0100
0000
0000
0000
,
1000
0000
1000
0000
,
1000
0000
1000
0000
,
0001
0000
0001
0000
,
0100
0000
0000
0000
;

//---------------dance-single - aurae----------------
#NOTES:
     dance-single:
     aurae:
     Medium:
     5:
     0.336,0.323,0.034,0.060,0.000,264.000,4.000,7.000,0.000,0.000,0.000,0.336,0.323,0.034,0.060,0.000,264.000,4.000,7.000,0.000,0.000,0.000:
0000
0000
0000
0000
,
0000
0000
0000
0000
,
0000
0000
0000
0000
,
0000
0000
0000
0000
,
0010
0001
1000
0001
,
0010
0000
0001
0000
0100
0100
0100
0000
,
0010
1000
0100
1000
,
0010
0100
0001
1000
,
0100
1000
0010
0010
,
0100
0000
0001
0000
0010
0000
0001
0001
,
0001
0000
0000
0000
,
1000
0000
0000
0001
0000
0100
0000
0001
,
1000
0000
0000
0001
0000
0010
0000
0001
,
0100
0000
0000
0010
0000
0000
1000
0000
,
0100
0010
0001
0100
,
0010
0000
1000
0000
0010
0000
1000
0010
,
1000
0000
0001
0000
0100
0000
0001
0100
,
0001
0000
0010
0000
0100
0000
1000
0100
,
0010
0000
0001
0000
0100
0000
0010
1000
,
0100
0000
1000
0001
1000
0000
0001
0000
,
0100
0000
0001
0100
0001
0000
1000
0000
,
0010
0000
0100
0010
0100
0010
0100
0000
,
0010
0100
0010
0100
0020
0000
0030
0000
,
2000
0000
0001
0100
,
3100
0000
0000
0000
0001
0010
0001
0000
,
0200
0000
0001
1000
,
1300
1000
0100
0001
,
0010
0001
0010
0000
0001
0000
1000
0000
,
1000
0000
0010
1000
0010
0000
0100
0000
,
0100
0000
0001
1000
0001
0000
1000
0000
,
2002
3000
0003
0110
,
1001
0000
0001
0000
0010
0001
0100
0000
,
0010
0000
1000
0000
0100
1000
0010
0000
,
0100
0000
0001
0000
1000
0001
1000
0000
,
0001
0100
0010
0010
,
1000
0000
0100
0000
1000
0001
1000
0000
,
0100
0000
1000
0000
0010
0100
0010
0000
,
1000
0000
0001
0000
0010
0001
0010
0000
,
0100
0100
0010
0001
,
1000
0000
0001
0000
1000
0001
1000
0001
,
1000
0000
0001
0000
0100
0010
0100
0010
,
0100
0000
0010
0000
1000
0010
1000
0010
,
1000
0001
0200
0300
,
0001
0000
1000
0000
0100
1000
0100
1000
,
0100
0000
0010
0000
0001
0100
0001
0000
,
1000
0000
0001
1000
0001
0000
1000
0000
,
0100
0100
0100
0100
,
1001
0000
0000
0001
0000
0010
0001
0000
,
0100
0000
0100
0000
0001
1000
0001
0000
,
1000
0000
0000
0010
0000
1000
0010
0000
,
0010
0000
0100
0000
0001
1000
0100
0000
,
1000
0000
1000
0000
0010
1000
0010
0000
,
0100
0000
0001
0000
0010
0001
0010
0000
,
0001
0000
0001
0000
1000
0100
1000
0000
,
0010
0000
0100
0000
0001
0010
0001
0000
,
1000
0000
1000
0000
0100
1000
0100
0000
,
1000
0001
0100
0010
,
1000
0000
0010
0000
0010
0100
0001
0000
,
0100
0000
0001
0000
1000
0001
1000
0001
,
1000
0100
0010
0001
,
0100
0010
1000
0001
,
0010
0100
1000
0010
,
0200
0000
0000
0000
0000
0000
0000
0300
;

//---------------dance-single - aurae----------------
#NOTES:
     dance-single:
     aurae:
     Hard:
     7:
     0.400,0.403,0.103,0.128,0.000,300.000,12.000,15.000,0.000,0.000,0.000,0.400,0.403,0.103,0.128,0.000,300.000,12.000,15.000,0.000,0.000,0.000:
0000
0000
0000
0000
,
0000
0000
0000
0000
,
0000
0000
0000
0000
,
0000
0000
0000
0000
,
1000
0000
0010
0000
0010
0000
1000
0001
,
1000
0000
0001
0000
0001
0000
0100
0010
,
0100
0000
0010
0000
0010
0000
1000
0100
,
1000
0000
0100
0000
1000
0000
0001
0100
,
0001
0000
0100
0000
0010
0000
1000
0010
,
1000
0000
0100
0000
0010
0000
0001
0010
,
0001
0000
0000
0000
,
0001
0000
1000
0100
0000
1000
0000
0010
,
1000
0000
0100
0010
0000
0001
0000
0100
,
0010
0000
1000
0001
0000
0100
0001
0000
,
1000
0001
1000
0000
0001
0000
0001
0100
,
0100
0000
0010
1000
0100
1000
0010
1000
,
0100
0000
1000
0001
0100
0001
0000
1000
,
0001
0000
0010
0001
0100
0001
0010
0001
,
0100
0000
0010
1000
0100
1000
0010
0000
,
0100
0000
0001
1000
0000
0001
0000
1000
,
0100
0000
1000
0010
0000
0100
0000
0010
,
1000
0000
0001
0100
0000
0001
0100
0000
,
0001
1000
0100
0000
1000
0001
0010
0000
,
0001
0100
0000
0100
0001
0000
1000
0000
,
0100
0000
0100
0000
1000
0010
1000
0000
,
0010
1000
0000
1000
0001
0000
0100
0000
,
0001
0100
0001
0000
1000
0000
1000
0000
,
0010
1000
0000
1000
0010
0000
0100
0000
,
0001
0000
0001
0000
0010
0000
0001
0100
,
0001
0100
1000
0100
,
1001
0000
0001
1000
,
0101
0000
0001
1000
0100
1000
0000
0101
,
0000
0001
1000
0000
1000
0010
0100
0000
,
0010
0000
1000
0100
0000
1000
0100
0000
,
1000
0000
0001
0000
0100
0001
1000
1000
,
0001
0000
0100
0010
1000
0001
0000
1100
,
0000
1000
0001
0000
0100
0000
0010
0000
,
1100
0000
1000
0100
0010
0001
0100
0000
,
0202
0000
0303
0100
,
0010
0000
1000
0000
0001
0100
0001
0000
,
1000
0000
0100
0000
1000
0010
1000
0010
,
0100
0000
0010
0000
1000
0100
1000
0000
,
0001
0000
0010
0000
0010
0001
0100
0001
,
0010
0000
0100
0000
1000
0000
0010
1000
,
0100
0000
1000
0000
0001
1000
0001
0200
,
0001
0010
1000
0310
,
0100
0001
1000
0001
0010
0000
0110
0000
,
1001
0000
0001
1000
0100
1000
0000
0101
,
0000
0001
1000
0000
0010
0000
1000
0100
,
0010
0000
0001
0100
0010
1000
0100
0000
,
1000
0000
0001
0000
1000
0001
1000
0000
,
0020
0000
0230
0000
0302
0000
1003
0001
,
0100
0000
0100
0000
0010
1000
0100
0000
,
2000
3200
0302
0203
,
0310
0001
0100
0000
0001
1000
0100
1000
,
0020
0032
0023
2030
,
3100
1000
0001
0010
0010
0000
0001
0000
,
0100
0001
0100
0000
0001
0000
1000
0000
,
0100
0000
1000
0000
0010
1000
0010
0010
,
0100
1001
0100
1001
,
0001
0100
0010
0000
1000
0100
0010
0000
,
0100
0000
1001
0000
0100
0001
0010
0001
,
2000
0000
0000
0000
0000
0000
0000
3000
;
