#TITLE:OH!;
#SUBTITLE:;
#ARTIST:BEARDYMAN FEAT. FOREIGN BEGGARS;
#TITLETRANSLIT:;
#SUBTITLETRANSLIT:;
#ARTISTTRANSLIT:;
#GENRE:;
#CREDIT:;
#BANNER:oh.png;
#BACKGROUND:oh-bg.png;
#LYRICSPATH:;
#CDTITLE:!auraesimfilesmix2.png;
#MUSIC:oh.mp3;
#OFFSET:-0.004;
#SAMPLESTART:67.195;
#SAMPLELENGTH:19.220;
#SELECTABLE:YES;
#DISPLAYBPM:200.000;
#BPMS:0.000=200.000
;
#STOPS:
;
#BGCHANGES:0.000=oh.avi=1.000=1=0=0=StretchNoLoop==CrossFade==,
386.000=oh-bg.png=1.000=1=0=1===CrossFade==,
99999=-nosongbg-=1.000=0=0=0 // don't automatically add -songbackground-
;
#KEYSOUNDS:;
#ATTACKS:;

//---------------dance-single - aurae----------------
#NOTES:
     dance-single:
     aurae:
     Easy:
     4:
     0.289,0.326,0.094,0.000,0.000,227.000,11.000,0.000,0.000,0.000,0.000,0.289,0.326,0.094,0.000,0.000,227.000,11.000,0.000,0.000,0.000,0.000:
0000
0000
0000
0000
,
0000
0000
0000
0000
,
0000
0000
0000
0000
,
0000
0000
0000
0000
,
0101
0000
0001
0000
,
1000
0000
0010
0000
,
1000
0000
0000
0000
,
0001
0000
0000
0000
,
1000
0000
0000
0100
0000
0000
0000
0000
,
1000
0000
0000
0001
0000
0000
0000
0000
,
0100
0000
0000
0001
0000
0000
0000
0000
,
0010
0000
0000
0001
0000
0000
0000
0000
,
1000
0000
0000
0010
0000
0000
0000
0000
,
0100
0000
0000
0010
0000
0000
0000
0000
,
1000
0000
0100
0000
,
0010
0000
0001
0000
,
1000
0000
0000
0001
0000
0000
0000
0000
,
0100
0000
0000
0001
0000
0000
0000
0000
,
1000
0000
0000
0010
0000
0000
0000
0000
,
0100
0000
0000
0001
0000
0000
0000
0000
,
1000
0000
1000
0000
,
1000
0000
1000
0000
,
0001
0000
0000
0000
,
0100
0000
0000
0000
,
0001
0100
0001
0000
,
0001
1000
0001
0000
,
1000
0010
0100
0000
,
0010
0000
0000
0000
,
1000
0100
1000
0000
,
0001
0100
0001
0000
,
1000
0000
0001
0000
,
0100
0000
0010
0000
,
1000
0100
1000
0000
,
0001
0010
0001
0000
,
0100
0000
0001
0000
,
1000
0001
1000
0000
,
0001
0100
0001
0000
,
1000
0010
1000
0000
,
0100
0000
0010
0000
,
0001
0000
1000
0000
,
0101
0000
0001
0000
,
0100
0000
0100
0000
,
1001
0000
1000
0000
,
0001
0000
0001
0000
,
0101
0000
0001
0000
,
1000
0000
0010
0000
,
1010
0000
1000
0000
,
0100
0000
0010
0000
,
0001
0000
0001
0100
,
0001
0000
1000
0010
,
1000
0000
0100
1000
,
0001
0000
0100
0001
,
0010
0000
0010
0001
,
1000
0000
1000
0100
,
1000
0000
1000
0000
,
1000
0000
0001
1000
,
1001
0000
0001
0100
,
0001
0001
0001
0000
,
1000
0010
0100
0000
,
0010
1000
0100
0000
,
1001
0000
0001
0010
,
0001
0001
0010
0000
,
0001
1000
0100
0000
,
1000
0001
0100
0000
,
0101
0000
0001
1000
,
1000
0010
0100
0000
,
0010
1000
0100
0000
,
1000
0001
0100
0000
,
0001
1000
0010
0010
,
0100
0010
1000
0000
,
0100
0000
1000
0000
,
0001
0000
0100
0000
,
0100
0000
0000
0001
0000
0000
0100
0000
,
0001
0000
1000
0000
,
0010
0000
0000
1000
0000
0000
0010
0000
,
1000
0000
0100
0000
,
0010
0000
0000
0001
0000
0000
0010
0000
,
0001
0000
0100
0000
,
0001
0000
0000
1000
0000
0000
0001
0000
,
1000
0000
0000
0000
,
0101
0000
0001
1000
,
0010
0010
1000
0100
,
1000
0000
0001
0000
,
0100
0000
0001
0000
,
1000
0000
0100
1000
,
0010
0010
0100
0010
,
1000
0000
0100
0000
,
0010
0000
0001
0000
,
1001
0000
1000
0100
,
1000
0000
0001
0000
,
0100
0000
0001
0000
,
0010
0000
0010
0000
,
0001
0001
0001
0000
,
1000
1000
1000
1000
,
0010
0000
1000
0000
,
0001
1000
0001
1000
,
1001
0000
0000
0000
;

//---------------dance-single - aurae----------------
#NOTES:
     dance-single:
     aurae:
     Medium:
     6:
     0.528,0.530,0.136,0.102,0.000,407.000,16.000,12.000,0.000,0.000,0.000,0.528,0.530,0.136,0.102,0.000,407.000,16.000,12.000,0.000,0.000,0.000:
0000
0000
0000
0000
,
0000
0000
0000
0000
,
0000
0000
0000
0000
,
0000
0000
0000
0000
,
1000
0000
0000
1000
0000
0000
0001
0000
,
0010
0000
0000
0010
0000
0000
0100
0000
,
0010
0000
0000
0000
,
0001
0000
0100
0000
,
0010
0000
0000
1000
0010
0000
1000
0000
,
0100
0000
0000
1000
0100
0000
0010
0000
,
0001
0100
0001
0000
,
1000
0010
1000
0000
,
0100
0000
0000
0010
0100
0000
1000
0000
,
0001
0000
0000
0100
0010
0000
1000
0000
,
0100
0010
0100
0000
,
0010
0001
1000
0001
,
0100
0000
0000
0010
1000
0000
0001
0000
,
0010
0000
0000
0100
1000
0000
0001
0000
,
0100
0001
1000
0000
,
0010
1000
0100
0000
,
1000
0001
0100
0001
,
0010
0100
1000
0010
,
0100
0000
0000
0000
,
0001
0000
0010
0001
,
0100
0000
0010
1000
0020
0000
0030
0000
,
1000
0000
0001
0100
0002
0000
0003
0000
,
0010
0000
0100
1000
0100
0000
0010
0000
,
0001
0100
1001
0110
,
1001
0000
0001
0100
0002
0000
0003
0000
,
1000
0000
0010
0100
0020
0000
0030
0000
,
1000
0000
1000
0100
0010
0000
0001
0000
,
0010
0000
0100
1000
0001
0000
0100
0000
,
0010
0000
1000
0001
1000
0000
0010
0000
,
0100
0000
0001
1000
0100
0000
1000
0000
,
0010
0000
1000
0001
0010
0000
0001
0000
,
0100
0010
1000
0000
0010
0100
0001
0100
,
0010
0000
1000
0100
1000
0000
0001
0000
,
0010
0000
0001
0100
0001
0000
0100
0000
,
0010
0000
0000
1000
0100
0000
0110
0000
,
0010
0000
0000
0001
0100
0000
1001
0000
,
0100
0001
1000
0100
1000
0000
0001
0010
,
0001
0000
0100
0010
1000
0100
1000
0000
,
0001
0000
0100
0000
0010
0000
1000
0100
,
0010
0100
1000
0000
0010
0000
1000
0000
,
0001
0010
0001
0100
0010
0000
1000
0100
,
1000
0000
0001
0100
0010
1000
0010
0000
,
0200
0000
0000
0320
0000
0000
2030
0000
,
3002
0000
0000
1000
0000
0000
0100
0000
,
1003
0000
0100
0010
0001
0000
0100
0000
,
0001
0000
1000
0010
0100
0000
0010
0000
,
1000
0001
0000
1000
0001
0000
1000
0001
,
0100
0000
0001
1000
0010
0000
0100
0000
,
0010
1000
0010
1000
0010
0000
0100
0001
,
0100
0001
0010
0100
,
1000
0010
1000
0010
1000
0000
0001
0100
,
0001
0100
0001
0000
0010
0100
1000
0000
,
1001
0000
0000
0001
0100
0000
0001
0000
,
1000
0000
0000
0010
1000
0000
0100
0000
,
0010
0001
0100
0001
0010
0000
0000
0000
,
0100
1000
0010
1000
0001
0000
0100
0000
,
1001
0000
0000
1000
0010
0000
0100
0000
,
0001
0000
0000
1000
0100
0000
0010
0000
,
0100
1000
0010
1000
0001
0000
0000
0000
,
0100
0001
0010
0001
1000
0000
0010
0000
,
0110
0000
0000
0100
0001
0000
1000
0000
,
0010
0000
0000
1000
0100
0000
0010
0000
,
0001
1000
0100
1000
0010
0000
0000
0000
,
0100
0010
1000
0001
0010
0000
0100
0000
,
0011
0000
0000
0001
1000
0000
0100
0000
,
1000
0000
0000
0010
0100
0000
0001
0000
,
1000
0000
0000
0100
0000
0000
0010
0000
,
0001
0000
0000
1000
0200
0000
0000
0000
,
0310
0000
0000
0100
1000
0000
1001
0000
,
0001
0000
0000
0100
0010
0000
1010
0000
,
1000
0000
0000
0001
0010
0000
0110
0000
,
0100
0000
0000
1000
0001
0000
0100
0000
,
0010
0000
0000
1000
0001
0000
0011
0000
,
0100
0000
0000
1000
0010
0000
0110
0000
,
0100
0000
0000
0001
1000
0000
0001
1000
,
0100
0000
0000
0000
,
1000
0000
0001
0100
0001
0000
1000
0000
,
0010
0000
0100
0001
0010
0000
0100
0000
,
1000
0000
0010
1000
0010
0000
0100
0000
,
0001
0000
1000
0010
0100
0000
0010
0000
,
0100
0000
0001
1000
0001
0000
0100
0000
,
0010
0000
1000
0001
0010
0000
0100
0000
,
1000
0010
0100
0001
0010
0000
0001
0000
,
1000
0100
1000
0010
0100
0010
1000
0000
,
1001
0000
0001
0010
0001
0000
0100
0000
,
0010
0000
1000
0100
1000
0000
0001
0000
,
0100
0001
1000
0100
1000
0000
0010
0000
,
1000
0100
0010
0001
0100
0010
1000
0000
,
0002
0003
0200
0300
,
0010
1000
0001
0100
,
1000
0100
0001
0010
,
1000
0100
0002
0003
,
0110
0000
0000
0000
;

//---------------dance-single - aurae----------------
#NOTES:
     dance-single:
     aurae:
     Hard:
     8:
     0.624,0.612,0.281,0.196,0.043,458.000,33.000,23.000,0.000,0.000,0.000,0.624,0.612,0.281,0.196,0.043,458.000,33.000,23.000,0.000,0.000,0.000:
0000
0000
0000
0000
,
0000
0000
0000
0000
,
0000
0000
0000
0000
,
0000
0000
0000
0000
,
1000
0000
0000
0100
0000
0000
1000
0000
,
0001
0000
0000
0100
0000
0000
0001
0010
,
0200
0000
0000
0300
0000
0000
0000
0000
,
2000
0000
0000
3000
0010
0100
0001
1000
,
0010
0000
0000
1010
0000
0000
1000
0001
,
0100
0000
0000
0001
0000
0000
0010
0000
,
0001
0000
0001
0100
0010
0000
1000
0000
,
1000
0000
0001
0100
0010
0000
0100
0000
,
0001
0000
0000
0101
0000
0000
0001
1000
,
0010
0000
0000
1000
0000
0000
0100
0000
,
0010
0001
0100
0001
,
1000
0000
0010
0000
0100
0000
0010
1000
,
0100
0000
0000
0110
0000
0000
0010
0001
,
0100
0000
0000
0001
0000
0000
1000
0000
,
0010
0000
1000
0001
0010
0000
0001
0000
,
1000
0000
1000
0001
0010
0000
0100
1000
,
0001
0001
1000
1000
,
0001
0000
1000
0000
0001
0000
0100
0010
,
2000
0000
0000
3000
0000
0000
0000
0000
,
0200
0000
0000
0300
0100
0000
0010
0001
,
0100
0000
0001
0100
0001
0000
0101
0000
,
0001
0000
1000
0100
1000
0000
1100
0000
,
1000
0010
0100
0010
1000
0000
0001
0100
,
0010
0000
0010
0000
1000
0001
1000
0000
,
0100
0000
0010
0001
0100
0000
0101
0000
,
0001
0000
1000
0010
0100
0000
0110
0000
,
0100
0001
1000
0001
1000
0000
0001
0010
,
0002
0000
0000
0203
0000
0000
0320
0000
,
1030
0000
0010
1000
0001
0000
1001
0000
,
0001
0000
0100
0010
1000
0000
1010
0000
,
1000
0100
0010
0001
0100
0000
0001
0000
,
1000
0001
1000
0000
0001
0010
0001
0000
,
0010
0000
0100
1000
0010
0000
1010
0000
,
1000
0000
0010
0100
0001
0000
0101
0000
,
0001
0100
0010
1000
0100
1000
0100
1000
,
0001
0100
0010
1000
0001
0010
0100
0000
,
1100
0000
1000
0100
0001
0000
0100
0000
,
1000
0000
0010
1000
0001
0010
0001
0000
,
0010
0000
0100
0010
0001
0000
0101
0000
,
0110
0000
0010
1000
0100
0000
1100
0000
,
1001
0000
0001
0010
0001
0000
1000
0000
,
0100
0000
1000
0000
0010
0100
0010
1000
,
0200
0000
0000
0320
0000
0000
0032
0000
,
2003
0000
0000
3002
0000
0000
0023
0000
,
0130
0000
1000
0000
0001
0000
0100
0001
,
0100
0000
0000
0101
0000
0000
1001
0000
,
1000
0000
0100
0010
0001
0000
0100
0000
,
0010
0000
0000
1010
0000
0000
1001
0000
,
0001
0100
0001
0100
0010
0000
1000
0100
,
1000
0000
0010
0000
0100
0001
0100
0001
,
0010
0001
1000
0001
,
0100
0010
1000
0100
,
0012
0000
1000
0000
0103
0001
0100
0010
,
1000
0000
0100
1000
0001
1000
0001
0000
,
0100
0000
0010
0100
0000
0100
0001
0000
,
1000
0000
0010
0100
0000
0100
0010
0000
,
2100
0000
0001
0000
3010
1000
0001
0010
,
0100
0000
1000
0010
0100
0010
1000
0000
,
0001
0000
0100
0001
0000
0001
1000
0000
,
0100
0000
1000
0010
0200
0000
0300
0000
,
0201
0000
1000
0000
0301
0100
0010
0100
,
0001
0000
1000
0010
1000
0001
0100
0000
,
0001
0010
0100
1000
0010
0000
0001
0000
,
0010
1000
0100
0010
0002
0000
0003
0000
,
1020
0000
0001
0000
1030
0010
1000
0100
,
0010
0000
0100
1000
0001
0100
0001
1000
,
0100
0000
0000
1000
0000
0000
0001
0000
,
0100
0000
0000
0000
0000
0000
0000
0000
0000
0001
0000
0000
1000
0000
0000
0000
0001
0000
0000
0000
1000
0000
0000
0000
,
0010
0000
1000
0100
0020
0000
0030
0000
,
0100
0000
1000
0001
0200
0000
0300
0000
,
0001
0000
0010
0100
1000
0100
0010
0000
,
0001
0100
0010
0000
0110
0000
1001
0000
,
1001
0000
1000
0001
0020
0000
0030
0000
,
0001
0000
1000
0010
0200
0000
0300
0000
,
0010
1000
0100
1000
0001
0000
0100
0001
,
0010
0000
0000
0000
0000
0000
0100
1000
,
0010
0000
0000
1010
0000
0000
1001
0000
,
0001
0000
0100
0010
1000
0000
0100
0000
,
1000
0001
1000
0001
0100
0000
0001
1000
,
0001
1000
0010
0100
0010
0000
0100
0000
,
0001
0000
0000
0011
0000
0000
1001
0000
,
1000
0100
1000
0000
0010
1000
0010
0000
,
0100
0000
0001
1000
0100
0000
1000
0000
,
0010
1000
0010
0000
0100
0000
0001
0010
,
0100
1000
0100
0000
1100
0000
1000
0100
,
1000
0000
0001
0000
0100
0001
0010
0000
,
0001
0000
0000
0100
0000
0000
0010
0000
0000
1000
0000
0000
0100
0000
0000
0000
1000
0000
0000
0000
0001
0000
0000
0000
,
0100
0000
0001
0100
0010
1000
0100
0010
,
0001
0000
1000
0000
0001
0000
1000
0000
0001
0000
1000
0000
0010
0000
0000
0000
0000
0000
0100
0000
0000
0010
0000
0000
,
1000
0000
0010
0000
0000
0100
0000
0000
0010
0000
0000
1000
0000
0000
0001
0000
,
0100
0001
0000
0100
0001
0000
1000
0000
,
0010
1000
0000
0001
0100
0000
0010
0000
,
1001
0000
0000
0000
;
