#TITLE:MADIBA;
#SUBTITLE:;
#ARTIST:SHAUN MARTIN;
#CREDIT:;
#MUSIC:madiba.mp3;
#SELECTABLE:YES;
#BACKGROUND:madiba-bg.png;
#BANNER:madiba.png;
#CDTITLE:!auraesimfilesmix2.png;
#DISPLAYBPM:210.000:210.000;
#OFFSET:-0.0438095;
#SAMPLESTART:28.783;
#SAMPLELENGTH:18.129;
#BPMS:0=185.815,1=192.745,2=185.815,3=196.407,4=195.84,5=184.159,6=190.964,7=189.216,8=186.404,9=204.167,10=182.533,11=185.815,12=208.281,13=183.102,14=186.904,15=195.205,16=191.586,18=194.559,19=182.533,20=193.365,21=197.066,22=198.962,23=177.823,24=196.963,25=190.964,26=188.1,27=192.745,28=193.379,29=194.559,31=196.407,32=181.494,33=198.291,34=200.896,35=185.815,36=190.346,37=195.84,38=191.586,39=194.559,40=196.407,41=193.379,42=197.066,43=194.559,44=200.896,45=180.935,46=195.84,47=200.212,48=180.935,49=185.815,50=197.066,51=205.483,52=182.533,53=200.896,56=189.813,57=198.291,58=194.017,59=194.559,60=206.961,61=183.102,62=202.852,63=202.867,64=206.929,65=200.896,66=188.1,67=200.881,68=175.243,69=197.066,70=192.745,71=202.17,72=187.5,74=213.318,75=187.5,76=200.896,78=189.827,79=203.554,80=197.066,81=193.379,82=202.867,83=196.407,84=198.291,85=200.896,86=200.881,87=200.896,89=195.205,90=202.867,91=204.862,92=187.5,93=207.66,94=200.896,95=192.745,96=191.586,97=206.913,98=200.896,99=209.021,100=194.559,101=205.594,102=187.5,103=216.336,104=200.896,105=187.5,106=200.896,107=201.569,108=194.559,109=202.867,110=200.896,111=204.878,112=200.896,113=195.19,114=192.745,115=200.896,118=216.336,119=188.1,120=206.929,121=184.738,122=200.896,123=187.5,124=198.947,125=200.212,126=180.935,127=212.564,128=197.066,129=195.205,130=197.066,131=211.156,132=190.964,133=197.051,134=200.896,138=200.881,139=200.896,140=211.917,141=186.404,142=209.005,143=189.216,144=211.156,145=187.5,147=192.213,148=206.929,149=185.815,150=211.139,151=193.379,152=198.291,153=192.745,154=200.896,155=198.962,156=189.216,157=199.623,158=204.878,160=198.962,161=197.066,162=200.212,163=200.881,164=183.102,165=213.335,166=197.066,167=184.159,168=202.17,169=200.896,170=186.391,171=202.17,172=200.896,176=191.573,177=206.929,178=190.964,179=191.586,180=211.156,181=187.5,182=200.896,183=200.881,184=200.896,186=203.57,187=202.852,188=195.205,189=197.066,190=202.867,191=195.205,192=210.401,193=184.725,194=204.878,195=206.929,196=204.878,197=195.205,198=209.75,199=193.379,200=197.066,201=187.5,202=217.832,203=204.167,204=204.862,205=193.379,206=200.896,207=211.156,208=203.554,209=200.896,211=216.353,212=186.391,213=215.56,214=195.205,215=194.559,216=200.896,217=201.569,218=194.017,219=210.401,220=202.17,221=191.586,222=197.066,223=196.407,224=215.543,225=193.379,226=223.367,227=189.827,228=200.881,229=200.896,230=207.66,231=202.867,232=198.947,233=209.021,234=200.896,235=187.5,236=216.353,237=200.881,238=200.896,239=203.57,240=204.878,241=204.862,242=195.205,243=209.021,244=192.213,245=198.947,246=204.878,247=197.066,248=195.205,249=217.832,250=196.407,251=209.005,252=200.896,254=203.57,255=198.291,256=201.569,257=200.212,258=195.855,259=198.962,260=195.84,261=212.564,262=202.17,263=195.205,264=212.564,265=200.896,266=211.9,267=197.066,268=189.827,269=205.594,270=202.17,271=209.75,272=203.57,273=213.335,274=195.19,275=195.205,276=209.021,277=204.878,278=200.896,279=213.318,280=201.585,281=202.867,282=204.878,283=195.84,284=197.066,285=217.832,286=195.84,287=217.832,288=209.021,289=187.5,290=200.896,291=206.3,292=208.281,293=202.867,294=209.021,295=207.643,296=203.57,297=213.335,298=203.554,299=201.585,300=212.564,301=207.66,302=209.005,303=200.896,304=216.353,305=191.586,306=222.503,307=207.66,308=198.962,309=209.75,310=198.962,311=200.896,312=217.028,313=211.156,314=186.983,315=213.335,316=218.642,317=186.404,318=216.336,319=216.353,320=216.336,321=195.205,322=206.929,323=200.896,325=200.881,326=216.353,327=200.896,329=211.139,330=202.867,331=200.896,332=203.57,333=200.881,334=216.353,335=195.205,336=192.199,337=218.642,338=204.878,339=195.205,340=217.028,341=216.336,342=187.5,343=200.896,346=216.336,347=200.896,350=200.881,351=216.353,352=200.896,354=200.881,355=216.353,357=200.881,358=216.353,359=192.745,360=209.767,361=201.477,362=195.84,363=191.586,364=185.32,365=173.497,366=165.499,367=160.373,368=155.546,369=152.446,370=139.771,371=121.387,372=111.345,373=104.933,374=96.1273,375=84.5827;
#STOPS:;

//---------------dance-single - ----------------
#NOTES:
     dance-single:
     :
     Easy:
     5:
     0.000,0.000,0.000,0.000,0.000:
0000
0000
0000
0000
,
0000
0000
0000
0000
,
0000
0000
0000
0000
,
0000
0000
0000
0000
,
0000
0000
0000
0000
,
0000
0000
0000
0000
,
0010
0000
0000
0001
0000
0000
0010
0000
,
0000
0001
0000
0000
1000
0000
0000
0100
,
0000
0000
1000
0000
0000
0100
0000
0000
,
1000
0000
0000
0010
0000
0000
1000
0000
,
0000
0010
0000
0000
0100
0000
0000
0001
,
0000
0000
0100
0000
0000
0001
0000
0000
,
1000
1000
1000
0001
,
0000
0100
0000
0000
0010
0000
0010
0000
,
0010
0000
1000
0000
0000
0001
0000
0000
,
0100
0000
0000
0001
0000
1000
0000
0001
,
0000
1000
0000
0001
2000
0000
0000
3000
,
0000
0000
0000
0000
,
0001
0000
0000
1000
0000
0000
0010
0000
,
0000
1000
0000
0000
0100
0000
0000
0000
,
1000
0010
0000
0010
,
1000
0000
0000
0010
0000
0000
0100
0000
,
0000
0001
0000
0000
0010
0000
0000
0000
,
0001
1000
0001
0001
,
1000
0000
0000
0010
0000
0000
0100
0000
,
0000
0010
0000
0000
1000
0000
0000
0000
,
0100
0000
0010
0000
0000
0100
0000
0000
,
1000
0000
0101
0001
,
0000
1100
1000
0000
,
0011
0001
0000
1010
,
1000
0000
0100
0010
,
0000
0001
0100
0000
,
0010
1000
0000
1000
,
0001
0000
0000
0100
0000
0000
0010
0000
,
0000
1000
0000
0000
0001
0000
0000
1000
,
0000
0010
0000
0010
,
1000
0000
0100
1000
,
0001
0001
0001
0000
,
0010
0001
0000
0000
,
0100
0000
0010
0100
,
0010
0010
1000
0000
,
1000
0001
0000
0000
,
0010
0000
0001
0100
,
0010
0100
0001
0000
,
0001
1000
0000
0000
,
0100
0000
0010
0001
,
0010
0100
1000
0000
,
1000
0010
0000
0000
,
1001
0000
0000
1001
0000
0000
1001
0000
,
0000
0000
0000
0000
0110
0000
0000
0110
,
0000
0110
0000
0000
,
0011
0000
0000
0011
0000
0000
0011
0000
,
0000
0000
0000
0000
1010
0000
0000
1010
,
0000
1010
0000
0000
,
1001
0000
0000
0110
0000
0000
1001
0000
,
0000
0000
0000
0000
0110
0000
0000
1001
,
0000
0110
0000
0000
,
1100
0000
0000
0101
0000
0000
1100
0000
,
0000
0000
0000
0000
1010
0000
0000
0011
,
0000
1010
0000
0000
,
1000
0010
0010
1000
,
0010
0010
1000
0010
,
0010
1000
0000
0000
,
0001
0010
0010
0001
,
0010
0010
0001
0010
,
0010
0001
0000
0000
,
0100
0001
0001
1000
,
0001
0001
0100
0001
,
0001
0010
0000
0000
,
0001
1000
1000
0010
,
1000
1000
0100
1000
,
1000
0001
1000
0001
,
1000
0000
0000
0010
0000
0000
1000
0000
,
0000
0100
0000
0000
0010
0000
0000
0000
,
0001
0100
0100
0001
,
1000
0000
0000
0010
0000
0000
0100
0000
,
0000
0001
0000
0000
0010
0000
0000
0000
,
0100
1000
0010
1000
,
0100
0000
0000
1000
0000
0000
0001
0000
,
0000
0010
0000
0000
0001
0000
0000
0000
,
0001
0000
1000
0000
0000
0001
0000
1000
,
0001
0000
0101
0100
,
0000
0110
0010
0000
,
1010
1000
0000
0100
,
0010
0100
1000
0001
,
0000
0100
0010
1000
,
0100
0010
0000
0001
,
0100
0000
0000
0001
0000
0000
0010
0000
,
0000
0001
0000
0000
1000
0000
0000
0110
,
0000
0000
1001
0000
0000
0110
0000
0000
,
1001
0000
0000
0000
,
0000
0000
0000
0000
,
0000
0000
0000
0000
,
0000
0000
0000
0000
,
0000
0000
0000
0000
;

//---------------dance-single - ----------------
#NOTES:
     dance-single:
     :
     Medium:
     7:
     0.000,0.000,0.000,0.000,0.000:
0000
0000
0000
0000
,
0000
0000
0000
0000
,
0000
0000
0000
0000
,
0000
0000
0000
0000
,
0000
0000
0000
0000
,
0000
0000
0000
0000
,
1000
0000
0001
0010
0000
0010
0001
0000
,
1000
0010
0000
1000
0100
0000
0100
0010
,
0000
0001
0100
0000
0100
0001
0100
0000
,
0010
0000
1000
0010
0000
0010
1000
0000
,
0100
1000
0000
0010
0100
0000
0100
0001
,
0010
0000
0001
1000
0000
0001
1000
0010
,
1000
0010
1000
0010
0100
0000
0010
0000
,
0000
1100
0000
0000
0100
0010
0001
0010
,
0001
0000
0100
0000
0000
1010
0000
0000
,
1000
0001
0000
0100
0000
0010
0000
1000
,
0000
0100
0000
0010
0001
0000
0010
0100
,
0000
0000
0000
0000
,
0100
0000
0010
0001
0100
0000
0100
0000
,
0010
1000
0010
0000
1000
0000
0100
0000
,
1000
0101
0000
0101
,
0100
0000
0010
1000
0100
0000
0100
0000
,
0010
0001
0010
0000
0100
0000
0010
0000
,
1000
1001
1001
0110
,
1001
0000
0001
0010
0100
0000
0100
0000
,
0010
1000
0010
0000
1000
0000
0100
0000
,
0010
0000
0001
0100
0000
0001
0000
1000
,
0010
0010
1000
0100
,
0100
1000
0001
0001
,
0100
0010
0000
1010
,
1000
0000
1001
0001
,
0000
0101
0100
0000
,
0110
0010
0000
1010
,
1000
0000
0000
0100
0000
0010
0001
0000
,
0010
0000
0100
0000
1000
0000
0000
0010
,
0000
0100
0001
0000
0100
0000
0010
0000
,
1000
0001
0000
1000
0001
0000
1000
0000
,
0010
0000
0001
0000
0010
0100
0000
0010
,
0100
0001
0000
0000
,
1000
0100
0000
1000
0100
0000
1000
0000
,
0100
0000
0010
0000
0001
0100
0000
0001
,
1000
0100
0000
0000
,
0010
0001
0000
0010
0100
0000
0010
0000
,
0001
0000
1000
0000
0010
0100
0000
0001
,
0100
0010
0000
0000
,
1000
0001
0000
0100
0010
0000
1000
0000
,
0100
0000
0010
0000
0001
0100
0000
0010
,
1000
0200
0000
0300
,
0100
1000
0100
1000
0100
0000
1000
0000
,
0001
0000
0010
0000
0001
0100
0001
0100
,
0001
0100
1001
0010
,
0001
0010
0001
0010
0001
0000
0100
0000
,
0010
0000
1000
0000
0010
0100
0010
0100
,
0010
1000
0110
0001
,
0100
0001
1000
0001
0100
0000
0010
0000
,
0010
0000
1010
0000
1000
0100
0010
0100
,
1000
0000
0110
0000
0000
1001
0000
0000
,
0001
1000
0001
1000
0001
0000
0100
0000
,
0010
0000
1000
0000
0100
0010
0001
0010
,
0100
0010
0000
0000
,
0001
0000
0001
0100
0000
0100
0010
0000
,
0010
1000
0100
1000
0010
0000
0010
0100
,
0000
0100
0001
0010
0001
0000
1100
0000
,
1000
0000
1000
0010
0000
0010
0100
0000
,
0100
0010
1000
0010
0100
0000
0100
0001
,
0000
0001
0010
0001
0100
0000
1001
0000
,
0010
0000
0010
0001
0000
0001
1000
0000
,
1000
0100
1000
0010
0100
0000
0100
0010
,
0000
0010
1000
0000
0100
0000
0010
0000
,
0001
0000
1000
0100
0000
0001
0100
0000
,
0010
1000
0000
0100
0010
0000
0001
0010
,
0100
1001
0110
1001
,
0110
0000
0000
0100
0000
0100
0001
0000
,
0010
0001
0100
0000
0010
1000
0001
1000
,
0010
1000
0100
0000
0000
0100
0010
0000
,
0001
0000
0000
1000
0000
1000
0100
0000
,
1000
0010
1000
0000
0100
0010
0001
0100
,
0010
1000
0100
0000
1100
0000
1010
0000
,
1001
0000
0000
0010
0000
0010
0001
0000
,
0100
0010
1000
0000
0100
0010
0001
0000
,
0100
0000
0010
1000
0000
0010
0000
0100
,
0002
0000
1000
0100
,
0000
1003
0000
0000
0010
0000
1000
0100
,
1000
0100
0010
0001
,
0100
0000
0001
1000
0100
0000
1000
0000
,
0001
0010
0100
0000
0010
0000
0100
0010
,
0001
0000
0100
0000
0010
1000
0100
0000
,
0010
0001
1000
0010
1000
0001
0010
0001
,
1000
0010
1000
0001
0100
0000
0101
0000
,
1001
1100
1001
0110
,
1001
0000
0000
0000
,
0000
0000
0000
0000
,
0000
0000
0000
0000
,
0000
0000
0000
0000
,
0000
0000
0000
0000
;

//---------------dance-single - ----------------
#NOTES:
     dance-single:
     :
     Hard:
     10:
     0.000,0.000,0.000,0.000,0.000:
0000
0000
0000
0000
,
0000
0000
0000
0000
,
0000
0000
0000
0000
,
0000
0000
0000
0000
,
0000
0000
0000
0000
0000
0100
0001
0010
,
0001
0100
0010
1000
0100
0010
0001
0000
,
1100
0000
1000
0010
0100
0100
0001
0000
,
0001
0100
0000
0100
0010
0000
0010
1000
,
0100
1000
0001
0000
0001
0010
0000
0010
,
0100
0000
1000
0010
0001
1000
0100
0001
,
0010
0001
0001
0100
0010
0000
0010
1000
,
0100
1000
0000
1100
0000
1001
0000
0001
,
0010
0000
0010
0000
0001
0000
0100
0000
0101
0000
0000
0000
0100
0010
0100
0000
,
0000
0000
0010
1000
0010
0000
0000
0000
1000
0000
1000
0000
0100
0000
1000
0000
,
1001
0000
0001
0100
0010
1000
0100
0010
,
0001
0100
0000
0101
0000
1100
0000
1010
,
0000
0011
0000
1001
1001
1000
0100
0020
,
0000
0230
1000
0010
,
0310
0000
0001
0010
0100
0000
0010
0001
,
0100
0100
0010
1000
0100
0000
1100
0000
,
1010
0210
1000
1300
,
0100
0010
1000
0100
0001
0100
1000
0010
,
0000
0010
0000
1000
0100
0000
0010
0000
,
0011
0001
0110
1100
,
1001
0000
0100
0010
0100
0010
1000
0000
,
0100
0010
0001
0010
0100
0000
0010
0000
,
0001
0000
0100
0010
0000
1010
0000
1000
,
0200
0000
0010
0000
0301
0100
1000
0010
,
0001
0010
1000
0100
0020
0000
0100
0000
,
0130
0020
0001
0031
,
0100
0010
1000
0000
1010
0000
0010
0100
,
0001
0000
0101
0000
0001
1000
0100
0000
,
1100
0000
0100
0010
0001
0000
0011
0000
,
1002
0000
0000
0100
0000
0103
0001
0000
,
1000
0000
0010
1000
0100
0010
0010
0000
,
0001
0100
0010
1000
0100
1000
0010
0000
,
1010
1010
0000
1001
1001
0000
0101
0000
,
1001
0000
1100
0000
1010
1010
0000
1001
,
1001
0012
0023
0230
,
1300
1100
0000
1001
1001
0000
0011
0000
,
0110
0000
1100
0000
1010
1010
0000
0101
,
0101
2002
0003
3000
,
0001
0001
0100
0001
0001
1000
0020
0000
,
2030
0000
3200
0000
0310
0010
0001
0100
,
0100
0220
0300
1030
,
0010
0010
1000
0100
0100
0010
0001
0000
,
0101
0000
1100
0000
1000
1000
0010
0100
,
0100
0001
0020
0000
0000
0000
0030
0000
,
0010
0000
0001
0010
0001
0100
0010
0000
,
1000
0000
0010
1000
0100
0010
0100
1000
,
0001
0202
0300
1003
,
0010
0000
1000
0001
0100
0001
0010
0000
,
0100
1000
0010
1000
0001
0010
0100
1000
,
0010
1010
1001
0101
,
1000
0001
0100
0010
1000
0100
1000
0000
,
0001
0000
0100
0001
1000
0001
0010
0100
,
1000
1010
1001
0011
,
0010
0100
1000
0010
0100
0100
0001
0000
,
1000
0001
0010
0010
0001
0100
0010
0100
,
0001
2200
0000
0300
,
3001
0000
0100
0010
0010
0000
1000
0010
,
0100
0001
1000
0100
0020
0000
0001
0000
,
0100
0000
0100
0000
0001
0000
1030
0010
,
0001
0100
0010
1000
0001
0010
0001
1000
,
0010
1000
0100
1000
0010
0000
1000
0001
,
0000
0001
0100
0000
0100
0010
1000
1100
,
0000
0011
0000
1010
0000
0101
0101
0000
,
0001
0100
0010
1000
0100
0000
1100
0000
,
1001
0000
0011
0000
0001
0100
1000
0100
,
0001
0010
0100
1000
0010
0100
0000
0100
,
0010
0001
0010
1000
0100
1000
0001
0010
,
0001
0100
0020
0000
1000
0000
0130
0000
,
0101
0000
0001
1000
0010
0000
0010
0000
,
1000
0100
0010
0100
1000
0000
0001
0010
,
0001
0000
0010
0000
0100
1000
0020
0000
,
1030
0000
0100
0010
0001
0000
0011
0000
,
0001
0100
0010
0000
1010
0000
1001
0000
,
1010
0210
0001
0310
,
0101
0000
0001
0100
0010
0000
1001
0000
,
1000
0100
0010
0000
0001
0010
0001
0100
,
0010
0000
1000
0010
0000
1010
0000
0010
,
0200
0001
0001
0010
,
0001
0000
0301
0000
0100
0010
1000
0001
,
0100
0010
0020
0000
1000
0000
0001
0000
,
2030
3100
1100
0020
,
0031
0011
0200
0310
,
1010
2000
3001
0011
,
0101
0000
0001
0100
0010
1000
0001
0100
,
0010
1000
0100
1000
0001
0010
0001
0100
,
0010
1000
0100
1000
0010
0100
0010
0000
,
2002
0000
0000
0000
,
0000
0000
3003
0000
,
0000
0000
0000
0000
,
0000
0000
0000
0000
,
0000
0000
0000
0000
;
