#TITLE:LET ME KNOW;
#SUBTITLE:;
#ARTIST:Róisín Murphy;
#CREDIT:;
#MUSIC:letmeknow.mp3;
#SELECTABLE:YES;
#BACKGROUND:letmeknow-bg.png;
#BANNER:letmeknow.png;
#CDTITLE:!auraesimfilesmix2.png;
#OFFSET:-0.0364626;
#SAMPLESTART:48.032;
#SAMPLELENGTH:24.005;
#BPMS:0=120;
#STOPS:;

//---------------dance-single - ----------------
#NOTES:
     dance-single:
     :
     Easy:
     3:
     0.000,0.000,0.000,0.000,0.000:
0000
0000
0000
0000
,
0000
0000
0000
0000
,
0000
0000
0000
0000
,
0000
0000
0000
0000
,
0010
1000
1000
0000
,
0010
0001
0001
0000
,
1000
0100
0100
0000
,
1000
0001
0001
1000
,
1000
0000
0010
0000
,
0100
0001
0001
0000
,
1000
0000
0010
0000
,
1000
0100
0100
0000
,
1000
0000
0001
0000
,
0010
0001
0100
0100
,
0010
0000
1000
0000
,
0001
0100
0010
0000
,
1000
0000
0010
0000
,
0100
0010
0010
0000
,
1000
0000
0001
0000
,
0100
0010
1000
1000
,
0001
0000
0100
0000
,
0010
1000
1000
0100
,
0100
0000
0010
0000
,
0001
0001
0001
1000
,
0100
0000
1000
0000
,
0010
0010
1000
1000
,
0100
0000
1000
0000
,
0001
0001
0100
0100
,
0010
0000
1000
0000
,
0001
0001
1000
1000
,
0100
0000
0010
0000
,
0001
0001
0100
0100
,
0002
0000
0000
0003
,
1000
1000
0010
0010
,
0100
0000
0001
0000
,
0010
0000
0001
1000
,
0200
0000
0000
0000
0000
0000
0000
0000
0000
0000
0000
0000
0000
0000
0000
0000
0000
0000
0000
0000
0000
0000
0000
0000
0000
0000
0000
0000
0000
0000
0000
0000
0000
0000
0000
0000
0000
0000
0000
0000
0000
0000
0000
0000
0000
0000
0000
0000
0000
0000
0000
0000
0000
0000
0000
0000
0000
0000
0000
0000
0000
0000
0000
0000
0000
0000
0000
0000
0000
0000
0000
0000
0000
0000
0000
0000
0000
0000
0000
0000
0000
0000
0000
0000
0000
0000
0000
0000
0000
0000
0000
0000
0000
0000
0000
0000
0000
0000
0000
0000
0000
0000
0000
0000
0000
0000
0000
0000
0000
0000
0000
0000
0000
0000
0000
0000
0000
0000
0000
0000
0000
0000
0000
0000
0000
0000
0000
0000
0000
0000
0000
0000
0000
0000
0000
0000
0000
0000
0000
0000
0000
0000
0000
0000
0000
0300
0000
0000
0000
0000
0000
0000
0000
0000
0000
0000
0000
0000
0000
0000
0000
0000
0000
0000
0000
0000
0000
0000
0000
0000
0000
0000
0000
0000
0000
0000
0000
0000
0000
0000
0000
0000
0000
0000
0000
0000
0000
0000
0000
0000
0000
0000
,
1000
0000
0010
0000
,
0100
0100
0100
0000
,
0001
1000
0001
1000
,
0010
0010
0010
0000
,
0100
0001
1000
0001
,
1000
1000
1000
0000
,
0010
0100
0001
0000
,
1000
0000
0001
0000
,
0010
0010
0001
0001
,
1000
0000
0100
0000
,
1000
1000
0010
0010
,
0100
0000
0001
0000
,
1000
1000
0001
0001
,
0100
0000
0010
0000
,
1000
0000
0100
0100
,
0010
0000
0001
0000
,
1000
1000
0001
0000
,
0100
0000
0001
0000
,
1000
1000
0001
0001
,
1000
0000
0000
0000
,
0000
0000
0000
0000
,
0000
0000
0000
0000
,
0000
0000
0000
0000
;

//---------------dance-single - ----------------
#NOTES:
     dance-single:
     :
     Medium:
     5:
     0.000,0.000,0.000,0.000,0.000:
0000
0000
0000
0000
,
0000
0000
0000
0000
,
0000
0000
0000
0000
,
0000
0000
0000
0000
,
0100
0010
0100
0000
0010
0000
1000
0000
,
0001
1000
0001
0000
0010
0000
0010
0000
,
0100
1000
0100
0000
1000
0000
0010
1000
,
0001
0100
1000
0010
,
0001
0100
0001
1000
,
0010
0100
0010
0100
0010
0000
1000
0000
,
0001
0000
0010
0000
0001
1000
0100
0000
,
1000
0010
0001
0100
,
1000
0010
1000
0000
0100
1000
0001
1000
,
0010
0000
1000
0000
0001
0010
0001
0100
,
0010
0100
0001
1000
,
0010
0001
0100
1000
,
0010
0100
0100
0000
0010
0000
1000
0001
,
1000
0000
0001
0000
0010
0001
0010
0001
,
0010
0000
0001
0000
0100
0001
0100
0000
,
0010
1000
0100
0001
,
0010
0000
0001
0000
1000
0001
1000
0001
,
1000
0000
0010
0000
0100
0010
0100
0000
,
0001
0000
1000
0000
0001
0000
1000
0010
,
0100
0100
0200
0300
,
0001
0100
0001
0100
0001
0000
1000
0100
,
0000
1000
0100
0000
0010
0001
0100
0000
,
0010
1000
0010
1000
0010
0000
0100
0001
,
0000
0100
0001
0000
1000
0001
1000
0000
,
0010
0100
0010
0100
0010
0000
1000
0010
,
0000
1000
0010
0000
0100
0001
0100
0000
,
0001
1000
0001
1000
0001
0000
1000
0010
,
0000
1000
0010
0000
0100
0000
1001
0000
,
0100
0001
0100
0010
,
1000
0000
0001
0010
0001
0000
0100
0000
,
0010
1000
0001
0100
,
0010
1000
0100
1000
0001
0000
0010
0000
,
0001
0000
0100
0000
0100
0000
0001
1000
,
0001
1000
0010
0010
,
0100
0010
1000
0000
0100
0010
0001
0000
,
0100
0010
1000
0100
0010
0001
0100
0010
,
1000
0000
0010
0000
0100
0000
0001
1000
,
0000
0001
0100
0000
0001
0010
0001
0000
,
1000
0000
0010
0000
0100
0000
0010
1000
,
0100
1000
0100
0000
1000
0001
1000
0000
,
0010
0100
0001
0010
0010
0000
0001
0000
,
1000
0100
1000
0000
0010
0100
0010
0000
,
0100
0000
0001
1000
0001
0000
1000
0000
,
0010
0100
0001
0000
0010
0100
1000
0000
,
0100
1010
0100
0011
,
1000
0001
1000
0000
0001
1000
0001
0000
,
0100
0000
0010
1000
0100
0000
1000
0001
,
0000
1000
0001
0000
0100
0010
0100
0000
,
0001
0000
1000
0010
1000
0000
0001
0010
,
0000
0001
0100
0000
0001
1000
0100
1000
,
0010
0000
0100
0000
0010
1000
0100
0000
,
1100
0001
0110
1000
,
1001
0000
0000
0000
,
0000
0000
0000
0000
,
0000
0000
0000
0000
,
0000
0000
0000
0000
;

//---------------dance-single - ----------------
#NOTES:
     dance-single:
     :
     Hard:
     7:
     0.000,0.000,0.000,0.000,0.000:
0000
0000
0000
0000
,
0000
0000
0000
0000
,
0000
0000
0000
0000
,
0000
0000
0000
0000
,
0001
1000
0010
1000
0100
0000
0100
1000
,
1000
0000
0001
0000
0010
0000
0001
0100
,
0001
0000
0010
0000
0001
0100
0010
0000
,
1010
1100
0101
0011
,
0001
0100
0010
0100
0010
0000
1000
0000
,
0010
1000
1000
0001
0001
0000
0100
0000
,
0010
0000
1100
0000
0010
0000
0001
0100
,
0010
0000
0100
0000
0001
0000
1000
0100
,
1000
0001
1000
0001
1000
0000
0010
0000
,
0100
0001
0010
0000
0001
0010
0100
1000
,
0100
0000
1000
0000
0001
0000
0100
0010
,
1000
0100
0001
0010
,
1000
0000
1100
0000
1000
0010
1000
0000
,
0001
0000
0100
0001
0010
0001
0100
0000
,
0010
0100
0010
0000
1000
0000
0001
0010
,
0001
0000
0100
0000
0010
0000
1000
0010
,
1000
0000
0100
0000
1000
0001
0010
0000
,
0001
0000
0100
0001
0100
0001
0100
0000
,
0001
0000
1000
0000
0010
0000
0010
1000
,
0100
0100
0100
0100
,
1000
0000
0100
0000
0100
0000
1000
0000
1000
0000
0001
0000
0100
0000
0000
0010
,
0000
0000
1000
0000
0100
0000
0000
1000
0000
0000
0010
0000
0010
0000
0000
0000
,
0100
0000
0001
0000
0001
0000
0010
0000
0010
0000
0100
0000
1000
0000
0000
0010
,
0000
0000
0100
0000
0010
0000
0000
1000
0000
0000
0100
0000
0010
0000
0000
0000
,
0001
0000
0100
0000
0100
0000
0010
0000
0010
0000
1000
0000
0010
0000
0000
1000
,
0000
0000
0001
0000
0010
0000
0000
0001
0000
0000
1000
0000
0100
0000
0000
0000
,
0100
0000
1000
0000
1000
0000
0010
0000
0010
0000
0100
0000
0010
0000
0000
1000
,
0000
0001
0100
0010
1000
0000
0001
0000
,
0210
0001
1000
0301
,
0100
0010
1000
0010
0002
0000
0010
0000
,
0013
0000
0100
0001
1000
0000
0101
0000
,
1000
0000
0001
0100
0001
0000
1100
0000
,
0021
1000
0001
1030
,
0010
0000
0001
0100
0001
0000
0100
0000
,
0010
0010
0010
0000
1000
0100
1000
0000
,
0100
0100
0100
1000
0001
0000
1100
0000
,
1000
0000
0001
0000
0001
0000
0010
0000
0010
0000
0001
0000
0100
0000
0000
0100
,
0001
0000
0000
0001
1000
0000
0000
1000
0100
0000
0000
0100
1000
0000
0000
1000
,
0010
0000
0100
0000
0100
0000
0001
0000
0001
0000
0010
0000
0001
0000
0000
0001
,
0100
0000
0000
0100
0010
0000
0000
0010
1000
0000
0000
1000
0100
0000
0000
0100
,
1000
0000
0001
0000
0001
0000
0010
0000
0010
0000
0001
0000
0100
0000
0000
0100
,
0001
0000
0000
0001
0010
0000
0000
0010
0100
0000
0000
0100
1000
0000
0000
1000
,
0010
0000
0100
0000
0100
0000
0001
0000
0001
0000
1000
0000
0100
0000
0000
0100
,
1000
0000
0000
1000
0010
0000
0000
0010
0100
0000
0000
0100
0001
0000
0000
0000
,
1000
0000
0100
0000
1000
0000
0000
0000
0001
0000
0100
0000
0001
0000
0000
0010
,
0000
0000
0001
0000
0100
0000
0000
0010
0000
0000
1000
0000
0100
0000
0000
0000
,
1000
0000
0010
0000
0100
0000
0000
0000
0001
0000
1000
0000
0100
0000
0000
1000
,
0000
0000
0001
0000
0010
0000
0000
0001
0000
0000
0100
0000
0010
0000
0000
0000
,
1000
0000
0100
0000
1000
0000
0000
0000
0001
0000
0100
0000
0001
0000
0000
1000
,
0000
0000
0100
0000
1000
0000
0000
0010
0000
0000
0100
0000
0001
0000
0000
0000
,
0010
0000
0000
0000
0100
0000
1000
0000
0100
0000
1000
0000
0010
0000
0000
0100
,
0000
0000
0010
0000
1000
0000
0000
0100
0000
0000
1000
0000
0001
0000
0010
0000
,
0100
0000
0000
0000
,
0000
0000
0000
0000
,
0000
0000
0000
0000
,
0000
0000
0000
0000
;
