#TITLE:JEW-JU;
#SUBTITLE:;
#ARTIST:sampling masters aya;
#CREDIT:;
#MUSIC:jewju.mp3;
#SELECTABLE:YES;
#BACKGROUND:jewju-bg.png;
#BANNER:jewju.png;
#CDTITLE:!auraesimfilesmix2.png;
#OFFSET:-0.384762;
#SAMPLESTART:22.745;
#SAMPLELENGTH:22.730;
#BPMS:0=169;
#STOPS:;

//---------------dance-single - ----------------
#NOTES:
     dance-single:
     :
     Easy:
     5:
     0.000,0.000,0.000,0.000,0.000:
0000
0000
0000
0000
,
0000
0000
0000
0000
,
0000
0000
0000
0000
,
0000
0000
0000
0010
,
0010
0010
0000
0001
,
0001
0001
0000
1000
,
1000
1000
0001
0100
,
0000
0000
0000
0001
,
0010
0001
0100
0010
,
1000
0100
0100
1000
,
0001
0100
0100
0001
,
1000
0100
0000
1000
,
0010
0010
1000
0100
,
1000
0001
0001
0100
,
0010
1000
0100
0010
,
0001
0100
0000
0001
,
1000
0000
0001
1000
0000
0001
0000
1000
,
0000
0001
0000
0100
0001
0000
1000
0000
,
0100
1000
0010
0100
,
0100
0100
0000
0001
,
1000
0000
0010
0000
1000
0010
0000
0100
,
0000
0010
0000
1000
0100
0000
1000
0000
,
0001
0100
0001
1000
,
1000
1000
0000
0001
,
0010
0001
0010
0001
,
1000
0100
1000
0010
,
0010
0100
0010
1000
,
0001
0100
0001
1000
,
0100
0100
1000
0010
,
0100
0010
1000
0100
,
0010
0001
0100
0010
,
0100
0010
0000
1001
,
1001
0000
0110
0000
,
1001
0110
1001
0110
,
0000
0000
0000
0000
,
0000
0000
0001
1000
0001
1000
0001
0000
,
1001
0000
0110
0000
,
1001
0110
1001
0110
,
0000
0000
0000
0000
,
0000
0000
0100
0010
0100
0010
0100
0000
,
0001
1000
0100
1000
,
0010
0100
0100
0010
,
1000
0000
0100
0000
0100
0000
1000
0001
,
0000
0100
0000
0001
0000
1000
0010
0000
,
0100
0001
0010
0010
,
0001
1000
0100
1000
,
0010
0100
0010
1001
,
0000
1001
1001
0100
,
0001
0000
1000
0000
0010
0100
0000
0010
,
0000
1000
0000
0010
1000
0000
0100
0000
,
1000
0001
0010
0001
,
0001
0001
0000
0100
,
0010
0000
1000
0000
0001
0100
0000
0010
,
0000
0100
0000
0001
1000
0000
0100
0000
,
1000
0010
0100
0010
,
0010
0010
0000
1000
,
0100
1000
0100
1000
,
0001
0010
0001
0100
,
0001
0100
0010
0100
,
0100
0100
0000
0001
,
0100
0010
1000
0100
,
0010
0001
1000
0100
,
1000
0001
0100
0001
,
0001
0001
0001
0100
,
0010
1000
1000
0100
,
1000
0001
0001
0010
,
0001
0100
0100
0010
,
1000
0100
0000
1000
,
0001
0010
0010
0001
,
0100
0010
0010
0100
,
0001
1000
0001
0100
,
0100
0100
0100
1001
,
0000
0000
0000
0000
,
0000
0000
0000
0000
,
0000
0000
0000
0000
,
0000
0000
0000
0000
,
0000
0000
0000
0000
,
0000
0000
0000
0000
;

//---------------dance-single - ----------------
#NOTES:
     dance-single:
     :
     Medium:
     7:
     0.000,0.000,0.000,0.000,0.000:
0000
0000
0000
0000
,
0000
0000
0000
0000
,
0000
0000
0000
0000
,
0000
0000
0000
0001
,
0001
0010
0010
0001
,
1000
0100
0100
1000
,
1000
0010
0010
1000
,
0000
0000
0000
0001
,
0100
0000
0001
0010
0100
1000
0000
1000
,
0010
0100
0000
0100
0010
0000
1000
0000
,
0001
0000
1000
0010
0100
0001
1000
0100
,
1000
0100
0010
0000
0100
0000
0010
0000
,
0001
0000
0100
0010
1000
0001
0000
0001
,
1000
0010
0000
0010
0100
0000
0010
0000
,
1000
0000
0001
0100
0010
1000
0001
1000
,
0001
1000
0010
0000
0000
0000
0100
0000
,
0101
0000
0001
1000
0010
0100
0000
0100
,
0010
1000
0000
1000
0001
0010
0001
0000
,
0100
0000
0010
1000
0010
0000
1000
0100
,
1000
0100
0010
0000
0011
0000
1001
0000
,
1100
0000
1000
0100
0010
0100
0000
0010
,
0001
0100
0000
0100
0001
0100
0001
0000
,
0100
0000
0010
1000
0100
0000
0010
0001
,
0010
0001
0100
0000
0000
0000
0001
0000
,
0011
0000
0101
0000
1001
0000
1000
0100
,
1000
0000
0010
0100
0010
0100
0010
0000
,
1010
0000
0110
0000
1010
0000
1000
0100
,
0010
0100
0100
1000
,
1100
0000
1010
0000
1001
0000
0001
0010
,
0001
0000
0100
0010
0100
0010
0100
0000
,
0010
0000
1000
0001
1000
0000
0001
0100
,
0010
1000
0100
0000
1000
0000
0010
0100
,
0001
0000
0000
0010
0100
1000
0000
0010
,
0100
0001
0010
0100
1000
0010
0100
0000
,
0001
0001
0001
0001
,
0001
0000
0001
0010
0100
1000
0001
0100
,
0010
0000
0000
0100
0001
1000
0000
0100
,
0010
0001
1000
0010
0100
0001
0200
0000
,
1000
1000
0010
0001
,
0301
0101
1100
1001
,
0100
0000
1001
0000
0010
0000
0001
0010
,
0001
0000
0100
0010
0100
0010
0100
0000
,
0010
0000
1000
0000
0100
0000
1000
0010
,
0000
0010
0000
0100
0010
1000
0001
0000
,
0110
0000
1000
0000
0110
0000
0001
0100
,
0010
0000
0100
0001
0100
0001
1000
0000
,
0100
0000
0010
0000
0001
0100
0010
0000
,
0000
1001
0110
1001
,
0100
0000
0001
1000
0001
0100
0000
0100
,
0010
1000
0000
1000
0001
0000
0100
0000
,
0010
0000
1000
0010
1000
0000
0100
0010
,
0001
0010
0100
0000
0000
0000
0010
0000
,
0001
0000
1000
0001
1000
0010
0000
0010
,
0100
0001
0000
0001
1000
0000
0100
0000
,
1000
0000
0010
0100
0010
0000
1000
0001
,
1000
0001
1000
0000
0000
0000
0001
0000
,
0101
1000
1100
0001
,
0011
1000
1010
0001
,
0101
1000
1100
1001
,
0110
1001
0000
1000
,
1010
0001
0011
1000
,
1100
0001
0101
1000
,
1010
0001
0011
1001
,
0110
1001
1001
0110
,
0100
0000
0001
0100
0001
0000
1000
0000
,
1010
0000
0010
1000
0100
0000
0010
0000
,
0011
0000
0001
1000
0100
0000
1000
0001
,
1000
0001
0100
0000
0010
0000
1000
0000
,
1010
0000
0100
0010
0001
0010
0100
0000
,
1100
0000
1000
0001
0010
0000
0001
0000
,
0101
0000
0100
0010
1000
0100
0010
0000
,
0011
0000
0001
1000
0100
0000
1001
0000
,
0000
0000
0000
0000
,
0000
0000
0000
0000
,
0000
0000
0000
0000
,
0000
0000
0000
0000
,
0000
0000
0000
0000
,
0000
0000
0000
0000
;

//---------------dance-single - ----------------
#NOTES:
     dance-single:
     :
     Hard:
     9:
     0.000,0.000,0.000,0.000,0.000:
0000
0000
0000
0000
,
0000
0000
0000
0000
,
0000
0000
0000
0000
,
0000
0000
0000
0001
,
1000
0010
0010
1000
,
0001
0100
0100
0010
,
1000
0001
1000
0110
,
0000
0000
0000
0000
0001
0000
1000
0000
0001
1000
0001
0000
0100
0000
0000
0000
,
0101
0000
0001
1000
0010
1000
0100
1000
,
0010
0001
0000
0010
1000
0100
0010
0000
,
0011
0000
0001
1000
0100
1000
0010
0100
,
0010
0100
0010
0000
1001
0000
0110
0000
,
1001
0000
0001
0100
0010
1000
0100
0010
,
0001
1000
0100
1000
0010
0100
0010
0000
,
1100
0000
1000
0010
0100
0001
1000
0100
,
1000
0100
1000
0000
0000
0000
0001
0000
,
0011
0000
1010
0000
1000
0001
0010
0001
,
0100
0010
0000
0010
1000
0100
1000
0000
,
1100
0000
0101
0000
0001
0100
0010
1000
,
0010
1000
0100
0000
1001
0000
1001
0000
,
0001
0000
0010
0001
0100
0010
1000
0100
,
1000
0001
0000
0001
0100
0010
0100
0000
,
0010
0000
1000
0100
1000
0001
0010
0100
,
0010
0000
0100
0000
0010
0000
0000
0000
0000
0000
0000
0000
0100
0000
1000
0001
,
0010
0001
1000
0100
0100
1000
0010
0010
,
1000
0000
0000
0000
1001
0000
0000
0000
0001
0000
0010
0000
0100
0000
1000
0001
,
0010
0001
0100
0010
1000
1000
0001
0000
,
1100
0000
0000
0000
0011
0000
0000
0000
0101
0000
0000
0000
0010
0000
0001
1000
,
0100
1000
0010
0100
0100
0010
1000
1000
,
0001
0000
0000
0000
0100
0000
0000
0000
0100
0000
0001
0000
0010
0000
0001
1000
,
0100
1000
0010
0100
0100
0001
1000
0001
,
1000
0000
0000
0000
0001
0000
0100
0001
1000
0000
0000
0000
0001
0000
0010
0000
,
1000
0000
0000
0001
0100
1000
0000
0010
,
0100
0001
1000
0010
0001
0010
0200
0001
,
0000
0001
0000
1000
0000
1000
0000
0001
,
0000
0310
0100
0001
1000
0010
1000
0100
,
0001
0000
0000
1000
0010
0001
0000
1000
,
0010
0100
0001
0010
0100
1000
0020
1000
,
0000
1000
0000
0001
0000
0001
0000
1000
,
0000
0000
0130
0000
0010
0100
0010
0000
1000
0010
1000
0000
0100
0000
1000
0000
,
0001
0001
0010
0001
0100
0100
0010
1000
,
0100
1000
0001
0000
1100
0000
0001
0100
,
0010
0010
1000
0001
1000
1000
0010
0100
,
0000
0101
0000
1001
0000
1000
0010
0100
,
0001
0001
1000
0001
0100
0100
0010
1000
,
0100
1000
0001
0000
1010
0000
1000
0010
,
0100
0100
0001
1000
0001
0001
0010
0000
,
0000
0000
0000
0000
0001
1000
0001
1000
0001
0000
0000
0000
0100
0000
0000
0000
,
0101
0000
0100
0010
1000
0200
0000
0310
,
0100
2000
0000
3010
0100
0001
0100
0000
,
0011
0000
0001
0010
0100
1000
0010
1000
,
0010
1000
0100
0000
0000
0000
1000
0000
,
0011
0000
0001
0100
0010
2000
0000
3010
,
0100
0002
0000
1003
0010
0100
0001
0000
,
1010
0000
1000
0010
0100
0001
1000
0001
,
1000
0001
0100
0000
0000
0000
0001
0000
,
1100
0000
1000
0000
0101
0000
0001
1000
,
0010
0100
0010
0010
1000
1000
0001
0000
,
1010
0000
1000
0000
0011
0000
0001
1000
,
0100
1000
0010
0100
0001
0100
0010
0000
,
1001
0000
0100
0000
1001
0000
0010
0100
,
0001
1000
0100
1000
0010
0100
0001
0000
,
0110
0000
1000
0000
0110
0000
0001
1000
,
0001
1000
0100
1000
0010
0100
0010
0000
,
1100
0000
0010
0000
0101
0000
0001
1000
,
0001
0100
0100
0010
0010
1000
0100
0000
,
0011
0000
0100
0000
1010
0000
0001
1000
,
0001
1000
0010
0100
0010
0000
1000
0000
,
0101
0000
0010
0000
1000
0100
0010
0000
,
1100
0000
0001
1000
0100
1000
0100
0000
,
1010
0100
0011
1001
,
0110
1001
0110
1002
,
0000
0000
0003
1200
,
0000
0000
0300
0021
,
0000
0000
0030
2001
,
0000
0000
3000
0000
,
0000
0000
0000
0000
,
0000
0000
0000
0000
;
