#TITLE:GOLDEN PHONE;
#SUBTITLE:;
#ARTIST:MICACHU;
#CREDIT:;
#MUSIC:goldenphone.mp3;
#SELECTABLE:YES;
#BACKGROUND:goldenphone-bg.png;
#BANNER:goldenphone.png;
#CDTITLE:!auraesimfilesmix2.png;
#OFFSET:-0.361542;
#SAMPLESTART:42.980;
#SAMPLELENGTH:21.334;
#BPMS:0=180;
#STOPS:125=0.666667,243=1.33333;

//---------------dance-single - ----------------
#NOTES:
     dance-single:
     :
     Easy:
     3:
     0.000,0.000,0.000,0.000,0.000:
0000
0000
0000
0000
,
0000
0000
0000
0000
,
0000
0000
0000
0001
,
0000
1000
0000
0001
,
0000
1000
0000
0001
,
0000
0100
0000
0100
,
0000
0100
0000
0100
,
0000
0010
0000
1000
,
0000
0001
0000
1000
,
0000
0010
0000
0100
,
0000
0100
0000
0100
,
0000
0100
0000
0002
,
0000
0000
0000
0000
0000
0000
0000
0000
0000
0000
0000
0000
0000
0000
0000
0000
0000
0000
0000
0003
0000
0000
0000
0000
0000
0000
0000
0000
0000
0000
0000
0000
0000
0000
0000
0000
0000
0000
0000
0000
0000
0000
0000
0000
0000
0000
0000
0000
0200
0000
0000
0000
0000
0000
0000
0000
0000
0000
0000
0000
0000
0000
0000
0000
,
0000
0000
0000
0000
0000
0000
0000
0000
0000
0000
0000
0000
0000
0000
0000
0000
0000
0000
0000
0300
0000
0000
0000
0000
2000
0000
0000
0000
0000
0000
0000
0000
0000
0000
0000
0000
0000
0000
0000
0000
0000
0000
0000
0000
0000
0000
0000
0000
0000
0000
0000
0000
0000
0000
0000
0000
0000
0000
0000
0000
0000
0000
0000
0000
0000
0000
0000
3000
0000
0000
0000
0000
0010
0000
0000
0000
0000
0000
0000
0000
0000
0000
0000
0000
0000
0000
0000
0000
0000
0000
0000
0000
0000
0000
0000
0000
,
0000
1000
0000
0100
,
0000
1000
0000
0020
,
0000
0000
0000
0000
0000
0000
0000
0000
0000
0000
0000
0000
0000
0000
0000
0000
0000
0000
0000
0000
0000
0000
0000
0000
0000
0000
0000
0000
0000
0000
0000
0000
0000
0000
0000
0000
0000
0000
0000
0000
0000
0030
0000
0000
0000
0000
0000
0000
2000
0000
0000
0000
0000
0000
0000
0000
0000
0000
0000
0000
0000
0000
0000
0000
0000
0000
0000
0000
0000
0000
0000
0000
0000
0000
0000
0000
0000
0000
0000
0000
0000
0000
0000
0000
0000
0000
0000
0000
0000
0000
0000
0000
0000
0000
0000
0000
0000
0000
0000
0000
0000
0000
0000
0000
0000
0000
0000
0000
0000
0000
0000
0000
0000
0000
0000
0000
0000
0000
0000
0000
0000
0000
0000
0000
0000
0000
0000
0000
0000
0000
0000
0000
0000
0000
0000
0000
0000
0000
0000
0000
0000
0000
0000
0000
0002
0000
0000
0000
0000
3000
0000
0000
0000
0000
0000
0000
0000
0000
0000
0000
0000
0000
0000
0000
0000
0000
0000
0000
0000
0000
0000
0000
0000
0000
0000
0000
0000
0000
0000
0000
0000
0000
0000
0000
0000
0000
0000
0000
0000
0000
0000
0000
,
0000
0000
0000
0000
0000
0000
0000
0000
0000
0000
0000
0000
0000
0000
0000
0000
0000
0000
0000
0000
0000
0000
0000
0000
0203
0000
0000
0000
0000
0000
0000
0000
0000
0000
0000
0000
0000
0000
0000
0000
0000
0000
0000
0000
0000
0000
0000
0000
0000
0000
0000
0000
0000
0000
0000
0000
0000
0000
0000
0000
0000
0000
0000
0000
0000
0000
0000
0300
0000
0000
0000
0000
0001
0000
0000
0000
0000
0000
0000
0000
0000
0000
0000
0000
0000
0000
0000
0000
0000
0000
0000
0000
0000
0000
0000
0000
,
0000
0100
0000
0001
,
0000
1000
0000
0010
,
0000
1000
0000
0100
,
0100
0100
0000
1000
,
0000
0001
0000
0010
,
0010
0010
0000
0001
,
0001
0001
0000
0100
,
0000
0001
0000
1000
,
0000
0010
0010
0010
,
0000
1000
0000
0100
,
0000
0100
0000
1000
,
0000
0001
0000
0100
,
0000
0001
0000
1000
,
0001
1000
0000
0001
,
0001
0100
0000
0001
,
1000
1000
0000
0001
,
0010
0100
1000
0010
,
0010
0010
0010
1000
,
1000
0100
0000
1000
,
0001
0001
0000
1000
,
0100
0010
0001
0100
,
0100
0100
0100
0010
,
1000
0010
0000
0100
,
0001
1000
0000
0001
,
0100
0010
1000
0010
,
0010
0010
0010
0100
,
0001
1000
0000
0001
,
1000
0100
1000
0010
,
0000
0000
0000
0000
,
0000
0000
0000
0000
,
0000
0000
1001
1001
,
0000
0010
0000
0100
,
0000
0010
0000
0001
,
0000
1000
0000
0100
,
0000
1000
1000
1000
,
0000
0010
0100
0000
,
0001
0000
1000
0000
,
0001
0000
1000
0000
,
0001
0000
0100
0000
,
0001
0000
1000
0000
,
0010
0010
0000
1000
,
0000
0001
0000
0100
,
0000
0001
1000
0001
,
1001
1001
0000
0001
,
0000
1000
0100
1000
,
0000
0001
0010
0100
,
1000
0010
0010
0010
,
0010
1000
0100
1000
,
0000
0001
0100
0001
,
0000
1000
0100
0010
,
0001
0100
0100
0100
,
0100
0010
1000
0010
,
0000
0100
0001
0100
,
0000
0001
0100
0010
,
1000
0100
0100
0100
,
0100
1000
0001
1000
,
0001
0100
0100
0001
,
0100
0001
0000
0000
,
0000
0000
0000
0000
,
0000
0000
0000
0000
,
0000
0000
0000
0000
,
0000
0000
0000
0000
;

//---------------dance-single - ----------------
#NOTES:
     dance-single:
     :
     Medium:
     5:
     0.000,0.000,0.000,0.000,0.000:
0000
0000
0000
0000
,
0000
0000
0000
0000
,
0000
0000
0000
0010
,
0100
0100
0010
1000
,
0001
1000
0000
0001
1000
0010
0000
0010
,
1000
0100
0100
1000
,
0001
1000
0001
0000
1000
0001
1000
0000
,
0100
0010
0001
0100
,
0100
0000
0001
0000
1000
0010
0000
1000
,
0010
0100
0000
0100
0001
0000
1000
0000
,
0010
1000
0010
0000
0100
0001
0100
0000
,
0010
1000
0100
2000
,
0000
0001
0000
0100
,
0000
0000
3010
0000
1100
0000
0100
0010
,
0100
0010
0100
0000
0010
0000
0001
0100
,
0001
0100
0001
0000
0010
0000
0200
0000
,
0000
1000
0000
0010
,
0000
1300
1100
1000
,
0001
0010
0001
0000
0100
0001
0100
0000
,
0001
0000
1000
0001
1000
0000
0100
0000
,
0010
0001
1000
0001
,
0100
0001
0000
0100
0001
1000
0000
1000
,
0010
0000
0100
0000
0001
0010
0001
0000
,
1000
0100
1000
0000
0010
0000
0100
0000
,
0100
0001
0010
0100
,
1000
0100
1000
0000
0001
1000
0000
0001
,
1000
0010
0000
0010
0100
0000
0001
0000
,
0010
0100
1000
0000
0010
0100
0001
0000
,
1000
1000
0100
1000
,
0001
0010
0010
0001
,
0100
0001
0010
0000
0001
1000
0001
0000
,
1000
0100
0100
1000
,
1000
1100
1100
0001
,
0001
0000
0101
0000
0101
0000
0001
1000
,
0001
1000
0001
1000
0100
0000
0100
0000
,
1001
1001
1001
0010
,
0010
0011
0101
0100
,
0100
0000
0110
0000
1010
0000
1000
0001
,
1000
0001
1000
0100
0010
0000
0010
0000
,
1001
1001
1001
0100
,
1000
0010
0100
0000
0010
0000
0010
0000
,
1000
0001
0010
0000
0010
0000
0001
0100
,
0001
0100
0010
0100
0010
0000
0100
0000
,
1001
1001
1001
0010
,
0001
1000
0001
0000
1000
0000
0010
0000
,
1000
0010
1000
0010
0100
0010
2000
0000
,
0000
0000
0000
0000
,
0000
0000
0000
0000
,
0000
0000
3000
0001
,
0010
0100
1000
0001
,
0100
0010
1000
0100
,
0010
0001
1000
0010
,
0100
0000
0001
0100
0001
0100
0010
0000
,
1000
0100
1000
0001
,
0100
0100
0001
1000
,
0001
1000
0000
0001
1000
0100
0000
0100
,
1000
0010
0010
1000
,
1000
0001
0001
1000
,
1000
0000
0010
0000
0100
0001
0100
0000
,
0001
0000
1000
0000
0010
1000
0100
0000
,
1000
0001
0010
0000
0001
0000
0100
0000
,
0100
0001
0001
0011
,
0011
1000
1000
1010
,
1010
0000
1000
0001
1000
0001
1000
0001
,
0100
0100
1001
1001
,
1001
0100
0100
0110
,
0101
0001
0001
1001
,
1100
0000
1000
0001
1000
0001
1000
0001
,
1000
0100
1001
1001
,
1001
0000
0010
0000
0001
0100
0010
0000
,
0100
0001
1000
0001
0100
0000
0010
0000
,
1000
0000
0100
0010
0001
0010
0100
0010
,
0001
0010
1001
1001
,
1001
0000
0100
0000
1000
0010
1000
0000
,
0100
1000
0001
0100
0010
0000
1000
0100
,
0010
0001
0100
0000
0000
0000
0000
0000
,
0000
0000
0000
0000
,
0000
0000
0000
0000
,
0000
0000
0000
0000
,
0000
0000
0000
0000
;

//---------------dance-single - ----------------
#NOTES:
     dance-single:
     :
     Hard:
     8:
     0.000,0.000,0.000,0.000,0.000:
0000
0000
0000
0000
,
0000
0000
0000
0000
,
0000
0000
0000
0001
,
0100
0010
1000
0000
0100
0010
0001
0000
,
0100
0000
0010
1000
0100
1000
0001
0000
,
1000
0010
0100
0000
0001
0010
0100
0000
,
1000
0001
0010
0000
0001
0100
0001
0000
,
1100
0010
1000
0100
,
0110
0000
0100
0000
1000
0001
0010
0000
,
0001
1000
0010
0000
1000
0001
0010
0000
,
0100
1000
0001
0000
0100
0001
1000
0000
,
0010
1000
0001
0000
0101
0000
0010
0000
,
0100
1000
0010
0000
1000
0000
0001
0100
,
0001
0100
0010
0000
0100
0000
0001
0000
,
0101
1000
1010
0001
,
0011
1000
1100
0100
,
0010
0001
1000
0000
0001
0000
1000
0010
,
1000
0010
0100
0000
0010
0000
1000
0000
,
1100
0000
0001
0000
0011
0000
1000
0010
,
1000
0000
0001
0100
0001
0000
0100
0000
,
0010
1000
0001
0000
0100
0000
0001
0000
,
1000
0010
0100
0010
1000
0000
0100
0000
,
0011
0100
1010
0100
,
0001
1000
0001
0000
1000
0010
1000
0000
,
0100
1000
0010
0000
0100
0000
0010
0000
,
1000
0001
0010
0000
0001
0000
0100
0000
,
0001
1000
0100
0000
1000
0001
0100
0000
,
0001
1000
0100
0000
1000
0001
0100
0000
,
0001
0020
0031
0001
,
0010
0100
1000
0000
1010
0000
0100
0000
,
0001
1000
0000
1000
0001
0100
0001
0000
,
0100
1001
0110
1001
,
0001
0010
0001
0000
0001
0100
0010
0000
,
1000
0100
1000
0010
0100
0000
0001
0100
,
0010
1000
0001
0100
0010
1000
0100
0000
,
1100
1001
0101
1001
,
1000
0000
0010
0100
0010
0000
1000
0100
,
1000
0001
0010
0000
0001
0000
1000
0100
,
0010
0001
1000
0100
0010
0001
1000
0000
,
1010
1001
0011
1001
,
0100
0001
0010
0000
0001
1000
0010
1000
,
0100
0000
1000
0000
0010
0000
0001
0010
,
0100
1000
0001
0010
0100
1000
0100
0000
,
1100
0110
0011
0110
,
0100
1000
0001
0000
0100
0000
0001
1000
,
0010
1000
0100
1000
0010
0000
0110
0000
,
0000
0000
0000
0000
,
0000
0000
0000
0000
,
0000
0000
0000
0000
1001
0000
0100
0001
,
1000
0001
0010
0001
1000
0001
0100
0000
,
0010
0000
1000
0100
1000
0000
0001
1000
,
0010
1000
0100
1000
0001
1000
0100
0000
,
0010
0000
0011
0000
1100
0000
0001
0100
,
0010
0100
0001
1000
0010
1000
0100
0000
,
0010
0100
0010
0000
0010
0100
0010
0000
,
0100
0001
0100
0000
0001
1000
0001
0000
,
0001
1000
0010
0000
1000
0100
0010
0000
,
0100
1000
0001
0000
1000
0000
0001
0000
,
0110
1001
0110
0001
,
0100
0001
0100
0000
0010
1000
0010
0000
,
0100
0010
1000
0010
0100
0000
1001
0000
,
0110
0000
1001
0000
1000
0010
1000
0000
,
1000
0100
1000
0001
0100
0000
0010
0000
,
1000
0000
0001
0010
0100
1000
0010
0100
,
0001
1000
0100
0000
1100
0000
1010
0000
,
0011
0000
0101
0000
0001
0100
0001
0000
,
0100
0010
1000
0100
1000
0000
0010
0000
,
1000
0000
0100
1000
0010
0100
0001
0010
,
0100
1000
0010
0000
1010
0000
1100
0000
,
0101
0000
1001
0000
0001
0010
0100
0000
,
0110
0000
0010
0001
0100
0001
1000
0000
,
0010
0000
1000
0100
0010
0001
0100
0010
,
1000
0100
1000
0000
1010
0000
0110
0000
,
0101
0000
1001
0000
0001
1000
0100
0000
,
1000
0001
1000
0000
0001
0010
0001
0100
,
0010
1000
0100
0000
0000
0000
0000
0000
,
0000
0000
0000
0000
,
0000
0000
0000
0000
,
0000
0000
0000
0000
,
0000
0000
0000
0000
;
