#TITLE:FOREIGN BODIES;
#SUBTITLE:(Plaid Mix);
#ARTIST:HERBERT;
#CREDIT:;
#MUSIC:bodiesmix.mp3;
#SELECTABLE:YES;
#BACKGROUND:bodiesmix-bg.png;
#BANNER:bodiesmix.png;
#CDTITLE:!auraesimfilesmix2.png;
#DISPLAYBPM:128.000:128.000;
#OFFSET:-0.0456236;
#SAMPLESTART:26.276;
#SAMPLELENGTH:18.826;
#BPMS:0=128;
#STOPS:;

//---------------dance-single - ----------------
#NOTES:
     dance-single:
     :
     Easy:
     3:
     0.000,0.000,0.000,0.000,0.000:
0000
0000
0000
0000
,
0000
0000
0000
0000
,
0000
0000
0000
0000
,
0000
0000
0000
0000
,
0010
0010
0010
0000
,
0001
0001
1000
0000
,
0100
0100
0100
0000
,
1000
1000
0001
0000
,
0100
0010
0100
0000
,
0010
0010
0010
0000
,
1000
0001
1000
0000
,
0001
0001
0001
0001
,
0100
0000
0000
0000
,
0000
0000
0000
0000
,
0001
0000
0100
0100
,
0010
0000
1000
1000
,
0100
0000
1000
0001
,
0010
0000
0101
0000
,
1001
0000
0001
0100
,
0001
0000
1000
0010
,
0010
0000
0100
0010
,
0100
0000
0010
0000
,
1001
0000
0000
0000
,
0000
0000
0000
0000
,
0001
0000
0001
0000
,
1000
0000
0100
0100
,
0010
0010
0100
0000
,
0010
0000
1000
1000
,
0002
0003
2000
3000
,
0002
0003
0200
0300
,
0020
0030
2000
3000
,
0200
0300
0020
0030
,
0001
0001
1000
0000
,
0100
0100
1000
0000
,
0010
0100
0010
0000
,
1000
0001
0100
0100
,
0001
1000
1000
0000
,
0010
0010
1000
0100
,
1000
1000
0001
0000
,
0100
0001
0010
0010
,
0001
0100
0100
0000
,
0010
1000
0010
1000
,
0001
0001
0100
0000
,
0001
1000
0001
1000
,
0010
0000
1010
0000
,
1001
0000
0001
0100
,
0001
0000
0010
0000
,
0001
0000
0000
0000
,
0001
0001
0001
0000
,
1000
0010
1000
0010
,
0100
0100
0100
0000
,
0001
1000
0001
1000
,
0020
0030
2000
3000
,
0020
0000
0000
0000
0000
0000
0000
0000
0000
0000
0000
0000
0000
0000
0000
0000
0000
0000
0000
0000
0000
0000
0000
0000
0000
0030
0000
0000
0000
0000
0000
0000
0000
0000
0000
0000
0000
0000
0000
0000
0000
0000
0000
0000
0000
0000
0000
0000
0200
0000
0000
0000
0000
0000
0000
0000
0000
0000
0000
0000
0000
0000
0000
0000
0000
0000
0000
0000
0000
0000
0000
0000
0300
0000
0000
0000
0000
0000
0000
0000
0000
0000
0000
0000
0000
0000
0000
0000
0000
0000
0000
0000
0000
0000
0000
0000
,
0002
0000
0000
0000
0000
0000
0000
0000
0000
0000
0000
0000
0000
0000
0000
0000
0000
0000
0000
0000
0000
0000
0000
0000
0000
0003
0000
0000
0000
0000
0000
0000
0000
0000
0000
0000
0000
0000
0000
0000
0000
0000
0000
0000
0000
0000
0000
0000
0020
0000
0000
0000
0000
0000
0000
0000
0000
0000
0000
0000
0000
0000
0000
0000
0000
0000
0000
0000
0000
0000
0000
0000
0030
0000
0000
0000
0000
0000
0000
0000
0000
0000
0000
0000
0000
0000
0000
0000
0000
0000
0000
0000
0000
0000
0000
0000
,
0200
0000
0000
0000
0000
0000
0000
0000
0000
0000
0000
0000
0000
0000
0000
0000
0000
0300
0000
0000
0000
0000
0000
0000
0000
0000
0000
0000
0000
0000
0000
0000
2000
0000
0000
0000
0000
0000
0000
0000
0000
0000
0000
0000
0000
0000
0000
3000
0000
0000
0000
0000
0000
0000
0000
0000
0000
0000
0000
0000
0000
0000
0000
0000
,
0010
1000
0010
1000
,
0001
0100
0001
0010
,
0001
0100
0010
1000
,
0010
0100
0001
1000
,
0000
0000
0000
0000
;

//---------------dance-single - ----------------
#NOTES:
     dance-single:
     :
     Medium:
     5:
     0.000,0.000,0.000,0.000,0.000:
0000
0000
0000
0000
,
0000
0000
0000
0000
,
0000
0000
0000
0000
,
0000
0000
0000
0000
,
0001
0001
0010
0000
,
0010
0001
0010
0000
0001
0000
0000
0000
,
0100
0100
0100
0000
,
0010
1000
0100
0000
1000
0000
0000
0000
,
0001
0001
0100
0000
,
0010
1000
0100
0000
1000
0000
0000
0000
,
0001
0010
0001
0000
,
0100
0001
0100
0000
0001
0000
0001
0000
,
1000
0001
0000
0001
,
0000
0100
0000
0100
,
0010
0000
0000
0000
1000
0000
0000
0000
0100
0000
0000
1000
0000
0000
0100
0000
,
1000
0000
0000
0000
0001
0000
0000
0000
0001
0000
0000
0010
0000
0000
0001
0000
,
0100
0000
0000
0000
0001
0000
0000
0000
1000
0000
0000
0001
0000
0000
1000
0000
,
0100
1000
0010
0010
,
0100
0000
0000
0000
0001
0000
0000
0000
0010
0000
0000
0100
0000
0000
1000
0000
,
0001
0000
0000
0000
1000
0000
0000
0000
0001
0000
0000
0001
0100
0000
0000
0000
,
0001
0000
0000
0000
0001
0000
0000
0000
1000
0000
0000
0100
0000
0000
1000
0000
,
0010
0000
0000
0000
0100
0000
0000
0000
0010
0000
0000
0010
1000
0000
0000
0000
,
2002
0000
0000
0000
,
0000
0000
0000
0000
,
3003
0000
0002
0003
,
0200
0300
0101
0101
,
1001
1001
2000
3000
,
0020
0030
1100
1100
,
1001
0000
0000
0000
1001
0000
0000
0000
0001
0000
0000
0001
0010
0000
0000
0000
,
0100
0100
1000
0000
,
0010
0000
0000
0000
0010
0000
0000
0000
1000
0000
0000
1000
0100
0000
0000
0000
,
0100
1000
0001
0000
,
0001
0000
0000
0000
0100
0000
0000
0000
0010
0000
0000
0010
1000
0000
0000
0000
,
0100
0000
0000
0000
0000
0000
0000
0000
0000
0000
0000
0000
0000
0000
0000
0000
0000
0000
0000
0000
0000
0000
0000
0000
0000
0000
0000
0000
0000
0000
0000
0000
0000
0000
0000
0000
0000
0000
0000
0000
0000
0000
0000
0000
0000
0000
0000
0000
0100
0000
0000
0000
0000
0000
0000
0000
0000
0000
0000
0000
0000
0000
0000
0000
0000
0000
0000
0000
0000
0000
0000
0000
0000
0000
0000
0000
0000
0000
0000
0000
0000
0000
0000
0000
0000
0000
0000
0000
0000
0000
0000
0000
0000
0000
0000
0000
0020
0000
0000
0000
0000
0000
0000
0000
0000
0000
0000
0000
0000
0030
0000
0000
0000
0000
0000
0000
0000
0000
0000
0000
0000
0000
0000
0000
0000
0000
0000
0000
0000
0000
0000
0000
0000
0000
0000
0000
0000
0000
0000
0000
0000
0000
0000
0000
0000
0000
0000
0000
0000
0000
0000
0000
0000
0000
0000
0000
0000
0000
0000
0000
0000
0000
0000
0000
0000
0000
0000
0000
0000
0000
0000
0000
0000
0000
0000
0000
0000
0000
0000
0000
0000
0000
0000
0000
0000
0000
0000
0000
0000
0000
0000
0000
,
0001
0000
0000
0000
0001
0000
0000
0000
0100
0000
0000
0100
0001
0000
0000
0000
,
1000
0010
1000
1001
,
0001
0101
0100
0101
,
0001
0000
1001
0000
1000
0010
1000
0000
,
0100
0000
0000
0000
1000
0000
0000
0000
0010
0000
0000
0010
1000
0000
0000
0000
,
0100
0000
0010
0000
0001
0100
0001
0100
,
0010
0000
0000
0000
1000
0000
0000
0000
0010
0000
0000
0010
1000
0000
0000
0000
,
0100
0000
1000
0000
0010
0010
0010
0000
,
1000
0000
0000
0000
0100
0000
0000
0000
1000
0000
0000
1000
0001
0000
0000
0000
,
0001
0100
0010
1000
,
1100
0000
0000
0000
0000
0000
1001
0000
0001
0000
0100
0000
,
0001
0000
0000
0100
0000
0000
0010
0000
1000
0000
0100
0000
,
2000
0000
3001
0000
,
0100
0000
0000
0000
,
0001
0100
0001
0000
0001
0000
0010
0000
,
0100
0000
0010
0000
0100
0000
0000
0000
1000
0000
0000
1000
0010
0000
0000
0000
,
0100
0000
0001
0000
0100
0000
0000
0000
0010
0000
0000
0010
1000
0000
0000
0000
,
0001
0000
0100
0000
0001
0000
0000
0000
1000
0000
0000
1000
0010
0000
0000
0000
,
0000
0001
0100
0000
0100
0000
0001
1000
,
0100
1000
0100
0000
0010
0000
0010
0000
,
1000
0100
1000
0000
0001
0000
0100
0001
,
0100
0001
0010
0000
0001
0000
0010
0001
,
0100
1010
1000
1100
,
0001
0000
0101
0000
0001
0000
1000
0100
,
1000
1010
0100
0101
,
1000
0000
1010
0000
0100
0010
1000
0100
,
0000
0000
0000
0000
;

//---------------dance-single - ----------------
#NOTES:
     dance-single:
     :
     Hard:
     8:
     0.000,0.000,0.000,0.000,0.000:
0000
0000
0000
0000
,
0000
0000
0000
0000
,
0000
0000
0000
0000
,
0000
0000
0000
0000
,
0001
0001
0100
0010
1000
0000
0000
0000
,
1000
0100
0100
0010
0001
0000
0000
0000
,
0100
0100
0010
1000
0001
0000
0001
0100
,
0100
0000
0010
0000
1000
0000
0100
0000
0010
0000
0000
0010
0100
0010
0100
0000
,
0010
0001
0001
0000
1100
0000
0000
0000
,
1000
1000
0010
0100
0001
0000
0000
0000
,
0001
1000
1000
0000
0101
0000
0001
0001
,
1000
0000
0010
0000
0010
0000
0100
0000
0010
0000
0000
0010
1000
0010
1000
0000
,
0100
0000
0000
0100
0010
0000
0000
0001
0000
0000
0001
0100
0000
0000
0010
0000
,
0000
0010
1000
0000
0000
0100
0000
0000
0100
0010
0000
0000
0001
1000
0010
0000
,
1000
0000
1000
0000
0100
0000
0000
0000
1100
0000
0000
1000
0001
0000
0101
0000
,
0000
0001
1000
0010
0010
0000
1010
1000
,
0100
0000
0000
0000
0010
0000
0001
0000
0001
0000
1000
0001
0000
1000
0001
0000
,
0100
0000
0000
0000
0010
0000
0000
0000
1000
0000
0000
0010
0100
0000
0010
0000
,
1000
0000
0001
0000
0001
0000
0000
0000
0100
0000
0001
1000
0010
0000
0100
0000
,
0100
0000
0101
0000
0001
0100
0100
0000
,
0010
0000
0000
0000
1010
0000
1000
0000
0100
0000
1000
0010
0000
1000
0001
0000
,
0100
0000
0001
0000
0010
0000
0001
0000
1000
0000
0001
1000
0001
0000
0100
0000
,
1001
0000
0000
0000
,
0000
0000
0000
0000
,
1000
0000
0000
0000
0000
0100
0000
0000
0000
0000
0010
0000
0000
0000
0000
0001
0000
0000
0000
0000
0000
0000
0000
0000
0001
0000
0000
0000
0000
0100
0000
0000
0000
0000
0010
0000
0000
0000
0000
1000
0000
0000
0000
0000
0000
0000
0000
0000
,
0010
0000
0000
0000
0000
0100
0000
0000
0000
0000
0001
0000
0000
0000
0000
0010
0000
0000
0000
0000
0000
0000
0000
0000
1200
0000
0000
0000
0000
0000
0000
0000
0000
0000
0000
0000
0001
0000
0000
0000
0000
0000
0000
0000
0000
0000
0000
0000
,
1300
0000
0000
0000
0000
0000
0000
0000
0000
0000
0000
0000
0101
0000
0000
0000
0000
0000
0000
0000
0000
0000
0000
0000
0100
0000
0000
0000
0000
0010
0000
0000
0000
0000
1000
0000
0000
0000
0000
0100
0000
0000
0000
0000
0000
0000
0000
0000
,
1000
0000
0000
0000
0000
0001
0000
0000
0000
0000
0100
0000
0000
0000
0000
0010
0000
0000
0000
0000
0000
0000
0000
0000
1001
0000
0000
0000
0000
0000
0000
0000
0000
0000
0000
0000
0110
0000
0000
0000
0000
0000
0000
0000
0000
0000
0000
0000
,
0001
0000
0100
0000
0100
0000
0010
0000
1000
0000
0000
0001
0100
0000
0010
0000
,
0010
0000
1000
0000
1000
0000
0100
0000
0010
0000
0000
0010
0001
0000
0000
0000
,
0100
0000
0010
0000
0010
0000
1000
0000
0100
0000
0000
1000
0010
0000
1000
0000
,
0100
0000
0100
0000
0010
0000
0001
0000
1000
0000
0000
1000
0001
0000
0000
0000
,
0100
0000
0001
0000
0001
0000
0010
0000
0001
0000
0000
0100
0010
0000
1000
0000
,
1000
0000
0001
0000
0001
0000
0100
0000
0010
0000
0000
0010
0100
0000
0000
0000
,
0100
0000
0001
0000
0001
0000
1000
0000
0010
0000
0000
1000
0100
0000
0010
0000
,
0001
0000
1000
0000
1000
0000
0001
0000
0100
0000
0000
0001
0000
0100
0000
0100
,
0010
1000
1010
0010
0100
0000
0101
0000
,
0001
0000
0010
0000
0010
0000
0001
0000
1000
0000
0100
1000
0001
0000
0000
0000
,
1000
0000
0001
0000
1001
0000
1000
0000
0100
0000
0000
0100
0010
0000
0000
0000
,
0001
0000
0100
0000
0010
0000
1000
0000
0100
0000
0010
0001
0100
0000
0000
0000
,
0010
0000
1000
0000
1001
0000
0001
0000
0100
0000
0000
0001
0010
0000
0001
0000
,
0100
0000
0100
0000
0010
0000
1000
0000
0100
0000
0000
0100
0010
0000
0000
0000
,
0001
0000
0100
0000
0101
0000
0001
0000
1000
0000
0000
1000
0010
0000
0000
0000
,
0100
0000
0100
0000
0010
0000
1000
0000
1000
0100
1000
0000
0010
0000
0100
0000
,
0102
0000
0000
0010
0000
0000
1003
0000
0100
0010
0000
0000
,
0100
0000
0000
1100
0000
0000
1000
0000
0001
0100
0010
1000
,
0200
0000
0001
0000
,
1300
0000
0000
0000
,
0010
0000
0010
0000
1010
0000
0000
0000
0100
0000
0001
0100
0001
0100
0010
0000
,
1000
0000
1000
0000
1001
0000
0000
0000
0010
0000
0100
0001
0100
0000
0000
0000
,
0001
0000
0100
0000
0110
0000
0000
0000
0010
0000
1000
0010
1000
0010
0100
0000
,
0001
0000
0001
0000
1100
0000
0000
0000
1000
0000
0100
0010
0100
0000
0000
0000
,
0010
0000
0001
0000
0011
0000
0010
0000
0100
0000
0000
0100
1000
0000
0000
0000
,
1000
0000
0010
0000
0010
0000
1000
0000
0100
0000
1000
0001
1000
0000
0000
0000
,
0010
0000
0010
0000
1010
0000
1000
0000
0100
0000
0000
0100
0010
0000
0000
0000
,
0001
0000
0010
0000
0010
0000
0001
0000
0100
0000
0001
1000
0001
0000
0000
0000
,
0100
0010
1010
1000
0100
0000
1100
0000
,
1000
0100
1000
0000
0010
0000
0100
0000
0001
0000
0010
0001
0000
0001
0010
0000
,
0001
0100
0101
0001
1000
0010
1010
0000
,
1000
0000
0100
0000
1100
0000
1000
0000
0010
0000
0100
0001
0000
0001
1000
0000
,
0000
0000
0000
0000
;
