#TITLE:EverythingChanges;
#SUBTITLE:;
#ARTIST:宇宙コンビニ;
#CREDIT:;
#MUSIC:everythingchanges.mp3;
#SELECTABLE:YES;
#BACKGROUND:everythingchanges-bg.png;
#BANNER:everythingchanges.png;
#CDTITLE:!auraesimfilesmix2.png;
#DISPLAYBPM:130.000:130.000;
#OFFSET:-0.458231;
#SAMPLESTART:57.951;
#SAMPLELENGTH:22.154;
#BPMS:0=130;
#BGCHANGES:-1.45=everythingchanges.avi=1.000=1=1=0,
221.500=everythingchanges-bg.png=1.000=1=0=0,
99999=-nosongbg-=1.000=0=0=0 // don't automatically add -songbackground-
;
#STOPS:;

//---------------dance-single - ----------------
#NOTES:
     dance-single:
     aurae:
     Easy:
     4:
     0.000,0.000,0.000,0.000,0.000:
0000
0000
0000
0000
,
0000
0000
0000
0000
,
0000
0000
0000
0000
,
0000
0000
0000
0000
,
0000
0000
0000
0000
,
0000
0000
0000
1000
0001
0000
1000
0000
,
0001
1000
0001
0000
,
0100
0010
0000
1000
,
0010
0000
0000
0000
0010
1000
0000
0000
,
0000
0100
0000
0010
0000
0000
0000
0001
,
0000
0010
0000
0000
0000
0001
0000
0100
,
0000
0000
0000
0100
0010
0000
0000
0000
,
1000
0001
0001
0001
,
0001
0100
0000
0010
,
0000
0000
1000
0010
0000
0010
0000
0010
,
1000
1000
1000
0001
,
0001
0001
0100
0000
,
0001
1000
1000
0020
,
0000
0000
0000
0030
0000
0000
0000
0000
,
0000
1001
0000
1001
0000
1001
0000
1001
,
0000
0000
0000
0001
0100
0000
0100
0000
,
0001
0000
0100
0100
,
0010
0010
0000
1000
,
0001
0000
0100
0000
0100
0001
0000
0001
,
0010
0000
0010
0001
0000
0001
0000
0010
,
0000
0110
0000
0110
0000
0110
0000
0110
,
0000
0000
0000
0010
0100
0000
0100
0000
,
1000
1000
0001
0100
,
0000
0100
0000
0001
,
1000
0000
0000
0000
1000
0010
0000
0010
,
0000
1000
0000
1000
0000
0010
0000
0000
,
0000
1001
0000
1001
0000
0110
0000
0110
,
0000
0000
0000
0010
1000
0000
1000
0000
,
0001
0001
0100
0100
,
0010
0010
0000
1000
,
0100
0000
0010
0000
0001
0010
0000
0010
,
0001
0000
0001
0100
0000
0100
0000
0000
,
0000
0110
0000
0110
0000
1001
0000
1001
,
0000
0000
0000
0001
1000
0000
1000
0000
,
0010
0010
0100
0001
,
0000
0100
0100
0010
,
1000
0000
1000
0000
1000
0001
0000
0001
,
0000
0010
0000
0010
0000
0001
0000
0001
,
0100
0001
0000
1001
0000
1001
0000
0110
,
0000
0000
0110
0000
0000
0000
2002
0000
0000
0000
3003
0000
0000
0000
0000
0001
,
0000
0000
1000
0000
0000
0000
0001
1000
,
0000
0000
0000
0001
0000
0000
0000
0000
0000
0000
0000
0000
0000
0000
0220
0000
,
0000
0000
0330
0000
0000
0000
0000
0100
0000
0000
0000
0000
0010
0000
0000
0000
,
0000
0000
0000
0000
0100
0000
0010
0000
0000
0000
0000
0100
0000
0000
0000
0000
,
0000
0000
0000
0000
0000
0000
2002
0000
0000
0000
3003
0000
0000
0000
0000
0001
,
0000
0000
1000
0000
0000
0000
0001
1000
,
0000
0000
0000
0001
0000
0000
0000
0000
0000
0000
0000
0000
0000
0000
0220
0000
,
0000
0000
0330
0000
0000
0000
0000
0010
0000
0000
0000
0000
0100
0000
0000
0000
,
0000
0000
0000
0000
0010
0000
0100
0000
0000
0000
0000
0010
0000
0000
0000
0000
,
0000
0000
0000
0100
0000
0000
0000
0000
,
0000
0000
0000
0000
;

//---------------dance-single - ----------------
#NOTES:
     dance-single:
     aurae:
     Medium:
     5:
     0.000,0.000,0.000,0.000,0.000:
0000
0000
0000
0000
,
0000
0000
0000
0000
,
0000
0000
0000
0000
,
0000
0000
0001
0000
0000
0000
0000
0001
0000
0000
0000
0000
0001
0000
0000
0000
,
0000
0000
0000
0000
1000
0000
0001
0000
0000
0000
0000
1000
0000
0000
0000
0000
,
0000
0000
0000
1000
0100
0000
1000
0000
,
0001
1000
1020
0000
,
0130
0010
1000
1000
,
0001
0000
0000
0000
0010
0001
0000
0100
,
0000
0100
0000
1002
0000
0000
0000
0103
,
0000
0001
0000
1000
0000
0010
1000
0010
,
0000
0100
0000
0010
1000
0000
0010
0000
,
0100
0001
0011
1001
,
0010
0000
1000
0010
0100
0000
0010
0000
,
1000
0000
0001
0100
0001
0100
0010
0000
,
1000
1010
1001
0100
,
0001
0010
0100
0000
1000
0001
1000
0001
,
0100
0000
0001
1000
0010
0000
1000
0010
,
0100
0001
0010
0001
0000
0010
0001
0010
,
0000
1001
0000
1001
0000
1001
0000
0200
,
0000
0000
0300
0001
0100
0000
0010
1000
,
0000
0010
1000
0000
0100
0000
0010
0000
,
0001
0200
0001
0301
,
0100
0000
0010
0000
1000
0001
0000
1000
,
0100
0000
1000
0010
0000
0100
0000
0001
,
0000
0202
0000
0303
0000
1001
0000
0020
,
0000
0000
0030
1000
0010
0000
0100
0010
,
0000
1000
0001
0000
0100
0001
0020
0000
,
0030
0001
0100
0000
0100
0000
0001
0000
,
1001
0000
1000
0000
0010
1000
0000
0001
,
0000
0100
0000
0001
0000
0001
0010
0100
,
1000
0010
0000
1010
0000
1010
0000
0002
,
0000
0000
0003
0100
0001
0000
1000
0010
,
0000
0100
0010
0000
1000
0000
0100
0000
,
0010
0000
0011
0000
0000
1000
0001
0000
,
1000
0000
0001
0000
0100
0010
0000
1000
,
0010
0000
0100
0001
0000
0010
0000
0001
,
0100
0001
1000
0100
1000
0010
0000
2002
,
0000
3003
0001
0100
0000
0010
1000
0000
,
0001
0010
0001
0000
0100
0010
2000
0000
,
0001
0000
0010
0000
3010
0000
1000
0001
,
0100
0000
0001
1000
0010
0100
0000
0001
,
0000
1000
0000
1010
0000
0011
0000
1001
,
0000
0101
0000
1100
0000
1001
0000
0110
,
0000
0000
0110
0000
0000
0000
1001
0000
0000
0000
0100
0000
0000
0000
0000
0100
,
0000
0000
0100
0000
0000
0000
0010
0010
,
0000
0000
0000
0010
0000
0000
0000
0000
0000
0000
0000
0000
0000
0000
1001
0000
,
0000
0000
1001
0000
0000
0000
0000
1000
0000
0000
0000
0000
1000
0000
0000
0000
,
0000
0000
0000
0000
0001
0000
0001
0000
0000
0000
0000
0001
0000
0000
0000
0000
,
0000
0000
0000
0000
0000
0000
0110
0000
0000
0000
0110
0000
0000
0000
0000
0100
,
0000
0000
0100
0000
0000
0000
0010
0010
,
0000
0000
0000
0010
0000
0000
0000
0000
0000
0000
0000
0000
0000
0000
1100
0000
,
0000
0000
0011
0000
0000
0000
0000
1000
0000
0000
0000
0000
1000
0000
0000
0000
,
0000
0000
0000
0000
0001
0000
0001
0000
0000
0000
0000
0100
0000
0000
0000
0000
,
0000
0000
0000
1001
0000
0000
0000
0000
,
0000
0000
0000
0000
;

//---------------dance-single - ----------------
#NOTES:
     dance-single:
     aurae:
     Hard:
     8:
     0.000,0.000,0.000,0.000,0.000:
0000
0000
0000
0000
,
0000
0000
0000
0000
,
0000
0000
0000
0000
,
0000
0000
0001
0000
0000
0000
0000
0001
0000
0000
0000
0000
1000
0000
0000
0000
,
0000
0000
0000
0000
0100
0000
0010
0000
0000
0000
0000
0001
0000
0000
0000
0000
,
0000
0000
0000
1002
1000
0000
0100
0000
,
1000
0013
0011
0001
,
1000
0100
1000
0000
0010
0000
0010
0000
,
0200
0000
0001
0000
0310
0100
0000
0001
,
1000
0010
0000
0010
0000
1000
0000
0100
,
0000
1100
0000
1000
0100
0010
0001
0010
,
0000
0000
0001
0000
0000
0000
0100
0001
0100
0000
0000
0000
0001
0000
0000
0000
,
0101
0000
0000
0000
0000
0000
1001
0000
0000
0000
0000
0000
1000
0000
0000
0010
0000
0000
0100
0000
0010
0000
1000
0000
,
0100
0000
0100
1000
0001
0000
0010
0000
,
0001
0000
0001
0100
0010
0000
0100
0001
,
1000
1100
1010
1001
,
0001
0010
0001
0000
0100
0010
1000
0100
,
0010
0001
1000
0100
0001
0010
0100
1000
,
0010
0100
0001
0100
0000
0000
0000
0001
,
1000
0100
0000
1100
0000
1100
0000
1002
,
0000
0013
0001
0100
0100
0000
0001
1000
,
0000
0010
1000
0000
0100
0010
0001
0001
,
0100
0201
0010
0301
,
0100
0000
0010
0000
1000
0100
0020
0000
,
0031
0100
1000
0200
0000
0001
0000
0001
,
0301
0100
0001
0100
0000
0101
0000
1001
,
0000
1000
0100
0010
0100
0000
1000
0100
,
0000
1000
0010
0100
0010
1000
0020
0000
,
0100
0000
0001
0000
1030
0100
0010
0001
,
0200
0000
0001
0000
0010
0001
0000
0310
,
0000
0001
0100
0010
1000
0100
0000
1100
,
0000
0000
1001
0000
0000
0000
0010
0000
0001
0010
0001
0000
1000
0000
0001
0000
,
0100
0010
0000
1000
0100
0100
1000
0000
,
1000
0010
0100
0000
0001
0000
0101
0000
,
1100
1020
0100
0031
,
0010
1000
0001
0000
0100
0001
0010
0001
,
2000
0000
0010
0100
0000
0001
0000
0001
,
0000
0000
3010
0000
0000
0000
1000
0000
0001
1000
0010
0000
0000
0000
0102
0000
,
0000
0100
0000
0013
0001
0100
0001
0000
,
1000
0000
1010
0000
0010
0100
0020
0000
,
1030
0100
0010
0010
0100
1000
0010
0000
,
1000
0100
0001
0001
0100
1000
0000
1000
,
0010
1000
0100
1000
0001
0010
0001
0100
,
0010
1001
0000
1100
0000
0101
0000
0110
,
0100
0000
0001
0000
0010
0000
0001
0000
0100
0000
0010
0000
0000
0000
0000
0101
,
0000
0000
1001
0000
0000
0000
0010
1100
,
0000
0000
0000
1001
0000
0000
0000
0000
0000
0000
0000
0000
0000
0000
0022
0000
,
0033
0000
0011
0000
0000
0000
0000
1100
0000
0000
0000
0000
1001
0000
0000
0000
,
0000
0000
0000
0000
0010
0000
0101
0000
0000
0000
0000
1001
0000
0000
0000
0000
,
0000
0000
0000
0000
0000
0000
2200
0000
3300
0000
1100
0000
0000
0000
0000
1010
,
0000
0000
0110
0000
0000
0000
0001
1010
,
0000
0000
0000
1001
0000
0000
0000
0000
0000
0000
0000
0000
0000
0000
0220
0000
,
0330
0000
0110
0000
0000
0000
0000
1001
0000
0000
0000
0000
0101
0000
0000
0000
,
0000
0000
0000
0000
1000
0000
0011
0000
0000
0000
0000
1001
0000
0000
0000
0000
,
0000
0000
0000
0110
0000
0000
0000
0000
,
0000
0000
0000
0000
;
