#TITLE:Camm aven;
#SUBTITLE:;
#ARTIST:the cabs;
#CREDIT:;
#MUSIC:cammaven.mp3;
#SELECTABLE:YES;
#BACKGROUND:cammaven-bg.png;
#BANNER:cammaven.png;
#CDTITLE:!auraesimfilesmix2.png;
#DISPLAYBPM:192.000:216.000;
#OFFSET:-0.11449;
#SAMPLESTART:33.125;
#SAMPLELENGTH:19.435;
#BPMS:0=213.663,1=232.923,3=197.345,4=209.335,5=201.186,6=188.677,8=211.883,9=216.318,10=188.677,11=216.318,12=207.627,13=196.641,14=199.608,16=195.826,17=192.185,18=211.883,19=203.538,20=207.627,21=192.185,22=188.677,23=207.627,24=203.538,25=179.56,26=207.627,28=203.538,29=207.627,30=199.608,31=195.826,32=216.318,33=195.826,34=207.627,35=199.608,36=200.455,37=192.185,38=211.883,39=192.185,40=211.883,41=192.185,42=203.538,43=195.826,45=203.538,47=211.883,48=195.826,49=196.641,50=199.608,51=195.826,52=207.627,54=216.318,55=188.677,56=207.627,57=192.185,58=195.826,60=207.627,62=199.608,63=192.185,64=199.608,65=192.97,66=203.538,69=199.608,71=195.826,72=203.538,73=195.826,74=203.538,75=207.627,76=199.608,78=195.826,79=196.641,80=211.883,81=216.318,82=207.627,83=182.031,84=216.318,85=188.677,86=203.538,87=192.185,88=199.608,89=204.419,90=204.245,91=195.176,92=195.826,94=188.677,95=195.884,96=207.562,97=203.538,99=199.608,100=188.677,101=199.608,103=206.059,104=193.903,105=199.864,106=192.422,107=199.067,108=186.733,109=138.375,110=182.621,111=206.638,112=213.318,113=199.247,114=200.896,115=204.862,116=197.066,117=204.309,118=201.462,119=191.323,120=198.678,121=209.021,122=189.827,123=204.878,124=202.572,125=200.896,126=191.323,127=200.896,128=191.323,129=200.896,131=213.956,132=198.693,133=197.61,134=204.277,135=191.337,136=213.956,137=209.021,138=188.354,139=206.622,140=209.021,141=200.881,142=200.896,143=203.163,144=203.148,145=187.966,146=207.237,147=199.232,148=204.878,149=198.678,150=206.638,151=194.931,152=203.148,153=199.232,154=199.247,155=184.018,156=200.896,158=198.678,159=207.221,160=207.237,161=200.881,162=200.896,166=200.881,167=200.896,168=191.323,169=191.337,170=200.881,171=191.337,172=213.318,173=200.896,174=223.216,175=102.63,176=100.448,177=100.865,178=184.108,179=206.719,180=202.665,181=201.877,182=206.719,183=187.926,184=202.665,185=206.719,186=195.018,187=198.768,188=203.899,189=208.363,190=188.234,191=190.992,192=189.827,193=196.758,194=193.026,195=195.018,196=187.926,197=216.071,198=189.257,199=210.938,200=191.406,201=202.665,202=187.926,203=195.855,204=191.406,205=201.079,206=206.719,207=191.406,208=195.018,209=191.406,210=198.768,211=185.984,212=202.665,213=208.675,214=198.277,215=197.271,216=192.59,217=175.185,218=202.665,219=195.018,220=207.351,221=191.836,222=176.083,223=178.506,224=197.271,225=191.337,226=200.881,227=202.588,228=213.318,229=208.346,230=195.018,232=185.645,233=203.899,234=200.576,235=190.073,236=203.273,237=189.474,238=208.199,239=189.528,240=217.366,241=198.678,242=194.559,243=188.1,244=194.53,245=185.723,246=193.082,247=223.631,248=195.018,249=191.406,250=196.233,251=196.919,252=191.337,253=203.148,254=198.678,255=191.337,256=211.46,257=200.896,258=191.323,259=200.896,260=187.846,261=204.878,262=191.323,263=189.325,264=203.148,265=191.323,266=191.337,267=191.323,268=200.896,269=178.134,270=197.066,271=200.318,272=181.27,273=187.846,274=189.311,275=189.325,276=191.323,277=182.634,278=191.323,279=180.393,280=200.896,281=197.095,282=197.419,283=212.445,284=213.335,285=211.46,286=178.579,287=196.524,288=200.896,289=189.827,290=198.678,291=203.148,292=186.404,293=206.622,294=198.693,295=207.221,296=197.066,297=200.881,298=191.337,299=203.148,300=191.323,301=197.066,302=192.857,303=213.335,304=215.227,305=193.379,306=193.903,307=207.286,308=200.5,309=192.618,310=211.46,311=182.634,312=211.46,313=200.896,314=191.323,315=191.337,316=200.881,317=191.337,318=206.622,319=209.021,320=195.464,321=193.379,322=223.216,323=211.46,325=204.878,326=213.335,327=195.464,328=200.896,331=211.46,332=191.323,333=209.021,334=215.894,335=215.877,336=193.974,337=200.896,338=191.323,339=200.896,340=200.881,341=182.634,342=211.46,343=191.337,344=200.896,345=182.621,346=211.477,347=200.881,348=200.896,350=207.221,351=197.066,352=189.325,353=191.323,354=211.46,355=187.859,356=189.813,357=180.812,358=217.152,359=186.404,360=199.232,361=191.337,362=191.323,363=200.333,364=191.836,365=182.634,366=180.282,367=167.798,368=158.605,369=149.737,370=139.073,371=120.333,372=108.589,373=95.6651,374=83.705,375=81.9982,376=87.344;
#STOPS:;

//---------------dance-single - ----------------
#NOTES:
     dance-single:
     :
     Easy:
     4:
     0.000,0.000,0.000,0.000,0.000:
0000
0000
0000
0000
,
0000
0000
0000
0001
,
0001
0001
0001
1000
,
1000
0100
0100
0000
,
1000
0000
0010
0000
,
1000
0001
0000
0100
,
0000
0001
1000
0001
,
0100
0100
0100
0100
,
0010
0000
1000
0001
,
0001
0001
0001
1000
,
0000
0001
1000
1000
,
0100
0100
1000
0000
,
0010
1000
1000
0100
,
0100
1000
0000
0001
,
0100
0100
0010
0010
,
0100
0000
0001
1000
,
1000
0010
1000
0100
,
0000
1000
0010
0010
,
1000
1000
0001
0000
,
0100
0001
0001
0010
,
0000
0001
0100
0001
,
1000
0100
1000
0100
,
1000
0000
0010
0000
1000
0001
0000
1000
,
0000
0001
0000
1000
0000
0001
0000
1000
,
0000
0001
0010
0000
0001
0000
0010
0000
,
0001
0000
0010
0000
0001
0000
0100
0001
,
0000
0100
0000
0001
0000
0100
0000
0001
,
0000
1000
0000
0000
0001
0000
0000
0100
,
0000
0010
0000
1000
,
0001
0000
0010
1000
,
0010
0000
1000
0000
,
0001
0100
0001
0100
,
0010
0000
0010
1000
,
0001
0000
0010
0001
,
0000
0100
0001
1000
,
0000
0101
0000
0011
,
0000
1000
0001
1000
,
0010
0000
0100
0000
,
0010
1000
0000
1000
,
0000
0001
0100
0001
,
0010
0000
0010
0001
,
0000
0100
0001
1000
,
0000
1100
0000
0001
,
0000
1000
0000
0001
,
0000
0000
0010
0010
,
0001
0000
0000
1000
0000
1000
0000
0010
,
0000
1000
0000
0000
0000
0001
0000
0100
,
0000
0000
0000
0001
0000
1000
0000
0010
,
0000
0010
0000
0000
0100
0000
0100
0000
,
0001
0010
0000
0001
,
1000
0000
0100
1000
,
0010
0000
0010
0000
0000
0100
0000
0001
,
0000
0001
0000
1000
0000
0000
0000
0010
,
0000
1000
0000
0000
0000
0100
0000
0010
,
0000
0010
0000
0001
0000
0000
1000
0000
,
0001
0000
1000
0000
0000
0001
0000
0000
,
0200
0000
0000
0000
,
0000
0300
0000
0000
,
0001
0000
1000
0000
0001
1000
0000
0001
,
0000
0000
0100
0000
0010
0000
0100
0010
,
0000
0100
0000
0000
0000
0000
0000
0000
,
0001
0000
1000
0000
0001
1000
0000
0001
,
0000
0000
2001
0000
,
0000
0000
3020
0000
,
0000
0000
0230
0000
,
0000
0000
0302
0000
,
2003
0000
3200
0000
,
0000
0000
0320
0000
,
0000
0000
0031
0000
,
0000
0000
0000
0100
,
0001
1000
1000
0010
,
1000
0100
1000
1000
,
0010
0100
0001
0000
,
1000
0001
0010
0010
,
0001
0000
0001
0100
,
0001
0000
1100
0000
,
0101
0000
1000
0010
,
0010
1000
0100
1000
,
0000
0001
0100
0000
,
0001
0000
0010
0000
,
0001
0100
0100
0010
,
0010
1000
1000
0001
,
1000
0000
0100
0000
,
1000
0000
0010
0000
,
0100
0100
0100
0001
,
1000
1000
0010
1000
,
0001
0010
0010
0001
,
0100
0001
1000
0001
,
1000
0010
0100
0100
,
0010
1000
0001
0000
,
1000
0000
0001
0000
1000
0001
0000
1000
,
0001
1000
2002
0000
,
0000
0000
0000
0000
,
0000
0000
3003
0000
,
0000
0000
0000
0000
;

//---------------dance-single - ----------------
#NOTES:
     dance-single:
     :
     Medium:
     6:
     0.000,0.000,0.000,0.000,0.000:
0000
0000
0000
0000
,
0000
0000
0000
0001
,
1000
0010
0000
1000
0000
0001
0000
0100
,
0001
0000
1000
0000
0010
0000
1000
0010
,
0000
1000
0000
0001
0000
0100
0010
0000
,
1000
0000
0001
0000
1000
0100
0000
0010
,
0000
0001
0000
1000
0001
0000
0100
0000
,
0010
1000
0001
1000
,
0100
0000
1000
0010
1000
0000
0001
0000
,
0010
0001
0100
0010
,
1000
0001
1000
0000
0001
0000
0010
0000
,
0001
0000
0100
0000
0010
0000
0100
0010
,
0100
0010
1000
0100
,
1000
0000
0001
0010
0001
0010
0001
0000
,
0100
0010
1000
0010
,
0100
0000
0010
1000
0001
0000
1000
0000
,
0100
0000
1000
0000
0001
0000
0010
0001
,
0100
0001
0010
0000
0100
0000
1000
0000
,
0001
0000
1000
0000
0010
0000
0100
0010
,
0100
0010
1000
0001
,
0010
0100
1000
0010
,
1000
1000
0001
0001
,
1000
0000
0001
0000
1000
0010
0000
0010
,
0000
0100
0000
0100
0000
0010
0000
0100
,
0000
0010
1000
0000
1000
0000
0001
0000
,
0001
0000
0010
0000
0001
0000
0100
0001
,
0000
1000
0000
0010
0000
0100
0000
0010
,
0000
0000
0000
1000
0000
0000
0000
0000
0001
0000
1000
0000
0001
0000
0000
0000
0000
0000
0000
0000
0000
0101
0000
0000
,
0000
1001
0000
0110
,
2002
3003
1000
0010
,
0100
0010
1000
0001
,
0001
0010
0001
0000
0100
0000
0010
0000
,
1000
0000
0100
0000
1000
0010
1000
0010
,
1000
0001
0100
0100
,
0010
0000
1000
0000
0010
0100
0010
0000
,
1000
0100
1000
0001
,
0100
0001
1000
0001
,
0010
0000
0001
0100
0001
0000
1000
0001
,
1000
0010
0010
0100
,
0010
0000
1000
0100
1000
0100
1000
0000
,
0001
0010
0100
1000
,
0010
0100
0001
1000
,
0000
1000
0100
0000
1000
0001
0000
0001
,
0100
0000
0000
1001
0000
0000
0110
0000
,
0000
0000
0001
0010
,
0100
0000
1000
0001
0000
0010
0000
0100
,
0000
1000
0000
0010
0000
0100
0000
0001
,
0000
0100
0000
0010
0000
1000
0000
0100
,
0000
0010
0000
0001
1000
0000
0100
0000
,
0010
0001
0100
0010
,
1000
0100
0010
0001
,
0100
0000
0010
0000
1000
0001
0000
0100
,
0000
0010
0000
1000
0000
0001
0000
0010
,
0000
0001
0000
1000
0000
0010
0000
1000
,
0000
0010
0000
0100
0000
0001
1000
0000
,
0010
0000
0200
0000
0000
0302
0000
0000
,
2003
0000
3001
0000
,
1000
0001
0100
0000
,
0010
0000
1000
0000
0010
1000
0000
0010
,
0000
0000
0100
0000
0001
0000
0100
0001
,
0000
0100
0001
0000
1000
0000
0001
0000
,
1000
0000
0010
0000
1000
0100
0000
1000
,
0100
0000
1000
0000
0102
0000
0000
0100
,
0000
0000
0003
0000
2001
0000
0000
0001
,
0000
0000
3000
0000
0210
0000
0000
0010
,
0000
0300
1020
0000
,
0230
0000
0000
0000
0302
0000
0000
0010
,
0000
0000
1003
0000
2001
0000
0000
0010
,
0000
3100
1001
0000
,
0000
0000
0000
0001
,
0010
0001
0100
0010
,
0010
1000
0010
0000
1000
0000
1000
0000
,
0100
0000
1000
0000
0001
1000
0001
0000
,
1000
0100
1000
0010
,
0010
0000
0100
0010
0100
0000
0010
0000
,
1000
0001
0100
0001
,
1000
0010
1000
0100
,
0010
0001
1000
0001
,
0100
0001
0100
0000
0001
0000
1000
0000
,
1000
0000
0010
0000
0100
0010
0100
0000
,
0010
1000
0001
0001
,
1000
0010
0000
0010
1000
0000
0100
0000
,
1000
0100
1000
0000
0001
0100
0001
0000
,
1000
0010
1000
0000
0001
0010
0001
0000
,
0100
0001
0100
0001
0000
0001
1000
0000
,
0010
0010
1000
1000
,
0001
0100
0001
0100
0000
0100
0010
0000
,
1000
0010
1000
0000
,
0100
0000
0100
1000
0000
1000
0001
0000
,
0010
0010
0001
0000
,
1000
0001
1000
0000
0001
1000
0000
0001
,
1000
0110
2002
0000
,
0000
0000
0000
0000
,
0000
0000
3003
0000
,
0000
0000
0000
0000
;

//---------------dance-single - ----------------
#NOTES:
     dance-single:
     :
     Hard:
     9:
     0.000,0.000,0.000,0.000,0.000:
0000
0000
0000
0000
,
0000
0000
0000
0000
0000
0000
1000
0010
,
1000
0001
0000
0010
0000
0001
0100
0001
,
0100
0000
1001
0000
1000
0000
1000
0001
,
0010
0001
0000
0010
0001
0100
0001
0000
,
0110
0000
1000
0010
1000
0100
1000
0001
,
0010
0001
0100
0001
1000
0000
0001
0010
,
0100
0000
1000
0000
0001
0000
0100
0001
,
1000
0000
0001
0000
0100
0001
1000
0000
,
0010
0000
1000
0000
0001
0010
0100
0000
,
0010
0000
0001
0010
0100
0000
1000
0000
,
0001
0000
0100
0010
1000
0000
0001
0000
,
0100
0010
1000
0000
0100
0000
0010
0000
,
0001
1000
0001
1000
0200
0000
0300
0000
,
0010
0000
0001
0000
0101
0000
0010
0100
,
0001
0000
1000
0000
0010
0100
0001
0000
,
1000
0000
1100
0000
1000
0100
0001
0000
,
0100
0000
0010
0001
0100
0000
0010
0000
,
1010
0000
1000
0010
0100
0000
0001
0000
,
1000
0010
0100
0000
0001
0000
1000
0000
,
0010
1000
0100
0000
1000
0000
0001
0000
,
1001
0011
1001
1010
,
1001
0000
0101
0000
0001
1000
0000
1010
,
0000
1001
0000
0011
0000
0110
0000
1100
,
0000
1000
0100
0000
0011
0000
0101
0000
,
1001
0000
1010
0000
0110
0000
0001
0010
,
0000
0110
0000
1100
0000
1001
0000
1010
,
0000
0000
0000
0001
0000
0000
1000
0000
0001
0000
1000
0000
0010
0000
0000
0000
0000
0000
0100
0000
0000
0001
0000
0000
,
1000
0001
0010
0100
0000
1000
0001
0001
,
0100
0001
1000
0000
0010
0000
1100
0000
,
0010
0000
0101
0000
0001
1000
0010
0000
,
0100
0001
1000
0100
0010
0000
1100
0000
,
0010
0000
0101
0000
1000
0001
1000
0001
,
0200
0000
0001
0000
0301
0100
0020
0000
,
1000
0031
1000
1100
,
0010
0101
0010
1100
,
1001
0110
0001
1100
,
1000
0101
0010
1001
,
0001
0100
0010
0000
1000
0000
0010
1000
,
0100
1000
0001
0000
0100
0001
0010
0001
,
1000
0000
1000
0000
0001
0010
0001
0000
,
0100
0000
0100
0010
1000
0000
1100
0000
,
0000
0000
0101
0000
0000
0001
0000
1000
,
0100
0000
0000
1000
0000
0010
1000
0000
,
0000
0000
0010
0100
,
0001
0000
1000
0100
0000
1000
0000
1010
,
0000
0100
0000
0001
0000
0010
0001
0010
,
0000
0001
0000
1001
0000
0100
0000
0010
,
0000
1000
0000
0001
0010
0000
0001
0000
,
1100
0000
1000
0000
0010
0000
0100
0001
,
0100
0000
0010
1000
0100
0000
1000
0000
,
0010
0000
0110
0000
0100
0001
0000
1000
,
0000
1001
0000
0100
0000
0010
0000
0001
,
1000
0100
1000
0001
0000
0010
0000
0100
,
0000
1000
0000
0010
0000
0100
0001
0000
,
0010
0000
0101
0000
0000
0001
1000
0010
,
0200
0000
0302
0000
,
1003
0000
0000
0000
0001
0000
0000
0000
1000
0000
0000
0001
0000
0000
0100
0000
,
0001
1000
0001
0000
0001
1000
0000
0100
,
0000
0000
1000
0010
1000
0000
0001
0100
,
0000
0100
0010
1000
0200
0000
0300
0000
,
1000
0001
1000
0000
0100
0010
0000
0001
,
0200
0000
0302
0000
1003
0000
0010
1000
,
0010
0000
1000
0000
0001
0000
0001
0100
,
0001
0000
0100
0000
0100
0000
0010
1000
,
0100
0000
0100
0000
1000
0001
1000
0001
,
0100
0001
1000
0010
1000
0000
0100
1000
,
0010
0000
1000
0000
1000
0000
0001
0010
,
0100
0010
0002
0203
,
0320
2030
3200
0310
,
0100
1000
0010
0000
0100
0000
0001
0000
,
0001
0010
0001
0000
1000
0000
0010
0100
,
0010
0000
1000
0010
0000
0100
0001
0000
,
0100
0010
2000
0000
0001
0000
3001
1000
,
0200
0001
1300
1000
,
0110
0001
0110
1000
,
0110
0000
0001
0010
0100
0000
1000
0000
,
0010
1000
0100
1000
0001
0010
0001
0000
,
0100
0001
1000
0000
0010
0000
0100
0010
,
1000
0001
0100
0010
0000
0010
0100
0000
,
0010
1000
0100
0000
1000
0000
1000
0001
,
0100
0001
0000
0100
0001
0000
1001
0000
,
1000
0010
1000
0001
0000
0101
0000
1000
,
0001
1000
0001
1000
0100
0010
0001
0100
,
0010
0000
0000
1000
0000
0000
0010
0000
0100
0000
0001
0000
0001
0000
0000
0000
,
0010
0000
0000
0100
0000
0000
1000
0000
0001
0000
0100
0000
0100
0000
0000
0000
,
0010
0000
0000
0100
0000
0000
0001
0000
0100
0000
0010
0000
0010
0000
0000
0000
,
1000
0001
0100
0001
1000
0010
0100
0001
,
1000
0000
0000
0010
0000
0000
0100
0000
0010
0000
1000
0000
1000
0000
0000
0000
,
0001
0000
0100
0010
0100
0000
0001
0000
0000
0000
1000
0000
0001
0000
0000
0000
,
1000
0001
1000
0000
0001
0000
0000
0000
0100
0000
0010
0000
0000
0000
0010
0000
,
1000
0001
0100
0000
2002
0000
0000
0000
,
0000
0000
0000
0000
,
0000
0000
3003
0000
,
0000
0000
0000
0000
;
