#TITLE:CONTROL;
#SUBTITLE:;
#ARTIST:Oliver;
#TITLETRANSLIT:;
#SUBTITLETRANSLIT:;
#ARTISTTRANSLIT:;
#GENRE:;
#CREDIT:;
#MENUCOLOR:;
#METERTYPE:DDR;
#BANNER:control.png;
#BACKGROUND:control-bg.png;
#LYRICSPATH:;
#CDTITLE:!auraesimfilesmix2.png;
#MUSIC:control.mp3;
#OFFSET:0.021;
#SAMPLESTART:14.635;
#SAMPLELENGTH:15.360;
#SELECTABLE:YES;
#LISTSORT:;
#DISPLAYBPM:125.000:63.000;
#BPMS:0.000=125.000,96.000=62.500,112.000=125.000;
#STOPS:;
#BGCHANGES:;
#ATTACKS:;

//---------------dance-single - aurae----------------
#NOTES:
     dance-single:
     aurae:
     Easy:
     3:
     0.204,0.204,0.057,0.105,0.000: // measure 1
0000
0000
0000
0000
,  // measure 2
0000
0000
0000
0000
,  // measure 3
0000
0000
0000
0000
,  // measure 4
0000
0000
0000
0000
,  // measure 5
1001
0000
0000
0000
,  // measure 6
1001
0000
0000
0000
,  // measure 7
1001
0000
0000
0000
,  // measure 8
1001
0000
0000
0000
,  // measure 9
0010
0010
0010
0000
,  // measure 10
0010
0010
0010
0000
,  // measure 11
1000
1000
1000
0000
,  // measure 12
0001
0100
0001
0100
,  // measure 13
0001
0001
0001
0000
,  // measure 14
1000
1000
1000
0000
,  // measure 15
0001
0001
0001
0000
,  // measure 16
0010
0001
0100
0001
,  // measure 17
0010
0010
0010
0001
,  // measure 18
0010
0010
0010
0001
,  // measure 19
1000
1000
1000
0100
,  // measure 20
1000
0010
1000
0000
,  // measure 21
0100
0100
0100
1000
,  // measure 22
0100
0100
0100
0010
,  // measure 23
0100
0100
0100
1000
,  // measure 24
0001
0000
0000
0000
,  // measure 25
2000
3000
0002
0003
,  // measure 26
0200
0300
0000
0000
,  // measure 27
0002
0003
0020
0030
,  // measure 28
0002
0003
2000
3000
,  // measure 29
0010
0000
0010
0000
,  // measure 30
1000
1000
1000
1000
,  // measure 31
0100
0000
0100
0000
,  // measure 32
1000
1000
1000
1000
,  // measure 33
0001
0001
0001
0000
,  // measure 34
0100
0100
0100
0100
,  // measure 35
0010
0010
0010
0000
,  // measure 36
1001
0000
1001
0000
,  // measure 37
0001
0001
0001
0100
,  // measure 38
0001
0001
1000
1000
,  // measure 39
0010
0010
0010
0100
,  // measure 40
0001
0001
0010
0010
,  // measure 41
0100
0100
0100
1000
,  // measure 42
0001
0001
0100
0100
,  // measure 43
0010
0010
0010
0010
,  // measure 44
1000
1000
0100
0100
,  // measure 45
2000
3100
0000
0100
,  // measure 46
0002
0103
0000
0100
,  // measure 47
2000
3100
0000
0100
,  // measure 48
0002
0103
0000
0100
;

//---------------dance-single - aurae----------------
#NOTES:
     dance-single:
     aurae:
     Medium:
     5:
     0.292,0.380,0.048,0.114,0.033: // measure 1
0000
0000
0000
0000
,  // measure 2
0000
0000
0000
0000
,  // measure 3
0000
0000
0000
0000
,  // measure 4
0000
0000
0000
0000
,  // measure 5
0000
0000
0000
0000
,  // measure 6
0000
0000
0000
0000
,  // measure 7
0000
0000
0000
0000
,  // measure 8
1001
0000
0001
0000
0001
1000
0001
1000
,  // measure 9
0100
0000
0010
0000
0001
0000
1000
0001
,  // measure 10
0100
0000
0010
0000
0010
0000
1000
0010
,  // measure 11
1000
0000
0001
0000
0100
0000
0100
0001
,  // measure 12
1000
0000
1000
0001
1000
0001
0010
0000
,  // measure 13
0100
0000
1000
0000
0010
0000
1000
0001
,  // measure 14
0100
0000
0001
0000
1000
0001
1000
0000
,  // measure 15
0010
0000
1000
0000
0100
1000
0001
1000
,  // measure 16
0100
0000
0100
0000
0100
0010
0100
0010
,  // measure 17
0001
0000
0000
0100
0000
0000
0001
0000
0100
0000
0000
0000
0100
0000
0000
0000
,  // measure 18
0001
0000
0000
1000
0000
0000
0001
0000
1000
0000
0000
0000
1000
0000
0010
0000
,  // measure 19
1000
0000
0000
0010
0000
0000
0100
0000
0010
0000
0000
0000
1000
0000
0000
0000
,  // measure 20
0001
0000
0000
0010
0000
0000
0001
0000
0100
0000
0000
0000
1001
0000
0000
0000
,  // measure 21
1001
0000
0000
0001
0000
0000
0100
0000
0001
0000
1000
0000
0001
0000
0000
0000
,  // measure 22
0100
0000
0000
0010
0000
0000
1000
0000
0010
0000
0100
0000
0010
0000
0000
0000
,  // measure 23
1000
0000
0000
0100
0000
0000
0010
0000
0001
0000
0010
0000
0100
0000
1000
0000
,  // measure 24
0001
1000
0001
1000
0200
0000
0300
0000
,  // measure 25
2100
0000
3002
0000
,  // measure 26
0023
0000
0000
0000
,  // measure 27
0230
0000
0320
0000
,  // measure 28
0032
0000
2003
3000
,  // measure 29
1000
0001
1000
0001
,  // measure 30
0100
0010
0100
0010
0100
0000
0010
1000
,  // measure 31
0001
1000
0001
1000
,  // measure 32
0010
0100
0010
0100
0010
0000
1000
0000
,  // measure 33
0100
0010
0100
0010
,  // measure 34
0001
1000
0001
1000
0001
0000
0100
0000
,  // measure 35
0010
0000
1000
0000
0100
0000
1000
0001
,  // measure 36
0100
0100
0001
0001
0100
0000
0000
0000
,  // measure 37
0001
1000
0100
1000
0001
1000
0100
0000
,  // measure 38
1000
0000
0010
1000
0001
0000
0001
0100
,  // measure 39
0010
0000
0010
1000
0100
1000
0001
0000
,  // measure 40
0010
0001
0010
0000
0001
0100
0001
0000
,  // measure 41
1000
0010
0100
0010
1000
0010
0100
0000
,  // measure 42
0010
1000
0100
0000
1000
0001
0100
0000
,  // measure 43
0001
0010
0001
0100
0010
1000
0100
1000
,  // measure 44
0001
0100
0001
0000
0100
0001
0100
0001
,  // measure 45
2002
0000
3000
0000
,  // measure 46
0020
0000
0003
0000
,  // measure 47
0200
0000
0030
0000
,  // measure 48
0300
0000
0000
0000
;

//---------------dance-single - aurae----------------
#NOTES:
     dance-single:
     aurae:
     Hard:
     7:
     0.376,0.392,0.105,0.086,0.100: // measure 1
0000
0000
0000
0000
,  // measure 2
0000
0000
0000
0000
,  // measure 3
0000
0000
0000
0000
,  // measure 4
0000
0000
0000
0000
,  // measure 5
0000
0000
0000
0000
,  // measure 6
0000
0000
0000
0000
,  // measure 7
0000
0000
0000
0000
,  // measure 8
1000
0001
0020
0000
0030
0010
0001
1000
,  // measure 9
1100
1000
0010
1000
0001
0000
0001
0100
,  // measure 10
0100
0100
0001
0000
0010
0001
0100
0000
,  // measure 11
0100
0010
1000
0100
0100
0000
1000
0001
,  // measure 12
0100
0000
0000
0000
0001
0000
1000
0000
0001
0000
1000
0000
1000
0000
0000
0001
,  // measure 13
0100
0001
1000
0000
0101
0000
0001
0010
,  // measure 14
0100
1000
0010
0000
0100
0001
1000
0001
,  // measure 15
0001
0000
0010
0001
0100
0010
1000
0100
,  // measure 16
1000
0000
0000
1000
0001
0000
1000
0000
0001
0000
1000
0000
1000
0000
0001
0000
,  // measure 17
0101
0000
0100
0001
0010
0010
0001
0100
,  // measure 18
0100
0000
0010
1000
0100
1000
1000
0000
,  // measure 19
0001
1000
0010
0010
1000
0100
0100
1000
,  // measure 20
0001
0000
0000
0000
0100
0000
0010
0000
1000
0000
0000
0000
1010
0000
0000
1000
,  // measure 21
0001
0000
0001
1000
1000
0001
0010
0001
,  // measure 22
0100
0000
0100
0001
0010
0000
0001
0000
,  // measure 23
1000
0100
1000
0100
1000
0000
0001
0100
,  // measure 24
0001
0000
0000
0001
1000
0000
0001
0000
0001
0000
1000
0000
0001
0000
1000
0000
,  // measure 25
0120
0030
2000
3000
,  // measure 26
0200
0000
0000
0000
0000
0000
0301
0100
,  // measure 27
2000
0000
3010
0010
0002
0000
0013
0010
,  // measure 28
2000
0000
0000
0000
3000
0000
0000
0000
0020
0000
0000
0000
0030
0100
0010
0100
,  // measure 29
0001
0000
0000
0000
0001
0000
0000
0000
0001
0000
0000
0000
0010
0000
0000
0001
,  // measure 30
0000
1000
0000
0000
0001
0000
1000
0000
0100
0000
0000
1000
0000
0010
0000
0000
,  // measure 31
1000
0000
0000
0000
1000
0000
0000
0000
1000
0000
0000
0000
0001
0000
0000
0100
,  // measure 32
0000
0010
0000
0000
1000
0000
0010
0000
0100
0000
0000
0001
0000
0001
0000
0000
,  // measure 33
0100
0000
0000
0000
0110
0000
0000
0000
0010
0000
0000
0000
1010
0000
0000
1000
,  // measure 34
0000
0001
1000
0000
0001
0000
0010
0000
0100
0000
0000
1000
0000
0100
0000
0000
,  // measure 35
0010
0000
0000
0000
0011
0000
0000
0000
0001
0000
0000
0000
1001
0000
0000
1000
,  // measure 36
0000
0010
1000
0000
0010
0000
0000
1000
0010
0000
1000
0000
0001
0000
0001
0000
,  // measure 37
0100
0000
0101
0000
0001
1000
0100
1000
,  // measure 38
0010
0010
0100
0001
0001
1000
0100
1000
,  // measure 39
0010
0000
0010
0000
1000
0100
1000
0001
,  // measure 40
0100
0000
0011
0000
0001
0100
0010
1000
,  // measure 41
0100
0000
0010
0001
0100
0100
0001
1000
,  // measure 42
1000
0001
0100
0000
0010
1000
0100
1000
,  // measure 43
0001
0000
0001
0010
0001
0100
0100
0010
,  // measure 44
1000
0001
1000
0000
0001
1000
1000
0001
,  // measure 45
1000
0100
1000
0000
0001
0100
0001
0000
,  // measure 46
1000
0001
1000
0000
0001
0010
0001
0000
,  // measure 47
0010
0100
0010
0000
0100
1000
0100
0000
,  // measure 48
1000
0001
1000
0000
0001
0100
1000
0000
,  // measure 49
0200
0000
0300
0000
;
