#TITLE:COLLAPSING CITIES feat. Shy FX;
#SUBTITLE:;
#ARTIST:Get Cape. Wear Cape. Fly.;
#TITLETRANSLIT:;
#SUBTITLETRANSLIT:;
#ARTISTTRANSLIT:;
#GENRE:;
#CREDIT:;
#MENUCOLOR:;
#METERTYPE:DDR;
#BANNER:collapsingcities.png;
#BACKGROUND:collapsingcities-bg.png;
#LYRICSPATH:;
#CDTITLE:!auraesimfilesmix2.png;
#MUSIC:collapsingcities.mp3;
#OFFSET:0.025;
#SAMPLESTART:46.035;
#SAMPLELENGTH:19.720;
#SELECTABLE:YES;
#LISTSORT:;
#DISPLAYBPM:146.000;
#BPMS:0.000=146.000,240.000=145.000,248.000=142.000,252.000=139.000;
#STOPS:;
#BGCHANGES:0.000=collapsingcities.avi=1.000=1=0=0,
99999=-nosongbg-=1.000=0=0=0 // don't automatically add -songbackground-
;
#ATTACKS:;

//---------------dance-single - aurae----------------
#NOTES:
     dance-single:
     aurae:
     Easy:
     3:
     0.228,0.264,0.009,0.009,0.000:
0000
0000
0000
0000
,
0000
0000
0000
0000
,
0000
0000
0000
0000
,
0000
0000
0000
0000
,
0001
0000
0000
0001
,
0001
0000
1000
1000
,
0010
0000
0000
1000
,
0100
0000
1000
0001
,
0010
0000
0000
0001
,
0100
0000
0100
0100
,
0010
0000
0000
1000
,
0001
0000
0100
0000
,
0001
0001
0001
0000
,
1000
0010
1000
0100
,
1000
1000
1000
0000
,
0001
0100
0001
0010
,
0001
0000
0010
0000
,
0100
0000
1000
0000
,
0010
1000
1000
0001
,
0100
0000
0001
0000
,
0100
0001
0010
0000
,
0001
0100
0100
0001
,
1000
0010
1000
0000
,
0100
0010
0010
0001
,
0100
0000
0010
0000
,
1000
0000
0010
0000
,
0100
0001
0100
0001
,
0100
0000
0001
0000
,
1001
0000
0001
0100
,
0001
0010
0010
0001
,
1000
0000
0010
1000
,
0100
0100
1000
0001
,
0100
0000
0001
0010
,
0001
0100
0100
0010
,
1000
0000
0010
0100
,
0001
0100
0001
1000
,
0100
0000
1000
0000
,
0001
0000
0100
0000
,
0001
0000
0010
0000
,
0001
0000
0200
0000
,
0300
0001
0000
0001
,
0000
1000
0000
1000
,
0000
0010
0000
0010
,
0000
0100
0100
0100
,
0001
1000
0000
1000
,
0010
0100
0100
0010
,
1000
0000
0001
0000
,
0010
0001
0100
0001
,
0010
0001
0000
0001
,
1000
0010
0100
0100
,
0010
1000
0100
0000
,
1000
1000
0001
0001
,
0100
0010
0000
0010
,
1000
0100
0010
0001
,
0100
0001
1000
0000
,
0001
0100
0010
0100
,
0010
1000
0000
1000
,
0001
0100
0001
0010
,
0001
0000
0100
0000
,
0001
1000
0001
1000
,
0100
0000
0000
0000
,
0000
0000
0000
0000
,
0010
0000
0000
0000
,
0001
0000
0000
0000
;

//---------------dance-single - aurae----------------
#NOTES:
     dance-single:
     aurae:
     Medium:
     5:
     0.422,0.440,0.037,0.177,0.000:
0000
0000
0000
0000
,
0000
0000
0000
0000
,
0000
0000
0000
0000
,
0000
0000
0000
0000
,
0001
0000
1000
0100
0000
1000
0010
0000
,
0100
0000
0001
0010
0000
0001
0100
0000
,
0010
0000
1000
0100
0000
0010
0001
0000
,
0100
0000
0001
1000
0000
0001
1000
0001
,
0100
0000
0010
1000
0000
0100
0010
0000
,
0001
0000
1000
0100
0000
0010
0001
0000
,
0100
0000
0010
1000
0000
0001
0100
0000
,
0010
1000
1000
0000
0001
0100
0100
0000
,
0001
0000
0010
0100
1000
0000
0001
0000
,
0010
0100
1000
0000
0100
0000
1000
0010
,
1000
0000
0010
0000
0100
0001
0100
0000
,
0001
1000
0001
0000
0100
0000
0010
1000
,
0100
1000
1000
0100
,
1000
0001
1000
0000
0001
0010
0001
0010
,
0001
0000
0100
0001
0000
0100
0001
1000
,
0100
0000
1000
0000
0010
1000
0010
0000
,
0100
0000
0010
1000
0001
0000
0100
0000
,
0010
1000
0001
0000
0010
0100
1000
0100
,
0010
0000
0001
0000
0100
0001
1000
0000
,
0010
0000
0100
0001
1000
0100
1000
0000
,
0001
0000
0010
0000
0001
0000
0100
0001
,
0010
0000
0001
0000
1000
0100
1000
0000
,
0010
0100
0000
0001
0100
0001
1000
0000
,
0001
0010
0100
1000
,
0202
0000
0303
0000
0001
0100
0010
1000
,
0000
0010
0000
1000
0100
0000
1000
0000
,
0001
0100
0010
1000
0000
0000
0001
0000
,
1000
0010
0100
0001
0000
0000
1000
0000
,
0022
0000
0033
0000
0001
0010
0100
1000
,
0000
0100
0000
1000
0001
0000
0100
0000
,
0001
0010
0100
1000
0000
0000
0010
0000
,
1000
0100
0010
0001
0010
0100
1000
0000
,
0010
0000
0200
0000
0301
0001
0000
0000
,
0010
0000
0200
0000
1300
1000
0100
0000
,
0010
0000
0002
0000
1003
1000
0000
0000
,
0010
0000
2000
0000
3001
0001
1000
0000
,
0100
0000
0020
0000
0031
0001
0000
0000
,
0100
0000
0020
0000
1030
1000
0010
0000
,
0100
0000
0002
0000
1003
1000
0000
0000
,
0010
0000
0200
0000
0301
0001
0100
0000
,
2020
0000
3030
0000
1000
0010
0100
0001
,
0000
0100
0000
0010
0100
0000
0001
0000
,
1000
0010
0100
0001
0000
0000
0100
0000
,
0001
0100
0010
1000
0000
0000
0010
0000
,
2200
0000
3300
0000
1000
0100
0010
0001
,
0000
0100
0000
0001
0010
0000
0001
0000
,
1000
0100
0010
0001
0000
0000
1000
0000
,
0001
0010
0100
1000
0100
0010
0001
0000
,
0100
0000
0001
0100
0010
0000
1000
0000
,
0100
0010
0001
0000
0100
0001
1000
0100
,
1000
0000
0010
0000
1000
0100
0010
0000
,
0001
0100
0010
1000
1000
0000
0100
0000
,
0010
0000
0001
0100
0001
0000
1000
0000
,
0010
1000
0010
0000
0100
0000
0001
1000
,
0010
0010
0100
0000
0010
1000
0100
0000
,
0010
0001
1000
0010
1000
0001
0200
0000
,
0302
0000
0000
0000
,
0003
0000
0000
0000
,
2000
0000
0000
0000
,
3000
0000
0000
0000
;

//---------------dance-single - aurae----------------
#NOTES:
     dance-single:
     aurae:
     Hard:
     7:
     0.488,0.445,0.093,0.121,0.033: // measure 1
0000
0000
0000
0000
,  // measure 2
0000
0000
0000
0000
,  // measure 3
0000
0000
0000
0000
,  // measure 4
0000
0000
0000
0000
,  // measure 5
0010
0000
0010
0100
1000
0001
1000
0000
,  // measure 6
0100
0001
0100
1000
0000
0010
0100
0001
,  // measure 7
0001
0000
0010
0001
1000
0010
1000
0000
,  // measure 8
0100
0010
0001
0100
0000
0010
0100
0000
,  // measure 9
0001
0000
1000
0010
1000
0100
0010
0001
,  // measure 10
0100
0000
0010
1000
0100
0000
1000
0000
,  // measure 11
0001
0000
0100
0001
1000
0010
0100
0001
,  // measure 12
0010
0000
0100
1000
0000
0001
1000
1000
,  // measure 13
0100
0000
0010
0001
0100
0000
0001
1000
,  // measure 14
0010
0000
1000
0100
0000
1000
0001
0100
,  // measure 15
0100
0000
0010
1000
0100
0000
0010
0001
,  // measure 16
0001
1000
0100
0000
1000
0001
0010
1000
,  // measure 17
0010
0000
0001
0000
1000
0000
0010
0000
0100
0000
0001
0000
,  // measure 18
1000
0000
0000
0000
0100
0000
0000
0000
0010
0000
0000
0000
0001
0000
0000
0000
0010
0000
0100
0000
0000
1000
0000
0000
,  // measure 19
0001
0100
0001
1000
0100
0000
0010
0001
,  // measure 20
0100
0101
2002
3003
,  // measure 21
0010
0000
0001
1000
0100
0000
1000
0010
,  // measure 22
0100
0100
0010
0000
1000
0001
0100
0010
,  // measure 23
0100
0000
0001
0100
0010
0000
1000
0001
,  // measure 24
0010
0010
0001
0000
0100
0001
0100
0001
,  // measure 25
1000
0000
0100
0000
0010
0001
1000
0001
,  // measure 26
0001
0000
0100
0000
0010
0100
0001
0010
,  // measure 27
0100
0000
1000
0000
0010
1000
0001
0000
,  // measure 28
0100
1000
0100
0001
0020
0000
0030
0000
,  // measure 29
1100
0000
1000
0200
0010
0000
0001
0000
,  // measure 30
0310
0000
0100
1000
0001
0010
0010
0002
,  // measure 31
1000
0000
0100
0000
1003
0001
0101
0000
,  // measure 32
0001
1000
0100
0000
1000
0010
0010
1000
,  // measure 33
0100
0000
0010
0002
1000
0000
0010
0000
,  // measure 34
1003
0000
0100
0010
1000
0010
0100
0020
,  // measure 35
1000
0000
0001
0000
1030
0010
1010
0000
,  // measure 36
1000
0100
0010
0001
0100
0010
1000
0000
,  // measure 37
0100
0000
0000
1000
1000
0010
0000
0100
,  // measure 38
0001
0000
0000
0010
0010
0100
1000
0000
,  // measure 39
0001
0000
0000
0100
0100
0010
0000
1000
,  // measure 40
0100
0000
0000
0001
0001
0100
1000
0010
,  // measure 41
0001
0000
0000
0010
0010
1000
0000
0100
,  // measure 42
0010
0000
0001
0010
0100
0100
0010
0000
,  // measure 43
0001
0000
0000
1000
1000
0001
0000
0100
,  // measure 44
0001
0010
0001
0000
1100
0000
0101
0000
,  // measure 45
1001
0000
0001
0020
0100
0000
1000
0000
,  // measure 46
0130
0010
0000
0001
1000
0000
0100
2000
,  // measure 47
0010
0000
0001
0000
3010
1000
1010
0000
,  // measure 48
1000
0001
0100
0001
0010
0001
0000
0100
,  // measure 49
0000
0001
1000
0200
0010
0000
0301
0100
,  // measure 50
0010
0001
0100
0010
1000
0000
0010
2000
,  // measure 51
0001
0000
0010
0000
3001
1000
1001
0000
,  // measure 52
1000
0100
0010
0001
1000
0010
0100
0000
,  // measure 53
0001
1000
0010
1000
0000
0001
0100
0000
,  // measure 54
0001
1000
0100
0010
0000
0001
0100
0000
,  // measure 55
0010
1000
0100
0010
0000
0001
1000
0000
,  // measure 56
0100
1000
0010
1000
0100
1000
0001
0100
,  // measure 57
0010
1000
0001
0100
0000
0010
0100
0000
,  // measure 58
0001
0100
0010
1000
0000
0001
0010
0000
,  // measure 59
0100
1000
0010
0100
0000
0001
0100
0000
,  // measure 60
0010
1000
0100
1000
0001
0010
0001
0100
,  // measure 61
2000
0000
0000
3000
,  // measure 62
0100
0000
0001
0000
,  // measure 63
0020
0000
0000
0030
,  // measure 64
0100
1000
0010
0001
;
