#TITLE:Brass Zebra;
#SUBTITLE:;
#ARTIST:Brasstracks & Too Many Zooz;
#CREDIT:;
#MUSIC:zebra.mp3;
#SELECTABLE:YES;
#BACKGROUND:zebra-bg.png;
#BANNER:zebra.png;
#CDTITLE:!auraesimfilesmix2.png;
#DISPLAYBPM:114.000:114.000;
#OFFSET:-0.0292971;
#SAMPLESTART:25.292;
#SAMPLELENGTH:21.000;
#BPMS:0=114;
#STOPS:;

//---------------dance-single - ----------------
#NOTES:
     dance-single:
     :
     Easy:
     4:
     0.000,0.000,0.000,0.000,0.000:
0000
0000
0000
0000
,
0000
0000
0000
0000
,
0000
0000
0000
0000
,
0000
0000
0000
0000
,
0000
0001
0001
0000
,
1000
1000
1000
0000
,
0010
0000
0100
0100
,
0100
0000
0001
1000
,
0001
0000
0010
0010
,
0010
0000
0001
1000
,
0001
0000
0100
0100
,
0100
0000
0010
1000
,
0010
0010
1000
1000
,
0100
0100
1000
0000
,
0001
0001
0010
0010
,
0001
0100
0010
0100
,
0001
0000
1000
1000
,
0100
0010
0001
0000
,
1000
0001
0001
0100
,
0010
1000
1000
0001
,
0000
1100
0000
0101
,
0000
1100
0000
0101
,
0000
1010
0000
0011
,
0000
1010
0000
0011
,
0000
1001
0000
0110
,
0000
1001
0000
0110
,
0000
1001
0000
0110
,
0000
1001
0000
0110
,
1001
1001
1001
0000
,
0001
0100
0010
1000
,
0110
0110
0110
0000
,
1000
0100
0010
0001
,
1001
1001
1001
0000
,
0001
0010
0100
1000
,
0110
0110
0110
0000
,
1000
0010
0100
0001
,
0100
0100
0100
0000
,
0001
0100
0001
1000
,
0010
0010
0010
0000
,
1000
0001
0100
0001
,
1000
1000
1000
0000
,
0010
0100
0001
0010
,
0100
0100
0100
0000
,
1000
0001
1000
0001
,
0100
0001
0101
0000
,
1001
0110
1001
0110
,
0100
1000
1100
0000
,
1001
0110
1001
0110
,
0001
0010
0011
0000
,
1001
0110
1001
0110
,
1000
0010
1010
0000
,
1001
0110
1001
0110
,
0000
0000
0000
0000
;

//---------------dance-single - ----------------
#NOTES:
     dance-single:
     :
     Medium:
     6:
     0.000,0.000,0.000,0.000,0.000:
0000
0000
0000
0000
,
0000
0000
0000
0000
,
0000
0000
0000
0000
,
0000
0000
0000
0000
,
0010
0000
0001
0100
0200
0000
0310
0100
,
0001
0000
1000
0000
0010
0000
1000
0100
,
1000
0000
0001
0000
0200
0000
0301
0100
,
0010
0000
0100
0000
0010
1000
0100
1000
,
0001
0000
0010
0001
2000
0000
3001
1000
,
0001
0000
0001
0000
0010
0001
0100
0000
,
0010
0000
1000
0100
0020
0000
0031
0010
,
0100
0000
0010
0000
0001
0000
1000
0100
,
1000
0010
0010
0100
0001
0010
0010
0001
,
0010
0010
0001
0010
0100
1000
0010
0000
,
1001
0000
1000
0100
1000
0010
0010
1000
,
0010
0010
1000
0000
0100
0010
0001
0000
,
0100
0010
1000
0000
0001
1000
1000
0010
,
1000
1000
0100
1000
0001
0000
0100
0010
,
1000
0100
0010
0000
0001
0100
0100
0010
,
1000
1000
0100
0010
0001
0000
0010
0100
,
1000
1100
0001
0101
,
1000
1010
0001
0011
,
1000
1100
0001
0101
,
1000
1010
0001
0011
,
0001
0001
0000
1000
1000
0000
0010
0000
,
0010
0000
0010
0000
1000
0100
1000
0000
,
0100
0100
0000
0010
0010
0000
0001
0000
,
0001
0000
0001
0000
1000
0001
0010
0000
,
1001
0000
0110
0000
1001
0000
0001
1000
,
0000
1100
0000
0110
0000
0011
0000
0001
,
0100
0010
1000
0100
1000
0000
1000
0100
,
0000
0110
0000
0011
0000
1000
0010
1000
,
0001
0000
0100
0001
0100
0000
0001
0100
,
0000
0110
0000
1010
0000
1000
0001
0100
,
0100
0000
0010
1000
0001
0100
0010
1000
,
0000
1010
0000
1001
0000
0001
0010
0000
,
0100
1000
0010
1000
0100
1000
0001
0100
,
0000
0101
0000
0110
0000
0001
0100
0000
,
0010
1000
0100
1000
0001
0010
0001
1000
,
0000
1010
0000
0110
0000
0001
0100
0000
,
0010
1000
0001
0010
0001
0100
0010
0100
,
0000
1001
0000
0011
0000
1000
0100
0000
,
1000
0010
0100
0010
1000
0001
0010
0100
,
0000
1100
0000
1001
0000
0001
0100
0010
,
2000
0000
3100
1000
0010
1000
0001
0100
,
0001
0001
0000
1000
1000
0000
0001
0001
0000
1000
1000
0000
,
0001
0100
0010
1000
0100
0000
0010
0001
,
1000
1000
0000
0001
0001
0000
1000
1000
0000
0001
0001
0000
,
0100
0010
1000
0000
1100
0000
1000
0100
,
0010
0010
0000
0100
0100
0000
0010
0010
0000
0100
0100
0000
,
0010
0001
1000
0000
1010
0000
1000
0010
,
0100
0100
0000
0010
0010
0000
0100
0100
0000
0010
0010
0000
,
0000
0000
0000
0000
;

//---------------dance-single - ----------------
#NOTES:
     dance-single:
     :
     Hard:
     9:
     0.000,0.000,0.000,0.000,0.000:
0000
0000
0000
0000
,
0000
0000
0000
0000
,
0000
0000
0000
0000
,
0000
0000
0000
0000
,
0000
0000
0000
0000
0000
0000
0001
0000
0000
1000
0000
0000
0100
0000
0000
0000
0000
0000
1000
0000
0010
0100
0000
0000
,
0010
0000
0000
0000
0000
0000
1000
0000
0000
0000
0000
0000
0001
0000
0000
0010
0000
0000
0100
0000
1000
0100
0000
0000
,
0000
0000
0000
1001
0000
0000
0010
0000
0000
0001
0000
0000
0100
0000
0000
0000
0000
0000
0010
0000
1000
0100
0000
0000
,
0010
0000
0000
0000
0000
0000
0001
0000
0000
0100
0000
0000
0010
0000
0000
0000
0000
0000
1000
0000
0000
0001
0000
0010
,
0000
0000
0000
0000
0000
0000
0001
0000
0000
1000
0000
0000
0100
0000
0000
0000
0000
0000
1000
0000
0001
0010
0000
0000
,
0100
0000
1000
0010
0100
0001
1000
0010
,
0100
0000
0011
0001
0100
0100
0010
1000
,
0100
0000
0000
0000
0000
0000
1100
0000
0000
0000
0000
0000
1000
0000
0000
0001
0000
0000
0010
0000
0000
0001
0000
1000
,
0100
0000
0000
1001
0000
0000
0000
0000
0000
0010
0000
0000
0001
0000
0001
0010
0000
0010
0001
0000
0000
1000
0000
0000
,
0010
0000
0000
0010
0000
0000
0100
0000
0000
0010
0000
0000
1000
0000
0000
0000
0000
0000
1010
0000
0000
0010
0000
1000
,
0100
0000
0000
1001
0000
0000
0000
0000
0000
0010
0000
0000
0001
0000
1000
0010
0000
0010
1000
0000
0000
0100
0000
0000
,
1000
0000
0000
0001
0000
0000
0001
0000
0000
0100
0000
0000
0010
0000
0000
1000
0000
0000
0001
0000
0000
0100
0000
0001
,
0010
0000
0000
1001
0000
0000
0100
0000
0000
1000
0000
0000
0010
0000
1000
0010
0000
0010
1000
0000
0000
0100
0000
0000
,
0010
0000
0000
0001
0000
0000
0100
0000
0000
0100
0000
0000
0010
0000
0000
0000
0000
0000
1001
0000
0000
1000
0000
0001
,
1000
0000
1000
0010
0000
0000
1010
0000
0000
1000
0000
0000
0100
0000
0000
0100
0000
0000
0010
0000
0000
0001
0000
0000
,
0100
0000
0000
0001
0000
0000
1000
0000
0000
1000
0000
0000
0010
0000
0000
0100
0000
0000
0010
0000
1000
0100
0000
0100
,
1000
0011
0100
1001
,
0001
0000
0000
0000
0000
0000
1001
0000
0000
0000
0000
0000
0010
0000
0000
0000
0000
0000
1001
0000
0000
0010
0000
0010
,
0100
1100
1000
0011
,
0100
0000
0000
0000
0000
0000
0011
0000
0000
0000
0000
0000
1000
0000
0000
0000
0000
0000
0011
0000
0000
0001
0000
0100
,
1000
0100
0001
0000
0010
0000
0001
1000
,
0000
0000
0000
0010
0000
0000
0100
0000
0000
0010
0000
0000
1000
0000
0000
0100
0000
0100
0010
0000
0000
0000
0000
0000
,
0100
0010
0001
0000
1000
0000
0100
1000
,
0000
0000
0000
0001
0000
0000
0100
0000
0000
0010
0000
0000
1000
0000
0001
1000
0000
0000
0110
0000
0000
0000
0000
0000
,
0001
0000
0001
0010
0000
0010
0100
0000
0100
1000
0000
1000
0010
0000
0000
0100
0000
0000
0001
0000
0000
1100
0000
0000
,
0000
0000
0000
0101
0000
0000
0000
0000
0000
1001
0000
0000
0000
0000
0000
0100
0000
0010
0100
0000
0001
0100
0000
0000
,
0010
0000
0010
1000
0000
1000
0100
0000
0100
0010
0000
0010
0001
0000
0000
1000
0000
0000
0100
0000
0000
1010
0000
0000
,
0000
0000
0000
0011
0000
0000
0000
0000
0000
1001
0000
0000
0000
0000
0000
1000
0000
0010
0100
0000
0010
1000
0000
0000
,
0100
0000
0100
0010
0000
0010
0001
0000
0001
1000
0000
1000
0010
0000
0000
0100
0000
0000
0001
0000
0000
0110
0000
0000
,
0000
0000
0000
1001
0000
0000
0000
0000
0000
0110
0000
0000
0000
0000
0000
0001
0000
1000
0100
0000
1000
0010
0000
0000
,
0100
0000
0100
0001
0000
0001
1000
0000
1000
0010
0000
0010
0100
0000
0000
0010
0000
0000
1000
0000
0000
0101
0000
0000
,
0000
0000
0000
1010
0000
0000
0000
0000
0000
0110
0000
0000
0010
0000
0100
0010
0000
0000
1001
0000
0000
0000
0000
0000
,
0100
0000
0001
1000
0000
0001
0010
0000
0001
0100
0000
0000
0010
0000
0000
1000
0000
0000
0100
0000
0000
1001
0000
0000
,
0100
0000
0000
1001
0000
0000
0100
0000
0000
1001
0000
0000
0100
0000
0000
0000
0000
0001
0100
0000
0001
0010
0000
0000
,
0100
0000
1000
0010
0000
0100
0010
0000
1000
0100
0000
1000
0001
0000
0000
0010
0000
0000
0001
0000
0000
1100
0000
0000
,
0001
0000
0000
1100
0000
0000
0001
0000
0000
1100
0000
0000
0001
0000
0000
0000
0000
1000
0010
0000
0100
0010
0000
0000
,
1000
0000
0001
0010
0000
0001
0100
0000
0010
1000
0000
0100
0010
0000
0000
0001
0000
0000
0010
0000
0000
1100
0000
0000
,
0010
0000
0000
1100
0000
0000
0010
0000
0000
1100
0000
0000
0010
0000
0000
0000
0000
0100
1000
0000
0001
0010
0000
0000
,
0001
0000
1000
0010
0000
0100
0010
0000
1000
0001
0000
0000
1000
0000
0000
0100
0000
0000
1000
0000
0000
0011
0000
0000
,
1000
0000
0000
0011
0000
0000
1000
0000
0000
0011
0000
0000
1000
0000
0000
0000
0000
0001
0100
0000
0010
1000
0000
0000
,
0100
0000
1100
1000
0001
0010
0001
0100
,
0020
0130
0000
0200
0301
0000
0002
1003
0000
2000
3010
0000
,
0100
0000
0000
0001
0000
0001
1000
0000
0000
0010
0000
0000
0100
0000
0000
0000
0000
0000
0101
0000
0000
0001
0000
0000
,
2000
3100
0000
2000
3010
0000
0200
0301
0000
0020
0031
0000
,
0100
0000
0101
0001
1000
0000
0010
1000
,
0020
0130
0000
0002
1003
0000
0200
0310
0000
0002
0103
0000
,
0010
0000
0000
1000
0000
1000
0001
0000
0000
0100
0000
0000
0010
0000
0000
0000
0000
0000
1001
0000
0000
0100
0000
0000
,
0020
1030
0000
2000
3001
0000
0002
0103
0000
0200
0020
0000
,
0330
0000
0000
0000
;
