#TITLE:AS ONE;
#SUBTITLE:(JAKAZiD REMIX);
#ARTIST:THE 4TH FEAT. YUKACCO;
#TITLETRANSLIT:;
#SUBTITLETRANSLIT:;
#ARTISTTRANSLIT:;
#GENRE:;
#CREDIT:;
#BANNER:asone.png;
#BACKGROUND:asone-bg.png;
#LYRICSPATH:;
#CDTITLE:!auraesimfilesmix2.png;
#MUSIC:asone.mp3;
#OFFSET:0.006;
#SAMPLESTART:76.135;
#SAMPLELENGTH:16.460;
#SELECTABLE:YES;
#DISPLAYBPM:175.000;
#BPMS:0.000=175.000
;
#STOPS:
;
#BGCHANGES:;
#KEYSOUNDS:;
#ATTACKS:;

//---------------dance-single - aurae----------------
#NOTES:
     dance-single:
     aurae:
     Easy:
     3:
     0.244,0.281,0.018,0.018,0.000,191.000,2.000,2.000,0.000,0.000,0.000,0.244,0.281,0.018,0.018,0.000,191.000,2.000,2.000,0.000,0.000,0.000:
0000
0000
0000
0000
,
0000
0000
0000
0000
,
0000
0000
0000
0000
,
0000
0000
0000
0000
,
0000
0000
0000
0000
,
0000
0000
0000
0000
,
0000
0000
0000
0000
,
0000
0000
0000
0000
,
1000
0000
1000
0000
,
0001
0000
0001
0000
,
0100
0000
0100
0000
,
0001
0000
1000
1000
,
1000
0000
0010
0000
,
0100
0000
0100
0000
,
0001
0000
0001
0000
,
0010
0010
0010
0000
,
0001
0000
0001
0000
,
1000
0000
1000
0000
,
0010
0000
0100
0000
,
0010
0010
0010
0000
,
1000
0000
0100
0000
,
1000
0000
0001
0000
,
0100
0100
0100
0100
,
0100
0000
0001
0000
,
1001
0000
0000
0000
,
0000
0000
0000
0000
,
0001
0000
0000
0000
,
0001
0000
0010
0000
,
0100
0000
1000
0000
,
1000
0000
0100
0000
,
0010
0000
0001
0000
,
0100
0000
0002
0000
,
0103
0100
0100
0100
,
0001
0001
0001
0000
,
1000
1000
1000
1000
,
0010
0010
0010
0000
,
0100
0000
0001
0000
,
0010
0000
0001
0000
,
1000
0001
1000
0001
,
2000
0000
0000
3000
,
0001
0001
0001
0001
,
0100
0100
0001
0100
,
0001
0000
1000
0000
,
0010
0000
0010
0000
,
1000
0100
0010
0001
,
0010
0100
1000
0001
,
0100
0000
0001
0000
,
1000
0000
0001
0000
,
1000
0100
0000
0100
,
0000
0100
0000
0100
,
1000
0001
0001
0100
,
0001
0001
1000
0000
,
0001
0000
0010
0000
,
0100
0000
1000
0000
,
0010
1000
0010
1000
,
0010
1000
0001
0000
,
0100
0000
0001
0001
,
0010
0000
0001
0001
,
1000
0000
0100
1000
,
0010
1000
0100
0000
,
1000
0000
0001
0001
,
0100
0000
0001
0001
,
0010
0000
0100
1000
,
0100
0000
1000
0000
,
0010
0000
1000
0010
,
0100
0000
0010
1000
,
0100
0000
1000
0001
,
0100
0000
0100
0001
,
0001
0000
0001
0010
,
0001
0000
0001
1000
,
0100
1000
0010
1000
,
0100
1000
0010
1000
,
0001
0000
0100
0000
,
0001
0000
0100
0001
,
0100
0000
0001
0000
,
1000
0000
0010
0010
,
1000
0000
0100
0000
,
1000
0000
0001
0000
,
0100
0100
0100
0100
,
0001
1000
0001
1000
,
1001
0000
0000
0000
;

//---------------dance-single - aurae----------------
#NOTES:
     dance-single:
     aurae:
     Medium:
     7:
     0.502,0.526,0.228,0.167,0.000,356.000,26.000,19.000,0.000,0.000,0.000,0.502,0.526,0.228,0.167,0.000,356.000,26.000,19.000,0.000,0.000,0.000:
0000
0000
0000
0000
,
0000
0000
0000
0000
,
0000
0000
0000
0000
,
0000
0000
0000
0000
,
0000
0000
0000
0000
,
0000
0000
0000
0000
,
0000
0000
0000
0000
,
0000
0000
0000
0000
,
1000
0000
0001
1000
0000
1000
0100
0000
,
1000
0000
0010
0100
0000
0100
0001
0000
,
1000
0000
0001
0010
0000
0010
0001
0000
,
0100
0000
0001
1000
0000
0001
1000
0001
,
0100
0000
0010
1000
0100
0000
1000
0000
,
0001
0000
0100
0001
0010
0000
0001
0000
,
0100
0000
0001
1000
0100
0000
1000
0000
,
0010
1000
0010
1000
0010
0000
0100
0000
,
0001
0000
0010
0001
0100
0000
0001
0000
,
1000
0000
0001
0100
0010
0000
1000
0000
,
0010
0001
0010
1000
0100
0000
1000
0000
,
0100
0001
0100
0000
0001
0100
1000
0010
,
0100
0000
0001
1000
0010
0000
1000
0000
,
0001
0010
0100
0000
0010
0000
0001
0000
,
1000
0101
1001
0101
,
0001
1000
0001
1000
0001
1000
0001
0000
,
2100
0000
0000
0000
,
3200
0000
0000
0000
,
0320
0000
0000
0000
,
0230
0000
0320
0000
,
0032
0000
0203
0000
,
0320
0000
2030
0000
,
3100
1000
0100
1000
,
0002
0000
2003
0000
,
3001
0100
0001
1000
,
0100
1000
0001
0010
,
0001
1000
0010
1000
,
0001
0010
0100
1000
,
0010
0000
1000
0000
0010
1000
0010
0000
,
0100
0000
0001
0000
0100
0001
0100
0000
,
0001
1000
0001
1000
,
0220
0000
0330
1001
,
0100
0000
0001
1000
0100
1000
0001
0000
,
0100
0000
0001
1000
0010
1000
0001
0000
,
0010
0001
0100
0000
0001
1000
0100
0000
,
1000
0010
0100
0000
0010
0000
0100
0000
,
0001
1000
0001
1000
0100
0000
1000
0010
,
1000
0010
0100
0000
0010
0100
0001
0000
,
1000
1100
1010
1001
,
0101
0011
0101
1001
,
2000
0000
3020
0000
,
0230
0000
0302
2003
,
3001
0000
1000
0001
0010
0001
1000
0000
,
0010
0000
1000
0100
1000
0001
0100
0000
,
0001
1000
0010
0000
0010
0100
0001
0000
,
0001
1000
0100
1000
0010
0000
0010
0000
,
1000
0100
1000
0100
0010
0000
0001
0100
,
0001
0100
0010
0100
0001
1000
0100
0000
,
1100
0000
1100
0000
1000
0001
0100
0000
,
0001
1000
0010
0010
1000
0100
1000
0000
,
0001
0000
0010
0001
0100
0000
0001
0000
,
1000
0100
1000
0000
0010
0100
0010
0000
,
1010
0000
1010
0000
1000
0001
0010
0000
,
0001
0100
0010
0010
0100
0001
0010
0000
,
0001
0000
1000
0100
1000
0000
0010
0000
,
0100
0001
0010
0000
0001
1000
0100
0000
,
1000
0000
0101
0000
0001
0100
0010
1000
,
0100
0000
1100
0000
1000
0001
0100
0000
,
0001
0000
1000
0000
1000
0010
1000
0000
,
0001
0010
0001
0100
0001
0000
0010
0000
,
0001
0000
1100
0000
0001
0010
0100
0000
,
1000
0000
0101
0000
0100
0010
1000
0100
,
1000
0001
0100
0001
,
1001
0110
1001
0110
,
1001
0000
1000
0001
1000
0001
0100
0000
,
0010
0000
1000
0010
1000
0010
0100
0000
,
0001
0000
1000
0100
1000
0100
0010
0000
,
0001
0100
0001
0100
0020
0000
0030
0000
,
1000
0000
0001
0010
0001
0000
0100
0000
,
0001
1000
0001
0000
1000
0100
1000
0100
,
1000
0000
0010
0100
0010
0000
1000
0000
,
0100
0010
0001
0100
0010
1000
0010
0100
,
0001
0000
0000
0000
;

//---------------dance-single - aurae----------------
#NOTES:
     dance-single:
     aurae:
     Hard:
     9:
     0.606,0.741,0.316,0.158,0.162,430.000,36.000,18.000,0.000,0.000,0.000,0.606,0.741,0.316,0.158,0.162,430.000,36.000,18.000,0.000,0.000,0.000: // measure 0
0000
0000
0000
0000
,  // measure 1
0000
0000
0000
0000
,  // measure 2
0000
0000
0000
0000
,  // measure 3
0000
0000
0000
0000
,  // measure 4
0000
0000
0000
0000
,  // measure 5
0000
0000
0000
0000
,  // measure 6
0000
0000
0000
0000
,  // measure 7
0000
0000
0000
0000
,  // measure 8
0001
0000
1000
0100
1000
0010
1000
0000
,  // measure 9
0001
0100
0100
0000
0001
0010
0010
0000
,  // measure 10
0100
1000
0010
1000
0100
1000
0001
0000
,  // measure 11
0100
0010
0010
0000
1000
0010
0010
0000
,  // measure 12
0100
0000
0001
0010
0001
0100
0010
0000
,  // measure 13
1000
0100
0100
0000
0001
0100
0100
0000
,  // measure 14
0010
0001
0100
0001
0010
0001
0100
0010
,  // measure 15
1000
1000
0101
1001
,  // measure 16
0110
0000
0010
1000
0100
1000
0001
0000
,  // measure 17
0010
0001
0001
0000
0100
0001
0010
0001
,  // measure 18
0100
0000
0001
1000
0010
1000
0100
0000
,  // measure 19
1000
0001
0001
0000
0010
0001
0100
0001
,  // measure 20
1000
0000
0010
1000
0100
1000
0001
0000
,  // measure 21
0010
1000
0010
0001
0010
0000
0100
1000
,  // measure 22
0010
1010
1001
0011
,  // measure 23
0001
1000
0001
1000
0001
1000
0001
0000
,  // measure 24
2001
0000
0100
0000
,  // measure 25
0001
0000
3100
0000
,  // measure 26
0020
0000
1000
0000
,  // measure 27
0130
0010
1000
0010
,  // measure 28
0200
0000
0302
0000
,  // measure 29
2003
0000
0000
3002
0100
0000
0000
2003
,  // measure 30
0010
0010
3010
1000
,  // measure 31
0002
0000
0103
0000
,  // measure 32
0001
0100
0001
1000
,  // measure 33
0100
1000
0010
0100
,  // measure 34
0001
0010
0001
1000
,  // measure 35
0100
1000
0010
0000
,  // measure 36
1000
0010
1000
0001
0100
0001
0010
0001
,  // measure 37
0100
0010
1000
0100
0010
0001
0010
1000
,  // measure 38
0010
0001
0010
0100
1000
0100
0001
0100
,  // measure 39
2000
3020
0032
0203
,  // measure 40
1300
0000
1100
1000
0001
0101
0000
0000
,  // measure 41
0001
0000
0101
0001
1000
1010
0000
0000
,  // measure 42
1000
0000
0001
0000
0010
0000
0000
0001
0010
0000
0001
0000
0100
0000
0010
0000
,  // measure 43
1000
0000
0100
0000
1000
0000
0000
0001
0100
0000
0001
0000
0010
0000
0001
0000
,  // measure 44
0100
0000
0000
0001
0000
0000
1000
0000
0000
0010
0000
0000
0100
0000
0000
0010
,  // measure 45
0000
0000
1000
0000
0010
0100
0000
0100
0010
0000
1000
0000
0100
0000
0010
0000
,  // measure 46
0001
0011
0101
1001
,  // measure 47
1000
0100
1000
0100
1000
0010
0100
0001
,  // measure 48
2000
0000
3001
0000
0100
0002
0000
0000
,  // measure 49
0013
0000
0200
0000
1300
0010
1001
0000
,  // measure 50
0010
0000
0011
0001
1000
1010
0000
0000
,  // measure 51
1000
0000
1010
1000
0001
0101
0000
0000
,  // measure 52
0001
0000
0000
1000
0100
0000
1000
0000
0000
0001
0000
0000
0100
0000
0001
0000
,  // measure 53
1000
0000
0000
0010
0100
0000
0010
0000
1000
0000
0001
0000
0200
0000
0000
0000
,  // measure 54
0001
0000
0001
0000
0001
0000
0301
0100
,  // measure 55
0001
0000
0100
0000
0001
0000
1000
0001
1000
0000
0000
0000
0101
0000
0000
0000
,  // measure 56
1001
0000
0000
0000
1100
0000
0000
1000
0100
0000
0010
0000
0001
0000
0100
0000
,  // measure 57
0001
0000
0000
0000
1000
0000
0000
0001
0100
0000
0010
0000
1000
0000
0010
0000
,  // measure 58
0001
0000
0000
0000
0010
0000
0000
1000
0100
0000
1000
0000
0001
0000
0010
0000
,  // measure 59
0100
0000
0000
0000
1000
0000
0000
0001
0100
0000
0001
0000
0010
0000
0000
0000
,  // measure 60
0011
0000
0000
0000
1001
0000
0000
0001
1000
0000
0100
0000
1000
0000
0001
0000
,  // measure 61
0100
0000
0000
0000
1000
0000
0000
0100
0001
0000
0010
0000
0100
0000
0010
0000
,  // measure 62
0001
0000
0000
0000
0100
0000
0000
0010
1000
0000
0001
0000
0010
0000
0001
0000
,  // measure 63
0100
0100
0001
0000
1000
0001
1000
0001
,  // measure 64
0100
0000
0000
0000
0101
0000
0000
0001
1000
0000
0010
0000
0100
0000
0000
0000
,  // measure 65
0010
0000
0000
0000
1010
0000
0000
1000
0001
0000
0100
0000
0001
0000
0010
0000
,  // measure 66
0010
0000
0000
0000
0011
0000
0000
0001
1000
0000
0001
0000
0100
0000
0000
0000
,  // measure 67
0100
0000
0000
0000
0101
0000
0000
0001
1000
0000
0010
0000
1000
0000
0010
0000
,  // measure 68
0010
0000
1000
0100
0010
0001
0100
0000
,  // measure 69
1001
0000
0001
0010
0100
1000
0010
0000
,  // measure 70
1001
0100
1001
0010
,  // measure 71
0001
1000
0100
1000
0001
0100
0001
1000
,  // measure 72
1010
0000
0010
0000
1000
0000
0001
0100
0000
0100
0001
0000
1000
0000
0000
0000
,  // measure 73
0001
0000
1000
0000
0010
0000
0100
0001
0000
0001
0010
0000
0001
0000
0000
0000
,  // measure 74
1000
0000
0100
0000
1000
0000
0001
0010
0000
0010
0100
0000
1000
0000
0000
0000
,  // measure 75
0001
0000
1000
0000
0010
0000
0100
0010
0000
0010
1000
0000
0020
0000
0000
0000
,  // measure 76
1030
0000
0000
0000
0010
0000
1000
0010
0000
1000
0010
0000
0100
0000
0001
0000
,  // measure 77
0001
0000
0000
0000
0010
0000
0000
0100
0000
0000
1000
0000
0001
0000
0100
0000
,  // measure 78
0101
0000
1001
0000
1010
0000
1001
0100
,  // measure 79
0010
0000
0100
0000
0001
0000
1000
0000
0001
0100
0001
0100
0010
1000
0010
1000
,  // measure 80
0200
0000
0300
0000
;
