#TITLE:ALL IS LOST;
#SUBTITLE:(Memtrix remix);
#ARTIST:BLACK SUN EMPIRE ft. Thomas Oliver & Youthstar;
#TITLETRANSLIT:;
#SUBTITLETRANSLIT:;
#ARTISTTRANSLIT:;
#GENRE:;
#CREDIT:;
#BANNER:allislost.png;
#BACKGROUND:allislost-bg.png;
#LYRICSPATH:;
#CDTITLE:!auraesimfilesmix2.png;
#MUSIC:allislost.mp3;
#OFFSET:0.006;
#SAMPLESTART:43.395;
#SAMPLELENGTH:16.620;
#SELECTABLE:YES;
#DISPLAYBPM:174.000:87.000;
#BPMS:0.000=174.000
,32.000=87.000
,64.000=174.000
,192.000=87.000
,208.000=174.000
;
#STOPS:
;
#BGCHANGES:;
#KEYSOUNDS:;
#ATTACKS:;

//---------------dance-single - aurae----------------
#NOTES:
     dance-single:
     aurae:
     Easy:
     3:
     0.231,0.208,0.044,0.044,0.000,175.000,5.000,5.000,0.000,0.000,0.000,0.231,0.208,0.044,0.044,0.000,175.000,5.000,5.000,0.000,0.000,0.000:
0000
0000
0000
0000
,
0000
0000
0000
0000
,
0000
0000
0000
0000
,
0000
0000
0000
0000
,
0000
0000
0000
0000
,
0000
0000
0000
0000
,
0000
0000
0000
0000
,
0000
0000
0000
0000
,
0002
0000
0000
0000
,
0103
0000
0001
0000
,
2000
3000
0010
0000
,
0200
0300
0001
0000
,
1001
0000
0010
0000
,
0100
0000
1000
0000
,
0001
0000
1000
0000
,
0001
0001
1000
0001
,
1000
0000
0100
0000
,
1000
1000
0010
0010
,
1000
0000
0001
0000
,
0100
0100
0001
0001
,
0010
0000
0001
0000
,
1000
1000
0100
0100
,
1000
0000
0001
0000
,
0100
0001
0100
0000
,
0101
0000
0001
1000
,
0010
0000
0010
1000
,
0100
0100
1000
0000
,
0001
1000
1000
0100
,
1000
0000
0001
0010
,
0100
0000
1000
0001
,
0100
0000
0001
1000
,
0010
0000
0000
0000
,
1100
0000
1000
0100
,
1000
0000
0001
0001
,
0100
0000
0001
0010
,
0001
0001
1000
0000
,
0100
0000
1000
0010
,
0100
0000
0010
1000
,
0100
0000
1000
0001
,
0010
0000
0001
0000
,
0100
0001
0000
0001
,
1000
0100
0000
0100
,
1000
0010
0000
0010
,
1000
0001
0000
0001
,
1000
0100
0000
0100
,
1000
0010
0000
0010
,
1000
0001
0000
0001
,
0100
0001
0000
0001
,
2000
3000
0010
0000
,
0200
0300
0001
0000
,
1000
0000
0001
0000
,
0100
0001
0010
1000
,
0100
0001
1000
0001
,
0100
0001
0100
0000
,
0010
1000
0100
1000
,
0001
0100
0001
0000
,
1000
0010
0100
0000
,
0010
1000
0100
0000
,
1000
0001
0010
0010
,
0001
0100
0010
0000
,
1001
0000
1000
0001
,
0100
0100
0001
0000
,
1000
0010
0100
0100
,
0010
1000
0100
0000
,
1000
0001
0010
0001
,
1000
1000
0100
0000
,
1000
0001
0010
0000
,
0001
0100
0001
1000
,
1001
0000
0000
0000
;

//---------------dance-single - aurae----------------
#NOTES:
     dance-single:
     aurae:
     Medium:
     5:
     0.397,0.386,0.113,0.052,0.017,299.000,13.000,6.000,0.000,0.000,0.000,0.397,0.386,0.113,0.052,0.017,299.000,13.000,6.000,0.000,0.000,0.000:
0000
0000
0000
0000
,
0000
0000
0000
0000
,
0000
0000
0000
0000
,
0000
0000
0000
0000
,
0000
0000
0000
0000
,
0000
0000
0000
0000
,
0000
0000
0000
0000
,
0000
0000
0000
0000
,
2002
0000
0000
0000
,
3000
0000
0000
0103
0000
0000
0020
0000
1000
0000
0000
0000
0100
0000
0000
0000
,
0001
0100
1030
0010
,
0100
0001
0010
0000
0001
0000
1000
0000
,
0010
0000
1000
0000
0100
0000
1000
0000
0001
0000
0000
0100
0000
0000
0001
0000
,
0100
0000
0010
0000
1000
0000
0100
1000
,
0100
1000
0001
0100
,
0001
1000
0001
1000
0100
0010
0100
0000
,
0010
0001
0100
0001
,
1000
0000
0010
0000
1000
0100
1000
0000
,
0001
0010
0001
0100
,
0010
2000
3000
0100
,
0010
0000
0001
0000
0100
0010
0100
0000
,
0010
1000
0100
1000
,
0001
0000
1000
0000
0100
1000
0100
0000
,
1000
0000
0010
0100
0010
0000
0000
0000
,
0100
0000
0001
0100
0000
0001
0100
0000
,
0010
1000
0100
1000
,
0001
0000
1000
0010
1000
0010
1000
0000
,
0001
0000
0100
0000
0001
1000
0001
0000
,
1000
0000
0010
1000
0000
0010
1000
0000
,
0100
0010
0001
0100
,
0010
0000
1000
0001
1000
0001
1000
0100
,
0010
0010
0010
0010
,
0001
0000
1100
0000
0001
1000
0100
0000
,
1000
0000
0010
0000
1000
0000
0001
0100
,
0001
0000
0100
0000
0010
1000
0100
0000
,
1000
0000
0001
0000
0010
0100
1000
0010
,
0100
0000
0101
0000
0001
1000
0010
0000
,
1000
0000
0100
0000
0010
0000
0001
0100
,
0010
0000
0100
0000
0001
1000
0010
0000
,
1000
0010
1000
0010
0000
1000
0001
0000
,
0100
0110
0010
1000
,
0100
0000
1000
0100
1000
0000
0001
0000
,
0010
0011
0001
0100
,
0010
0000
0100
0001
0100
0000
0001
0000
,
1000
0000
0101
0000
0100
0010
1000
0000
,
0010
0000
1000
0000
0001
0010
0100
0000
,
1000
0000
0011
0000
0100
0000
0010
1000
,
0100
0000
1000
0000
1000
0001
0100
0000
,
2002
0000
0000
0000
0000
0000
0000
0000
0003
0000
0000
3010
0000
0000
1000
0000
,
0001
0000
0010
0000
1000
0000
0010
0000
0001
0000
0000
0100
0000
0000
0001
0000
,
1000
0010
1000
0010
,
0100
0001
0100
0001
1000
0010
0100
0000
,
0001
0000
1001
0000
1000
0010
1000
0000
,
0100
0000
1000
0000
0001
0010
0001
0000
,
0100
0000
0010
0000
1000
0000
0100
1000
,
0001
0100
0001
0000
1000
0010
1000
0100
,
0010
0000
0011
0000
0001
0100
0001
0000
,
1000
0000
0010
0000
1000
0100
1000
0000
,
0010
0000
0100
0000
0001
0000
0010
0100
,
1000
0010
0100
0000
0001
1000
0100
1000
,
0010
0000
1100
0000
1000
0001
0010
0000
,
0001
0000
0100
0000
0010
1000
0001
0000
,
0010
0000
0001
0000
0100
0000
0010
1000
,
0010
0100
0001
0000
0100
0001
0010
0100
,
1000
0000
1010
0000
0010
0100
0001
0000
,
1000
0000
0100
0000
1000
0010
1000
0000
,
0001
0000
0010
0000
0010
0000
0001
0100
,
0010
0000
1000
0000
0100
0010
0001
0000
,
1001
0000
0000
0000
;

//---------------dance-single - aurae----------------
#NOTES:
     dance-single:
     aurae:
     Hard:
     8:
     0.520,0.653,0.306,0.079,0.223,373.000,35.000,9.000,0.000,0.000,0.000,0.520,0.653,0.306,0.079,0.223,373.000,35.000,9.000,0.000,0.000,0.000:
0000
0000
0000
0000
,
0000
0000
0000
0000
,
0000
0000
0000
0000
,
0000
0000
0000
0000
,
0000
0000
0000
0000
,
0000
0000
0000
0000
,
0000
0000
0000
0000
,
0000
0000
0000
0000
,
1001
0000
0000
0000
0000
0000
0000
0000
0010
0000
0000
1000
0000
0000
0100
0000
,
0010
0000
0100
0000
1000
0000
0001
0000
0100
0000
0000
0010
0000
0000
1000
0000
,
0001
0000
0000
0100
0000
0000
0000
0000
0001
0000
0000
1000
0000
0000
0000
0000
,
0010
0000
0000
0100
0000
0000
0000
0000
0001
0000
0000
1000
0000
0000
0110
0000
,
0011
0000
0000
0001
1000
0000
0000
0000
0010
0000
0000
1000
0000
0000
0100
0000
,
0010
0000
0001
0000
1000
0000
0010
0000
0100
0000
0000
0001
1000
0000
0010
0000
,
1000
0100
1000
0001
0100
0001
0010
0001
,
1000
0001
1000
0001
1000
0001
1000
0001
1000
0001
1000
0001
0200
0000
0300
0000
,
0010
0000
0000
0000
1010
0000
0000
1000
0100
0000
1000
0000
0001
0000
0000
0000
,
0010
0000
0001
0000
0100
0000
0000
0001
0100
0000
0000
0000
0101
0000
0000
0000
,
1001
0000
0000
0000
1000
0000
0000
0001
0100
0000
0010
0000
1000
0000
0000
0000
,
0010
0000
1000
0000
0001
0000
0000
0001
1000
0000
0100
0000
1000
0000
0000
0000
,
0010
0000
0000
0000
0101
0000
0000
0001
0100
0000
0001
0000
1000
0000
0000
0000
,
0100
0000
0010
0000
0100
0000
0000
0100
1000
0000
0000
0000
1001
0000
0000
0000
,
0011
0000
0000
0000
0100
0000
0000
0001
0100
0000
0010
0000
1000
0000
0000
0000
,
0100
0000
0010
0000
0001
0000
0000
0001
0200
0000
0000
0000
2300
0000
0000
0000
,
3100
0000
0101
0001
0100
0001
1000
0000
,
0001
0000
0000
0000
0100
0000
0000
0001
0010
0000
0100
0000
1000
0000
0000
0000
,
0010
0000
1100
0000
1000
0100
0010
0001
,
0200
0302
0023
2030
,
3010
0000
0011
0001
1000
0100
1000
0000
,
0010
0000
0000
0000
1000
0000
0000
0010
0100
0000
0001
0000
1000
0000
0010
0000
,
0010
0000
0000
0000
0100
0000
0000
0100
0010
0000
1000
0000
0001
0000
0100
0000
,
0010
0000
0000
0000
,
1000
0000
1100
0000
1000
0001
0010
0001
,
0100
0000
0010
0000
1000
0100
1000
0000
,
0001
0000
0010
0001
0100
0010
1000
0100
,
1000
0000
0000
0000
0001
0000
0000
0100
0000
0000
0001
0000
0100
0000
0000
0000
,
0101
0000
1001
0000
0100
0010
0100
0001
,
1000
0000
0100
0010
0001
1000
0100
0000
,
1000
0000
0010
1000
0010
0000
0100
0000
,
0001
1000
0001
0001
1000
0001
0020
0000
,
0130
0000
1100
0000
1000
0010
0100
0000
,
0001
0000
1000
0010
0100
0000
0001
0000
,
0010
0000
0001
0000
1000
0001
0100
0000
,
0010
0000
1000
0001
0100
0000
0001
0000
,
0010
0000
0101
0000
0100
0010
1000
0000
,
0100
0000
0010
0001
1000
0100
1000
0000
,
0001
0000
0100
0000
0010
1000
0100
0000
,
1000
0001
0010
0001
1000
0000
0101
0000
,
1100
0000
0000
0000
0000
0000
0000
0000
1000
0000
0000
0100
0000
0000
0010
0000
,
0001
0000
1000
0000
0010
0000
0100
0000
0001
0000
0000
0100
0010
0000
1000
0000
,
0010
1000
0001
0100
0010
1000
0100
0010
,
0001
0100
0001
0100
0010
1000
0100
1000
0001
0010
0001
0100
0020
0000
0030
0000
,
0100
0000
0000
0000
0101
0000
0000
0001
1000
0000
0100
0000
1000
0000
0010
0000
,
0100
0000
0000
0000
0010
0000
0000
1000
0010
0000
0000
0000
1100
0000
0000
0000
,
1001
0000
0000
0000
0101
0000
0000
0100
0010
0000
1000
0000
0100
0000
0010
0000
,
0001
0000
0000
0000
0010
0000
0000
0001
0100
0000
0001
0000
0010
0000
0000
0000
,
0001
0000
0000
0000
1100
0000
0000
1000
0010
0000
0100
0000
0001
0000
1000
0000
,
0100
1000
1001
1010
,
0110
0000
0000
0000
0100
0000
0000
0010
0100
0000
0001
0000
0010
0000
0001
0000
,
1000
0000
0001
0100
0001
1000
0100
1000
,
0010
0000
0000
0000
0101
0000
0000
0100
0010
0000
1000
0000
0001
0000
0010
0000
,
0001
0000
0000
0000
0100
0000
0000
0001
0100
0000
0000
0000
0101
0000
0000
0000
,
0110
0000
0000
0000
1010
0000
0000
1000
0100
0000
0010
0000
0100
0000
1000
0000
,
0010
0000
0000
0000
0100
0000
0000
0001
0100
0000
0001
0000
1000
0000
0000
0000
,
0010
0000
0000
0000
0110
0000
0000
0100
0001
0000
0010
0000
0001
0000
1000
0000
,
0010
0000
0000
0000
0100
0000
0000
0001
0100
0000
0000
0000
1001
0000
0000
0000
,
0110
0000
0000
0000
1001
0000
0000
0001
1000
0000
0100
0000
0010
0000
0001
0000
,
0100
0000
0000
0000
0000
0000
0000
0000
0000
0000
0000
0000
0010
0000
0000
0000
1000
0000
0000
0000
0001
0000
0000
0000
0100
0000
0000
0000
0000
0000
0001
0000
0000
0000
0000
0000
1000
0000
0000
0000
0000
0000
0001
0000
0000
0100
0000
0000
,
0010
0000
0000
0000
;
