#TITLE:the keel;
#SUBTITLE:;
#ARTIST:Akino;
#TITLETRANSLIT:;
#SUBTITLETRANSLIT:;
#ARTISTTRANSLIT:;
#CREDIT:;
#BANNER:thekeel-bn.png;
#BACKGROUND:thekeel-bg.png;
#LYRICSPATH:;
#CDTITLE:zukin-man-cdtitle.png;
#MUSIC:thekeel.mp3;
#OFFSET:-0.240;
#SAMPLESTART:60.140;
#SAMPLELENGTH:14.700;
#SELECTABLE:YES;
#BPMS:0.000=133.000,174.000=66.500,186.000=133.000;
#STOPS:;
#BGCHANGES:;

//---------------dance-single - ----------------
#NOTES:
     dance-single:
     :
     Hard:
     7:
     0.402,0.432,0.218,0.105,0.017:
0000
0000
0000
0000
,
0000
0000
0000
0010
0002
0000
0000
0000
,
0000
0003
0000
1000
0200
0000
0000
0000
,
0000
0300
1000
0002
0000
0000
0000
0000
,
0000
0003
0000
0000
0000
0000
1000
0000
0000
0200
0000
0000
0000
0000
0000
0000
0000
0000
0000
0000
0000
0000
0000
0000
,
0000
0000
0310
0000
1001
0000
0001
0100
,
0000
0001
1000
0001
0100
0000
0001
0100
,
0000
0010
1000
0100
0010
0000
0100
1000
,
0000
0001
0100
0001
1000
0000
0010
1000
,
0000
0100
1000
0000
0001
1000
0001
0100
,
0010
0000
0100
0001
0000
1000
0100
0010
,
0100
0000
1000
0001
0000
0010
0001
0010
,
0001
0000
0010
0001
0100
0000
0010
1000
,
0100
0000
0110
0000
0010
0100
1000
0010
,
0100
0000
0010
1000
0000
0001
0100
0010
,
1000
0000
0100
0010
0000
0100
1000
0001
,
0100
0010
0000
0101
0000
1100
0000
0101
,
0000
0000
0000
1000
0001
0000
0000
0101
,
0000
0000
1000
0000
0100
0000
0000
1100
,
0000
0000
0010
0001
0100
0000
0000
0101
,
0000
0000
0001
0000
0010
0000
0000
1100
,
0000
0000
0001
0100
0101
0000
0001
0100
,
0001
0010
0100
1000
1100
0000
1000
0001
,
0100
0010
1000
0001
0010
0000
0010
0100
,
0000
0000
0100
0000
1000
0000
0100
0000
0010
0000
0010
0000
0010
0000
0001
1000
,
0000
0001
0000
1000
0001
0000
1000
0000
0100
0000
0010
0000
0001
0000
1000
0000
,
0100
0000
1000
0001
0000
0010
0100
1000
,
0001
0000
1000
0100
0000
1000
0001
0100
,
0001
0000
0100
0010
1000
0100
1000
0100
,
0010
0001
0010
0000
0001
0000
0100
0000
0001
0000
0100
0000
0001
0000
0010
0000
,
0100
0000
1000
0001
0000
1000
0100
0001
,
0100
0000
1000
0010
0000
0100
0001
1000
,
0100
1000
0000
0011
0000
1010
0000
0011
,
0000
0000
0001
0101
0000
0000
1000
1100
,
0000
0000
0001
0101
0000
0000
1000
1100
,
0000
0000
0010
0000
0001
0000
0010
0011
,
0000
0000
0100
1100
0000
0000
0010
0011
,
0000
0000
0100
0000
0010
0001
0100
0010
,
0000
0000
0100
0001
1000
0100
0010
0001
,
0000
0010
0001
0100
0010
1000
0010
1000
,
0010
0100
0000
0010
1000
0100
0001
0100
,
1000
0000
0000
1000
0010
1000
0010
1000
,
0100
0010
0000
0001
0100
1000
0100
0001
,
1000
0000
1001
1000
,
0100
0000
0010
0001
0200
0000
0000
0000
,
0000
0300
0000
0001
2000
0000
3002
0000
,
0203
0000
0320
0000
0130
0000
0001
1000
,
0100
0000
0010
0000
0101
0000
0010
1000
,
0100
0000
1000
0000
0110
0000
0010
0001
,
1000
0000
0100
0000
0011
0000
0001
1000
,
0010
0000
0100
0000
0001
0100
0001
0100
,
0001
0010
0000
0100
1000
0010
0001
0010
,
1000
0000
0000
0010
0100
0001
0100
0001
,
0100
0001
0000
0100
0001
0010
1000
0010
,
0001
0000
0002
0000
,
0000
0000
0000
1003
0020
0000
0000
0000
,
0000
0000
0000
1030
0000
0200
0000
0000
,
0000
0000
0000
0000
,
0000
0300
0000
0000
;

//---------------dance-single - ----------------
#NOTES:
     dance-single:
     :
     Challenge:
     8:
     0.510,0.559,0.270,0.087,0.131: // measure 1
0000
0000
0000
0000
,  // measure 2
0000
0000
0000
0000
0000
0000
0001
0020
0002
0000
0000
0000
0000
0000
0000
0000
,  // measure 3
0000
0000
0033
0000
0000
0000
1000
0200
2000
0000
0000
0000
0000
0000
0000
0000
,  // measure 4
0000
3300
1000
0002
0000
0000
0000
0000
,  // measure 5
0000
0003
0000
0000
0000
0000
1000
0000
0000
0200
0000
0000
0000
0000
0000
0000
0000
0000
0000
0000
0000
0000
0000
0000
,  // measure 6
0000
0000
0310
0000
1001
0000
1000
0001
,  // measure 7
0000
0000
1000
0000
0001
0000
1000
0001
1000
0000
0000
0000
0001
0000
1000
0000
,  // measure 8
0000
0000
0100
0000
0010
0000
0100
1000
0100
0000
0000
0000
0010
0000
0001
0000
,  // measure 9
0000
0000
1000
0000
0001
0000
0010
0100
0010
0000
0000
0000
0010
0000
0001
0000
,  // measure 10
1000
0100
1000
0000
0001
1000
0100
0010
,  // measure 11
0001
0001
0010
0001
0100
0010
0100
0001
,  // measure 12
1000
1000
0001
0100
1000
0100
0001
1000
,  // measure 13
0001
0000
0000
0000
0010
0000
0001
0000
1000
0100
1000
0100
0010
0100
0010
0100
,  // measure 14
0010
0001
0010
0001
0010
0000
0000
0000
0001
0000
0010
0000
0001
0000
0100
0000
,  // measure 15
0010
0010
1000
0001
0010
0100
0010
0001
,  // measure 16
0100
0100
0010
1000
0010
0001
0010
1000
,  // measure 17
0100
0010
0000
1100
0000
1010
0000
0101
,  // measure 18
0000
0000
0001
1000
0001
0000
0010
0001
,  // measure 19
0101
0000
0001
1000
0100
0000
1000
0100
,  // measure 20
0101
0000
0010
0001
0100
0000
0001
0100
,  // measure 21
1010
0000
1000
0100
0001
0000
0100
1000
,  // measure 22
0011
0000
0000
0000
1000
0000
0001
1000
0100
0000
0000
0000
1000
0000
0100
0000
,  // measure 23
0010
0000
0100
0000
1000
0000
0010
0100
0001
0000
0000
0000
1000
0000
0001
0000
,  // measure 24
0100
0001
1000
0100
0010
0000
0001
1000
,  // measure 25
0000
0000
0010
0000
1000
0000
0001
0000
0100
0000
0100
0000
0100
0000
0001
0100
,  // measure 26
0000
0100
0000
0010
1000
0000
1000
0000
0010
0000
0100
0000
0001
0000
0100
0000
,  // measure 27
0010
0010
1000
0001
0010
0100
1000
0100
,  // measure 28
1000
1000
0001
0100
0010
0100
0001
1000
,  // measure 29
0001
0000
0000
0000
1000
0000
0010
0000
0100
0010
0100
0010
1000
0100
1000
0100
,  // measure 30
0010
0001
0010
0001
0010
0000
0001
0000
0100
0000
1000
0000
0100
0000
0001
0000
,  // measure 31
0010
0010
0001
1000
0010
1000
0001
0001
,  // measure 32
0100
0001
0010
0100
0000
0010
0001
1000
,  // measure 33
0010
1000
0000
0101
0000
0011
0000
1100
,  // measure 34
0000
0001
1000
1100
0000
1000
0001
0101
,  // measure 35
0000
0001
0010
1010
0000
0100
0010
1100
,  // measure 36
0000
0100
0010
0000
0001
1000
0010
1100
,  // measure 37
0000
0010
0100
0101
0000
1000
0010
0011
,  // measure 38
0000
1000
0100
0000
0010
0001
1000
0010
,  // measure 39
1000
0001
0100
0010
1000
0100
0001
0100
,  // measure 40
1000
0010
0100
0001
0010
1000
0010
1000
,  // measure 41
0010
0100
0000
1000
0001
0100
1000
0100
,  // measure 42
0001
1000
0010
0101
0100
0001
0100
0001
,  // measure 43
1000
0100
0000
1000
0010
0001
0010
1000
,  // measure 44
0001
0000
0100
0000
0010
0000
0000
0000
1001
0000
0000
1000
0001
0100
0000
0010
,  // measure 45
0000
1000
0000
0001
0000
0000
1000
0000
0020
0000
0000
0000
0000
0000
0000
0000
,  // measure 46
0030
0000
0000
0001
1100
0010
0101
0001
,  // measure 47
0110
1000
0011
0100
1001
0000
1000
0100
,  // measure 48
0010
0001
0100
0000
1100
0000
0010
1000
,  // measure 49
0001
0100
0001
0000
0010
1000
0001
0010
,  // measure 50
1000
0010
0001
1000
0100
0010
0001
0100
,  // measure 51
0110
0000
0000
0001
1001
0100
0001
0100
,  // measure 52
0001
1000
0100
0010
0001
1000
0100
0010
,  // measure 53
0110
0000
0000
0100
0110
0010
0001
0010
,  // measure 54
0001
1000
0010
0100
0001
1000
0010
0100
,  // measure 55
0110
0000
0020
0000
,  // measure 56
0000
0000
0000
0000
0000
0000
1030
0001
0200
0000
0000
0000
0000
0000
0000
0000
,  // measure 57
0000
0000
0000
0000
0000
0000
0301
0000
1000
0100
0010
0002
0000
0000
0000
0000
,  // measure 58
0000
0000
0000
0000
,  // measure 59
0000
0003
0000
0000
;

//---------------dance-single - ----------------
#NOTES:
     dance-single:
     :
     Medium:
     6:
     0.349,0.457,0.166,0.331,0.004:
0000
0000
0000
0000
,
0000
0000
0000
1000
0002
0000
0000
0000
,
0000
0003
0000
0010
0200
0000
0000
0000
,
0000
0300
1000
2000
0000
0000
0000
0000
,
3000
0000
0001
0002
0000
0000
0000
0000
,
0000
0000
0103
0000
1001
0000
1000
0001
,
0000
0000
0001
0000
0100
0000
0001
1000
,
0000
0000
0010
0000
0100
0000
0001
0100
,
0000
0000
0001
0000
1000
0000
0100
0010
,
0000
1001
0010
2000
,
0001
3001
0100
0002
,
1000
1003
0100
0010
,
0100
0001
1000
1000
,
1000
0001
1000
0000
0001
0000
0200
0000
,
0010
0310
0001
2000
,
0100
3100
1000
0001
,
0010
0000
0000
0001
0000
1000
0000
0100
,
0000
0000
0001
0000
1000
0000
0001
1000
,
0001
0000
0010
0000
0100
0000
0010
0100
,
0010
0000
0001
0000
0100
0000
0001
0100
,
0001
0000
1000
0000
0100
0000
1000
0100
,
1000
0000
0000
0100
0200
0000
0000
0000
,
0000
0000
0000
0310
0020
0000
0000
0000
,
0000
0000
0001
0030
1000
0000
0000
1000
,
0000
0001
1000
1000
,
1000
0001
1000
0001
0100
0000
0002
0000
,
0010
0013
0100
2000
,
0001
3001
1000
0100
,
0010
1000
0001
0001
,
0001
0100
0001
0000
1000
0000
0002
0000
,
0010
0013
1000
0200
,
0001
0301
0010
0100
,
0001
0000
0000
0010
0000
1000
0000
0100
,
0000
1000
0012
0103
,
2010
3001
0120
0031
,
1200
0310
2001
3010
,
0102
1003
0021
0130
,
2010
3100
0012
1003
,
0210
0301
1200
0310
,
0102
0000
0013
0000
0100
0000
0010
0100
,
0010
0000
0100
0010
0100
0000
0010
0100
,
0010
0000
1000
0000
0001
0000
1000
0001
,
1000
0000
0001
1000
0001
0000
1000
0001
,
1000
0110
1002
2003
,
3020
0230
0302
0000
,
0003
0000
0000
0001
0200
0000
0302
0000
,
2003
0000
3200
0000
1300
0000
0001
1000
,
0001
0000
0100
0000
0110
0000
0010
1000
,
0001
0000
0010
0000
1100
0000
0001
1000
,
0100
0000
1000
0000
0101
0000
1000
0010
,
0100
0000
0001
0000
1000
0100
1000
0000
,
0100
1000
0100
0000
1000
0100
1000
0000
,
0001
0000
0000
0000
0001
0010
0001
0000
,
0010
0001
0010
0000
0001
0010
0001
0000
,
0100
0000
0002
0000
,
0000
0000
0000
1003
0020
0000
0000
0000
,
0000
0000
0000
0000
0000
0000
1030
0000
0000
0000
0000
0200
0000
0000
0000
0000
,
0000
0000
0000
0000
,
0000
0300
0000
0000
;

//---------------dance-single - ----------------
#NOTES:
     dance-single:
     :
     Easy:
     4:
     0.265,0.279,0.279,0.201,0.004:
0000
0000
0000
0000
,
0000
0000
0002
0100
,
0103
0000
2000
0100
,
3100
0000
0020
0100
,
0130
0000
0002
1000
,
1003
0000
1001
1000
,
0100
0000
1001
0001
,
0100
0000
0100
0001
,
1000
0010
1001
0100
,
0100
0000
0001
0000
,
0100
0000
1000
0000
,
0100
0000
0001
0000
,
0010
0000
1000
0001
,
0100
0100
0001
0000
,
1000
0000
0001
0000
,
0100
0000
0010
0000
,
2000
0100
0100
3100
,
1000
0000
0001
0000
,
1001
0000
1000
0000
,
1001
0000
0010
1000
,
1000
0001
0001
0100
,
0100
0001
0200
0000
,
0000
0000
0000
0300
0020
0000
0000
0000
,
0000
0000
0000
0030
2000
0000
0000
0000
,
0000
0000
3002
0100
,
0100
0103
1001
0001
,
0100
0100
1001
1000
,
0100
0100
1001
1000
,
0010
0200
0001
0001
,
0001
0301
1001
0001
,
0010
0010
1001
1000
,
0010
0010
1001
0001
,
0100
0010
1001
0100
,
1001
0000
1001
0000
,
1001
0000
0110
0000
,
0110
0000
1100
0000
,
0101
0000
1100
0000
,
0101
0000
1002
0100
,
0100
0103
2001
0100
,
0100
3100
0001
0100
,
1000
0100
0001
0100
,
1000
1001
1001
1000
,
0100
0001
0100
1000
,
0100
0001
2001
0000
,
3002
0000
0203
0000
,
0300
0000
0002
0000
,
0203
0300
2002
0000
,
0000
0000
0000
0000
,
0000
3003
1001
1000
,
1000
0100
1001
0001
,
0001
0100
1000
1000
,
1000
0000
0010
0010
,
0010
1001
0100
0001
,
0001
0000
0100
0100
,
0100
1001
0020
0000
,
0000
0030
0200
0000
,
0000
0000
0000
0000
0000
0000
0300
0000
0000
0000
0000
0220
0000
0000
0000
0000
,
0000
0000
0000
0000
,
0000
0330
0000
0000
;

//---------------dance-single - ----------------
#NOTES:
     dance-single:
     :
     Beginner:
     1:
     0.133,0.145,0.174,0.000,0.000:
0000
0000
0000
0000
,
0000
0000
0100
0000
,
0000
0000
0100
0000
,
0000
0000
1000
0000
,
0000
0000
0001
0000
,
0000
0000
1001
0000
,
0000
0000
1001
0000
,
0000
0000
0100
0000
,
0000
0000
0100
0000
,
0000
0000
0001
0000
,
0001
0000
1000
0000
,
1000
0000
0100
0000
,
0100
0000
1001
0000
,
0000
0000
0001
0000
,
0001
0000
1000
0000
,
1000
0000
0010
0000
,
0010
0000
0100
0100
,
0100
0000
0010
0000
,
0010
0000
0100
0000
,
0100
0000
0010
0000
,
0010
0000
0100
0000
,
0100
0000
1001
0000
,
0000
0000
1001
0000
,
0000
0000
1001
0000
,
0000
0000
1001
0000
,
0000
0000
0010
0000
,
0010
0000
0100
0000
,
0100
0000
0010
0000
,
0010
0000
1001
0000
,
0000
0000
0100
0000
,
0100
0000
0010
0000
,
0010
0000
1000
0000
,
0001
0000
1000
0000
,
1001
0000
0010
0000
,
0010
0000
0100
0000
,
0100
0000
1000
0000
,
1000
0000
0001
0000
,
0001
0000
1001
0000
,
0000
0000
1001
0000
,
0000
0000
0001
0000
,
1000
0000
0001
0000
,
1000
0000
1001
0000
,
0100
0000
0010
0000
,
0100
0000
1001
0000
,
0100
0000
1001
0000
,
0000
0000
0001
0000
,
0000
0000
1001
0000
,
0000
0000
1001
0000
,
0000
0000
1001
0000
,
0000
0000
1001
0000
,
0000
0000
1000
0000
,
1000
0000
0001
0000
,
0001
0000
0010
0000
,
0010
0000
0100
0000
,
0100
0000
1001
0000
,
0000
0000
1001
0000
;
