#TITLE:THE PLACE TO BE;
#SUBTITLE:;
#ARTIST:Des-ROW feat.真言;
#TITLETRANSLIT:THE PLACE TO BE;
#SUBTITLETRANSLIT:;
#ARTISTTRANSLIT:Des-ROW feat.Makoto;
#CREDIT:;
#BANNER:THE PLACE TO BE - Banner.png;
#BACKGROUND:THE PLACE TO BE - BG.png;
#LYRICSPATH:;
#CDTITLE:zukin-man-cdtitle.png;
#MUSIC:THE PLACE TO BE.mp3;
#OFFSET:-1.480;
#SAMPLESTART:79.300;
#SAMPLELENGTH:15.300;
#SELECTABLE:YES;
#DISPLAYBPM:222.000;
#BPMS:0.000=222.040;
#STOPS:;
#BGCHANGES:;

//---------------dance-single - ----------------
#NOTES:
     dance-single:
     :
     Hard:
     9:
     0.712,0.752,0.246,0.238,0.000:
0000
0000
0000
0000
,
0000
0000
0000
0000
,
0010
0000
0100
0000
1000
0001
0000
0001
,
1000
0000
0100
0010
0000
0010
0100
0000
,
1000
0000
0001
0000
0100
0010
0000
0010
,
0200
0000
0000
0301
0000
0000
0000
0000
,
0100
0000
0010
1000
0100
0010
0000
0001
,
0100
0010
0100
0001
0000
1000
0100
0000
,
1100
0000
0000
0101
0000
0000
0001
0000
,
1000
0000
0100
0000
0010
0001
0100
0000
,
0010
1000
0001
0010
0000
0100
1000
0000
,
0010
0100
0000
0010
0000
0100
0010
0000
,
1000
0010
1000
0100
0010
0001
0100
0010
,
0100
0001
1000
0010
0100
0010
0100
0001
,
1000
0000
0100
0010
0100
0010
0100
0000
,
1000
0010
0100
0001
1000
0001
0010
0100
,
0010
0000
0001
0100
0000
0000
0010
0000
,
0101
0000
1000
0100
0000
0000
1000
0000
,
0110
0000
0010
0001
0000
0000
0001
0000
,
1010
0000
0010
0100
0000
0000
1000
0000
,
0101
0000
0010
1000
0000
0000
0100
0000
,
0011
0000
1000
0010
0000
0000
0100
0000
,
1001
0000
0100
0010
0100
0010
0100
0000
,
0001
1000
0100
0010
0000
0100
1000
0000
,
1000
0000
0001
1000
0000
0001
0100
0000
,
0010
0000
1000
0100
0000
0010
0100
0000
,
1000
0000
0010
1000
0000
0010
0100
0000
,
0001
0000
1000
0010
0000
1000
0100
0000
,
0010
0000
0001
0100
0000
1000
0100
0000
,
0010
0000
1000
0001
0000
0010
0100
0000
,
1000
0000
0010
0100
0001
0100
0001
0000
,
0010
0100
0010
0100
0000
0000
0010
0000
,
0100
0000
0000
1001
0000
0000
2000
0000
,
0100
0000
3100
0000
0010
0001
0100
0000
,
0001
1000
0010
0100
0000
0001
1000
0000
,
0001
0010
0000
0100
0000
0010
0001
0000
,
1000
0100
1000
0001
0100
0001
0010
0100
,
1000
0100
0001
0100
1000
0010
0100
0001
,
0010
0000
0100
1000
0100
1000
0100
0000
,
1000
0001
0100
0001
1000
0010
0100
0000
,
0001
0000
0001
0000
0010
0100
0000
1000
,
0000
0000
0001
0000
1000
0001
0100
0000
,
0002
0000
0000
2003
0000
0000
3020
0000
,
1030
0000
0100
0000
1000
0010
0001
0000
,
0020
0000
0000
2030
0000
0000
3200
0000
,
0301
0000
0100
0000
1000
0001
0010
0000
,
0200
0000
0000
2300
0000
0000
3002
0000
,
0103
0010
1000
0100
0010
0100
1000
0000
,
0001
0000
0001
0000
0100
0010
0000
0100
,
0000
0000
0001
0000
1000
0100
0001
0000
,
0200
0000
0000
2300
0000
0000
3002
0000
,
0023
0000
0000
0032
0000
0000
2003
0000
,
3010
0000
0000
0010
,
1000
0000
0000
0101
0000
0000
0001
0000
,
0010
0000
0000
1100
0000
0000
0010
0000
,
1000
0000
0000
0110
0000
0000
1000
0000
,
1001
0000
0010
0200
0000
0000
1300
0000
,
1001
0000
0010
0002
0000
0000
0103
0000
,
1100
0000
0001
0200
0000
0000
0310
0000
,
0100
1001
0010
1001
,
0101
0000
0010
2000
0000
0000
3100
0000
,
1100
0000
1000
0002
0000
0000
0103
0000
,
0110
0000
0100
0002
0000
0000
1003
0000
,
0100
0000
0000
1001
0000
0000
0010
0000
,
0100
0000
0000
0110
0000
0000
1000
0000
,
0100
0000
0000
1010
0000
0000
1000
0000
,
0010
0000
0000
0101
0000
0000
1000
0000
,
0100
0000
0000
0101
0000
0000
0100
0000
,
1000
0000
0000
0110
0000
0000
0001
0000
,
0100
0000
0000
0110
0000
0000
0010
0000
,
1000
0100
0001
0100
,
2000
0000
0000
3002
0000
0000
0203
0000
,
0300
0001
1000
0001
0100
0001
1000
0100
,
0000
1000
0100
1000
0001
1000
0001
0100
,
0000
0010
1000
0001
0010
0100
1000
0001
,
0100
0001
0000
0010
0001
0100
0001
0010
,
0000
1000
0100
0010
0100
1000
0001
0100
,
0000
0001
0010
0100
0010
0100
1000
0010
,
0000
0100
0001
0010
0100
0000
1000
0001
,
0000
1000
0001
1000
0001
0010
0001
1000
,
0000
0001
0100
0010
0000
1000
0001
1000
,
0000
0001
0010
0100
0001
0100
1000
0001
,
0000
1000
0001
0100
0000
0010
1000
0100
,
0010
0001
1000
0100
0000
0010
0001
1000
,
0000
0010
1000
0100
1000
0001
0010
0100
,
0000
1000
0010
0100
0010
0000
1000
0100
,
0000
1000
0001
0100
0010
0001
0010
1000
,
0100
1000
0001
0100
0000
0110
0000
0000
,
0000
0100
0001
0010
0100
1000
0001
0100
,
0000
0010
1000
0001
0100
0001
1000
0100
,
0000
1000
0001
0100
0010
1000
0100
0010
,
0001
1000
0000
0100
1000
0010
1000
0100
,
0000
1000
0100
1000
0001
0010
0100
1000
,
0000
0010
0001
0010
0100
0001
0010
0100
,
0000
1000
0001
1000
0100
0000
1000
0001
,
0000
1000
0100
0010
0001
0100
0000
0101
,
0000
0010
1000
0100
0000
0010
0100
1000
,
0000
0001
0100
0001
0010
0100
1000
0001
,
0000
0010
0001
1000
0000
0001
1000
0010
,
0100
0001
0000
1000
0000
0100
1000
0001
,
0000
0010
0100
1000
0010
0100
1000
0100
,
0000
0001
0010
0001
0100
0000
0001
0100
,
0000
0001
0010
1000
0010
0100
1000
0001
,
0100
0010
0100
0002
0000
2000
0000
0000
,
0000
3003
0000
0000
;

//---------------dance-single - ----------------
#NOTES:
     dance-single:
     :
     Medium:
     7:
     0.560,0.620,0.238,0.144,0.000:
0000
0000
0000
0000
,
0000
0000
0000
0000
,
0001
1000
0100
0010
,
0001
0100
0010
0100
,
0001
0010
0100
1000
,
0002
0000
0003
0000
,
0001
0010
0001
1000
,
0010
0100
0001
1000
,
0100
0000
0000
1000
0000
0000
0010
0000
,
0100
0000
0001
0000
1000
0001
1000
0000
,
0001
0010
0100
1000
,
0001
0000
0000
0100
0000
0000
0010
0000
,
0100
0001
1000
0100
,
0010
0001
0100
0010
,
1000
0000
0100
0010
0100
0010
0100
0000
,
1000
0001
1000
0010
,
0100
0000
0100
0000
0001
0010
0001
0000
,
1000
0001
0010
0100
,
1000
0000
0000
0001
0000
0000
0100
0000
,
0000
0001
1000
0100
,
1000
0000
0000
0010
0000
0000
0100
0000
,
0000
0001
0010
0100
,
1001
0000
0100
0010
0100
0010
0100
0000
,
0001
1000
0101
1100
,
0010
0001
1000
1001
,
0010
1000
0100
1001
,
0001
0010
0100
0110
,
1000
0010
0100
0110
,
0010
0001
1000
1100
,
0010
1000
0100
0101
,
1000
0000
0001
0100
0001
0100
0001
0000
,
0010
0001
1100
1001
,
1000
0000
0000
1001
0000
0000
0200
0000
,
0010
0000
0310
0000
0010
1000
0100
0000
,
1000
0000
0000
0100
0000
0000
0010
0000
,
0100
0000
0000
1000
0000
0000
0001
0000
,
1000
0100
1000
0000
0001
0100
0001
0000
,
1000
0100
1000
0000
0001
0100
0001
0000
,
1000
0000
0100
0010
0100
0010
0100
0000
,
1000
0001
1000
0000
0010
0000
1001
0000
,
1000
1000
0001
0001
,
0010
0001
0100
0010
,
1000
0000
0000
0001
0000
0000
0100
0000
,
0000
0001
0010
0100
,
1000
0000
0000
0001
0000
0000
0100
0000
,
0000
0001
1000
0100
,
1000
0000
0000
0001
0000
0000
0100
0000
,
0010
1000
0100
0000
0010
0001
0100
0000
,
0001
1000
0010
0100
,
0001
0010
0001
1000
,
0100
0000
0000
0001
0000
0000
0100
0000
,
1000
0000
0000
0001
0000
0000
0100
0000
,
0020
0000
0000
1030
,
0100
0000
0000
1001
0000
0000
0001
0000
,
0100
0000
0000
1001
0000
0000
0010
0000
,
0100
0000
0000
1001
0000
0000
0001
0000
,
1000
0000
0000
0100
0000
0000
0010
0000
,
0001
0000
0000
0100
0000
0000
0001
0000
,
0010
0000
0000
0100
0000
0000
0010
0000
,
0002
0000
2003
0000
,
3010
0000
0000
0100
0000
0000
0001
0000
,
1000
0000
0000
0001
0000
0000
0010
0000
,
0100
0000
0000
1000
0000
0000
0002
0000
,
1000
0000
0000
0103
0000
0000
0020
0000
,
0001
0000
0000
0130
0000
0000
2000
0000
,
0100
0000
0000
3010
0000
0000
0200
0000
,
0010
0000
0000
0301
0000
0000
2000
0000
,
0100
0000
0000
3001
0000
0000
0200
0000
,
0001
0000
0000
0310
0000
0000
0002
0000
,
0010
0000
0000
1003
0000
0000
0001
0000
,
0100
0010
1000
0001
,
2000
0000
0000
3200
0000
0000
0320
0000
,
0031
1000
0001
0000
1000
0001
1000
0000
,
0001
0000
0100
0000
0010
1000
0001
0000
,
0010
0001
1000
0000
0100
0000
0010
0000
,
0001
0000
0000
1000
0001
1000
0001
1000
,
0000
0000
0100
1000
0001
0000
0100
0001
,
1000
0000
0010
1000
0100
0000
0010
0100
,
1000
0000
0001
0000
0100
0000
0000
1000
,
0000
0000
0001
0000
1000
0100
0010
0001
,
0000
1000
0000
1100
0000
0001
0000
0101
,
0000
0000
0001
1000
0001
1000
0001
0000
,
0010
0001
1100
0101
,
1000
0100
0010
0001
,
1001
0000
0010
1000
0100
0000
0010
0001
,
0100
0000
0001
1000
0001
0000
1000
0001
,
1000
0010
1000
0001
,
0100
0010
1001
0110
,
0001
1000
0100
0000
1000
0001
0100
0000
,
0010
0000
1000
0000
0001
0010
0100
0000
,
1000
0010
0100
0000
0001
0000
1000
0000
,
0100
0000
0000
0010
0001
1000
0001
0010
,
0000
0000
0001
0100
0010
0000
1000
0001
,
0100
0000
0001
0010
0100
0000
0010
0001
,
1000
0000
0001
0000
0100
0000
0000
0010
,
0000
0000
0100
0000
0001
0010
0001
1000
,
0000
0001
0000
0011
0000
1000
0000
1010
,
0000
0000
0100
1000
0001
1000
0100
0000
,
0010
0001
1100
0101
,
1000
0001
0100
0010
,
0110
0000
0100
0001
0010
0000
0100
1000
,
0010
0000
1000
0001
0010
0000
0001
1000
,
0010
0100
0010
1000
,
0001
0010
0100
2000
0000
0002
0000
0000
,
0000
3003
0000
0000
;

//---------------dance-single - ----------------
#NOTES:
     dance-single:
     :
     Easy:
     5:
     0.438,0.443,0.136,0.051,0.000:
0000
0000
0000
0000
,
0000
0000
0000
0000
,
0010
1000
0100
0000
,
0010
0001
0100
0000
,
0010
1000
0100
0010
,
0002
0000
0003
0000
,
0010
0001
0010
0000
,
0100
1000
0100
0000
,
1000
0100
0010
0001
,
0100
0001
1000
0000
,
0010
1000
0100
0010
,
0100
1000
0001
0000
,
0100
0001
0010
0010
,
0100
1000
0010
0010
,
1000
0100
1000
1000
,
0001
0001
1001
0000
,
0010
1000
0001
0000
,
0010
0001
1000
0000
,
0001
0010
0100
1000
,
0010
1000
0100
0000
,
1000
0100
0010
0000
,
0001
0100
0010
0000
,
1000
0001
0010
0001
,
1000
0100
0010
0000
,
0001
1000
0010
0000
,
1000
0001
0010
0000
,
0001
0010
0100
1000
,
0001
1000
0010
0000
,
1000
0010
0100
0000
,
0001
0010
0100
0000
,
1000
0001
0100
0001
,
0010
0100
1000
0000
,
0010
0000
1001
0000
,
0002
0100
0103
0000
,
0010
1000
0100
1000
,
0010
0100
0001
0000
,
1000
0100
1001
0000
,
0001
0100
1001
0000
,
0001
0100
0010
1000
,
0010
0100
0001
0000
,
1000
0100
1000
0001
,
0010
0000
0100
0000
,
0010
0001
1000
0001
,
0100
0000
0010
0000
,
1000
0001
0100
0001
,
0010
0000
0100
0000
,
1000
0100
1000
0001
,
0010
0000
1001
0000
,
0001
0010
0001
0100
,
0010
1000
0001
0000
,
0010
0001
0100
0000
,
0010
1000
0100
0000
,
2000
0000
0000
3000
,
0001
1000
0100
0000
,
1000
0001
0100
0000
,
0001
1000
0100
1000
,
0010
0100
0001
0000
,
0010
0100
1000
0000
,
0010
0100
0001
0000
,
2000
0000
3001
0000
,
0010
0001
1000
0000
,
0010
1000
0001
0000
,
0010
0001
1000
0000
,
0010
1000
0001
0010
,
0100
0000
0010
0001
,
0100
0000
0001
1000
,
0010
0000
1000
0100
,
0010
0000
0001
1000
,
0100
0000
1000
0010
,
0100
0000
0010
1000
,
0001
0000
0010
0001
,
0100
0010
1000
1001
,
0000
1000
0100
0001
,
0100
1000
0100
0001
,
0100
1000
0010
0100
,
0001
0000
0100
0010
,
1001
0001
1000
0100
,
0010
0100
1000
0010
,
1000
0100
1001
0010
,
0001
0100
0001
1001
,
0000
0010
0001
1000
,
0001
0010
0100
1000
,
0010
1000
0001
1000
,
0100
0000
0010
0100
,
1001
0100
0010
0100
,
1000
0001
0100
0010
,
0100
0001
1001
0010
,
0001
1000
0100
1001
,
0000
0010
0100
1000
,
0100
0010
0100
1000
,
0010
0100
0001
1000
,
0100
0000
0100
0010
,
1001
0001
0100
0010
,
1000
0001
0010
0001
,
1000
0010
1001
0100
,
0001
1000
0100
1001
,
0000
1000
0010
1000
,
0100
0010
0001
1000
,
0001
0010
0001
0100
,
0001
0000
0010
0100
,
1001
1000
0100
1000
,
0001
0100
0010
1000
,
0100
1000
0001
0100
,
0010
0000
0000
2000
0000
0002
0000
0000
,
0000
3003
0000
0000
;

//---------------dance-single - ----------------
#NOTES:
     dance-single:
     :
     Beginner:
     2:
     0.158,0.264,0.085,0.000,0.000: // measure 1
0000
0000
0000
0000
,  // measure 2
0000
0000
0000
0000
,  // measure 3
0010
0000
0000
0000
,  // measure 4
0010
0000
0000
0000
,  // measure 5
0010
0000
0000
0000
,  // measure 6
0100
0000
0000
0000
,  // measure 7
0010
0000
0000
0000
,  // measure 8
0100
0000
0000
0000
,  // measure 9
0001
0000
0000
0000
,  // measure 10
1000
0000
0000
0000
,  // measure 11
0010
0000
0000
0000
,  // measure 12
1000
0000
0000
0000
,  // measure 13
0100
0000
0000
0000
,  // measure 14
0100
0000
0000
0000
,  // measure 15
1000
0000
0000
0000
,  // measure 16
0001
0000
0001
0000
,  // measure 17
0001
0000
0000
0000
,  // measure 18
0010
0000
0000
0000
,  // measure 19
1000
0000
0000
0000
,  // measure 20
0010
0000
0000
0000
,  // measure 21
0100
0000
0000
0000
,  // measure 22
0001
0000
0000
0000
,  // measure 23
0100
0000
0000
0000
,  // measure 24
1000
0000
1000
0000
,  // measure 25
1000
0000
0000
0000
,  // measure 26
0100
0000
0000
0000
,  // measure 27
0001
0000
0000
0000
,  // measure 28
0001
0000
0000
0000
,  // measure 29
1000
0000
0000
0000
,  // measure 30
0001
0000
0000
0000
,  // measure 31
1000
0000
0000
0000
,  // measure 32
0010
0000
0010
0000
,  // measure 33
0010
0000
0000
0000
,  // measure 34
0001
0000
0000
0000
,  // measure 35
0010
0000
0000
0000
,  // measure 36
0010
0000
0000
0000
,  // measure 37
1000
0000
0000
0000
,  // measure 38
0001
0000
0000
0000
,  // measure 39
0001
0000
0000
0000
,  // measure 40
1000
0000
1000
0000
,  // measure 41
1000
0000
0000
0000
,  // measure 42
0010
0000
0000
0000
,  // measure 43
0010
0000
0000
0000
,  // measure 44
0100
0000
0000
0000
,  // measure 45
1000
0000
0000
0000
,  // measure 46
0010
0000
0000
0000
,  // measure 47
1000
0000
0000
0000
,  // measure 48
0100
0000
0100
0000
,  // measure 49
0100
0000
0000
0000
,  // measure 50
0010
0000
0000
0000
,  // measure 51
0010
0000
0000
0000
,  // measure 52
0010
0000
0000
0000
,  // measure 53
1001
0000
0000
0000
,  // measure 54
0001
0000
0000
0000
,  // measure 55
1000
0000
0000
0000
,  // measure 56
0001
0000
0000
0000
,  // measure 57
0100
0000
0000
0000
,  // measure 58
0100
0000
0000
0000
,  // measure 59
0100
0000
0000
0000
,  // measure 60
1001
0000
0000
0000
,  // measure 61
0001
0000
0000
0000
,  // measure 62
0100
0000
0000
0000
,  // measure 63
0010
0000
0000
0000
,  // measure 64
1000
0000
0000
0000
,  // measure 65
0100
0000
0000
0000
,  // measure 66
0100
0000
0000
0000
,  // measure 67
0010
0000
0000
0000
,  // measure 68
0010
0000
0000
0000
,  // measure 69
0100
0000
0000
0000
,  // measure 70
0100
0000
0000
0000
,  // measure 71
1000
0000
1000
0000
,  // measure 72
0001
0000
0001
0000
,  // measure 73
1001
0000
0000
0000
,  // measure 74
0100
0000
0000
0000
,  // measure 75
0100
0000
0000
0000
,  // measure 76
0001
0000
0001
0000
,  // measure 77
1001
0000
0000
0000
,  // measure 78
0010
0000
0000
0000
,  // measure 79
1000
0000
0000
0000
,  // measure 80
0010
0000
0010
0000
,  // measure 81
1001
0000
0000
0000
,  // measure 82
0001
0000
0000
0000
,  // measure 83
0010
0000
0000
0000
,  // measure 84
1000
0000
1000
0000
,  // measure 85
1001
0000
0000
0000
,  // measure 86
1000
0000
0000
0000
,  // measure 87
0100
0000
0001
0000
,  // measure 88
0001
0000
1000
0000
,  // measure 89
1001
0000
0000
0000
,  // measure 90
0100
0000
0000
0000
,  // measure 91
0010
0000
0000
0000
,  // measure 92
0100
0000
0010
0000
,  // measure 93
1001
0000
0000
0000
,  // measure 94
1000
0000
0000
0000
,  // measure 95
0001
0000
0001
0000
,  // measure 96
0010
0000
0010
0000
,  // measure 97
1001
0000
0000
0000
,  // measure 98
0100
0000
0000
0000
,  // measure 99
0001
0000
0000
0000
,  // measure 100
0001
0000
0100
0000
,  // measure 101
1001
0000
0000
0000
,  // measure 102
0001
0000
0000
0000
,  // measure 103
0100
0000
0000
0000
,  // measure 104
0010
0010
0010
0000
;
