#TITLE:Dar[k]wish;
#SUBTITLE:;
#ARTIST:Akino;
#TITLETRANSLIT:;
#SUBTITLETRANSLIT:;
#ARTISTTRANSLIT:;
#CREDIT:;
#BANNER:Dar[k]wish-Banner.PNG;
#BACKGROUND:Dar[k]wish-BG.png;
#LYRICSPATH:;
#CDTITLE:zukin-man-cdtitle.png;
#MUSIC:Dar[k]wish.mp3;
#OFFSET:-1.100;
#SAMPLESTART:98.400;
#SAMPLELENGTH:11.900;
#SELECTABLE:YES;
#BPMS:0.000=124.000;
#STOPS:;
#BGCHANGES:;

//---------------dance-single - ----------------
#NOTES:
     dance-single:
     :
     Hard:
     8:
     0.510,0.461,0.264,0.066,0.103:
0000
0000
0000
0000
,
0000
0000
0000
0000
,
0001
0001
0100
0000
1000
1000
0100
0000
,
1000
0010
0100
0001
0010
0100
1000
0000
,
0001
0100
0001
0000
1000
0100
1000
0000
,
0001
0010
0100
0010
0001
1000
0100
0000
,
0010
0001
1000
0100
1000
0010
0100
0001
,
0010
0100
1000
2200
0000
0000
3300
0000
,
1000
0100
1000
0001
0100
1000
0100
0001
,
0010
0001
0100
0202
0000
0000
0303
0000
,
1001
1000
0001
0100
0101
0001
1000
0010
,
1010
0010
1000
0100
0110
0000
0000
0000
,
0100
0010
0001
0100
0010
0100
0001
1000
,
0010
0100
0001
0202
0000
0000
0303
0000
,
0001
1000
0100
1000
0010
0100
0001
1000
,
0100
0010
0001
0022
0000
0000
0033
0000
,
0100
0001
0010
0100
1000
0010
0001
0010
,
1000
0100
1000
0010
1010
0000
0000
0000
,
0110
0010
1000
0001
1001
1000
0001
0100
,
0101
0100
0010
1000
1010
0000
0000
0000
,
1000
0001
0100
0000
0001
1000
0100
0000
,
1000
0001
0000
1000
0001
0000
1000
0001
0000
1000
0001
0000
0010
0000
0100
0000
,
1000
1100
0001
0101
,
0010
0000
1010
0000
0010
1000
0001
0000
,
0010
0011
1000
1100
,
0010
0000
0110
0000
0010
0100
0001
0000
,
1000
0001
0100
0001
0010
0100
1000
0010
,
0100
0010
1000
0100
0010
0001
0101
0000
,
0001
0100
0001
1000
0010
0001
0010
1000
,
0001
1000
0100
1000
0001
0010
0011
0000
,
0010
0100
1000
0001
0100
0010
0100
0010
,
1000
0001
0010
0100
1000
0010
0110
0000
,
0100
0001
1000
0001
0010
0100
1000
0100
,
1000
0010
0100
0001
0010
0001
1000
0100
,
0010
0000
0100
0000
1000
0000
0001
0100
0000
0001
0100
0000
0010
0000
0000
0000
,
1000
0100
1000
0000
0001
0000
1000
0100
1000
0000
0001
0000
0100
0000
0000
0000
,
0001
0000
1000
0000
0100
0000
1000
0100
0000
0100
0000
0000
0010
0000
0001
0000
,
0100
0010
0100
0000
0001
0000
0100
0010
0100
0000
0001
0000
1000
0000
0000
0000
,
0010
0000
0100
0000
0001
0000
1000
0100
1000
0000
0001
0000
0100
0000
0000
0000
,
0010
0000
1000
0000
0100
0000
0010
0001
0010
0000
0001
0000
1000
0000
0000
0000
,
0001
0000
0100
0000
0001
0000
0010
0100
0010
0000
0100
0000
1000
0000
0000
0000
,
0100
0000
1000
0000
0010
0000
0100
0001
0100
0000
0001
0000
0010
0000
0000
0000
,
0001
0000
1000
0000
0001
0000
1000
0100
1000
0000
0010
0000
1000
0000
0001
0000
,
0010
0000
0100
0000
0010
0000
0001
0100
0001
0000
1000
0000
0001
0000
0010
0000
,
0100
1000
0001
0000
0001
1000
0001
0010
,
0100
0000
1000
0000
0001
0000
1000
0100
1000
0000
0100
0000
0010
0000
0001
0000
,
0100
0011
0100
1100
,
0001
0000
0101
0000
0001
1000
0100
0000
,
1000
1010
0100
0110
,
0001
0000
0011
0000
0100
0010
0001
0000
,
0010
0000
0001
0000
1000
0000
0100
0000
0000
0000
1000
0001
1000
0000
0100
0000
,
0000
0000
0010
0000
0001
0000
0100
0000
0000
0000
0010
1000
0010
0000
0100
0000
,
0000
0000
0001
0000
1000
0000
0100
0000
0000
0000
1000
0010
1000
0000
0001
0000
,
0000
0000
0010
0000
0100
0000
1000
0000
0000
0000
0010
0100
0010
0000
1000
0000
,
0100
1000
0001
0100
1000
0100
0010
0100
,
0001
1000
0001
0010
0100
0010
0001
1000
,
0010
0001
0010
1000
0100
1000
0001
0100
,
0001
1000
0010
0100
0001
1000
0100
0010
,
0100
0000
0000
1001
0000
0000
0010
0000
0000
1001
0000
0000
1100
0000
0101
0000
;

//---------------dance-single - ----------------
#NOTES:
     dance-single:
     :
     Challenge:
     9:
     0.583,0.559,0.503,0.066,0.186:
0000
0000
0000
0000
,
0000
0000
0000
0000
,
1001
0001
0100
0000
1001
1000
0100
0000
,
0010
0001
0100
1000
0100
0001
1000
0000
,
1001
1001
0100
0000
1001
1001
0100
0000
,
1000
0000
0100
0000
0010
0000
0001
0000
1000
0001
1000
0001
1000
0001
1000
0000
,
1001
0100
1000
0001
0100
0001
0010
0100
,
1000
0010
0100
0220
0000
0000
0330
0000
,
1001
0010
1000
0001
0010
1000
0010
0001
,
0100
0010
1000
2020
0000
0000
3030
0000
,
1000
0001
0101
0101
0001
1000
1100
1100
,
0010
0100
0101
0011
1100
0000
0000
0000
,
0110
0010
0100
1000
0001
0100
0001
1000
,
0001
0010
0100
0220
0000
0000
0330
0000
,
0101
0001
0010
0100
0001
0100
1000
0001
,
0100
0010
1000
2020
0000
0000
3030
0000
,
0101
0010
1000
0001
0010
1000
0001
0100
,
1000
0001
0010
0100
1100
0000
0000
0000
,
0001
0100
0101
0101
1000
0010
1010
1010
,
1000
0001
0011
0101
0110
0000
0000
0000
,
0010
1000
0100
0100
0010
0001
0100
0100
,
0001
0100
0000
0010
0100
0000
0001
0100
0000
0001
1000
0000
0010
0000
0100
0000
,
0001
1010
1000
0110
,
0001
0000
1100
0000
1001
0001
0100
0000
,
0001
1100
0001
1010
,
0100
0000
0101
0000
1001
1000
0100
0000
,
0101
0000
0100
0000
0001
0000
0010
0000
0100
0000
1000
0001
1000
0000
0010
0000
,
1000
0100
0001
0100
0010
0001
0110
0000
,
1100
0000
0100
0000
1000
0000
0001
0000
0100
0000
0001
0010
0001
0000
0100
0000
,
0010
1000
0100
0001
0100
1000
0011
0000
,
1001
0000
0010
0000
1000
0000
0100
0000
1000
0000
0001
0100
0001
0000
0100
0000
,
0010
1000
0010
0100
1000
0100
0110
0000
,
1010
0000
0100
0000
1000
0000
0001
0000
0100
0000
0010
0100
0010
0000
1000
0000
,
0001
0010
0100
0001
0100
1000
0010
0100
,
0010
0000
0100
0000
0001
0000
1000
0100
0000
0100
0010
0000
0001
0000
0000
0000
,
1000
0001
1000
0001
0100
0010
0100
0010
1000
0000
0001
0000
0100
0000
0000
0000
,
0010
0000
1000
0000
0001
0000
0010
0100
0000
0100
0000
0000
0100
0000
1000
0000
,
0001
0010
0001
0010
0100
1000
0100
1000
0010
0100
0010
0100
0001
0000
0000
0000
,
1000
0000
0100
0000
1000
0000
0001
0100
1000
0000
0100
0000
0010
0000
1000
0000
,
0001
0000
1000
0000
0100
0000
0010
0001
1000
0000
0010
1000
0100
0000
0010
0000
,
0100
0000
1000
0000
0100
0000
1000
0010
0001
0000
1000
0000
0100
0000
1000
0000
,
0100
0000
0001
0000
0010
0000
0100
1000
0001
0000
0100
0001
0010
0000
0000
0000
,
0001
1000
0001
0000
0010
0000
0100
1000
0100
1000
0100
0000
1000
0000
0001
0000
,
0100
0001
1000
0000
0001
0000
1000
0001
0100
0001
1000
0000
0001
0000
0100
0000
,
0010
0000
0100
0000
1001
0000
0000
0000
0010
0000
0100
0000
0001
0000
0010
0100
,
1000
0000
0100
0000
1000
0000
0010
0100
0001
0000
1000
0000
0001
0000
0010
0000
,
0100
1010
0001
0110
,
0001
0000
1100
0000
0110
0010
0001
0000
,
1000
0101
0010
1100
,
0001
0000
1010
0000
0110
0010
1000
0000
,
0001
0000
0010
0000
0100
0000
0010
0000
0100
0000
1000
0001
0010
0000
0100
0000
,
0010
0000
0001
0000
0010
0000
1000
0000
0010
0000
0001
0100
1000
0000
0100
0000
,
0010
0000
0100
0000
0001
0000
1000
0000
0100
0000
0010
0001
1000
0000
0001
0000
,
1000
0000
0010
0000
1000
0000
0001
0000
0100
0000
0010
0100
0001
0000
1000
0000
,
0001
0010
0100
0001
0100
0010
1000
0010
,
0100
1000
0001
1000
0010
0100
1001
0100
,
1000
0010
0001
0010
0100
0001
1000
0100
,
0010
0001
1000
0100
0001
1000
0010
0001
,
0011
0000
0000
1100
0000
0000
1010
0000
0000
0101
0000
0000
0110
0000
1001
0000
;

//---------------dance-single - ----------------
#NOTES:
     dance-single:
     :
     Medium:
     6:
     0.347,0.389,0.008,0.206,0.008:
0000
0000
0000
0000
,
0000
0000
0000
0000
,
0001
0000
0100
0000
2000
0100
3100
0000
,
0002
0100
0103
0000
2000
0100
3100
0000
,
1000
0000
0100
0000
0002
0010
0013
0000
,
2000
0010
3010
0000
0002
0010
0010
0010
,
0013
0000
0100
0000
1000
0100
1000
0000
,
0010
0000
1000
0002
0000
0000
0003
0000
,
0010
0000
0100
0000
0001
0100
0001
0000
,
0010
0000
0001
2000
0000
0000
3000
0000
,
0010
1000
0100
0000
0010
0001
0100
0000
,
0010
1000
0001
1000
0001
0000
0000
0000
,
0001
0000
1000
0000
0100
1000
0010
0000
,
0100
0000
0001
2000
0000
0000
3000
0000
,
1000
0000
0001
0000
0100
0001
0010
0000
,
0100
0000
1000
0002
0000
0000
0003
0000
,
0010
0000
0100
0000
1000
0001
0100
0000
,
0100
0000
0001
1000
0100
0000
0000
0000
,
0010
0001
1000
0000
0010
1000
0001
0000
,
0100
0001
1000
0001
1000
0000
0000
0000
,
0010
1000
0100
0000
1000
0000
0001
0000
,
0010
0001
0100
0000
0001
0000
1000
0000
,
0002
0010
1000
0103
,
2000
0000
0010
3001
,
0200
0000
0001
0310
,
2000
0000
0002
3003
,
1000
0100
1000
0000
0100
0000
0010
0000
,
0001
0010
0001
0000
0100
0000
0010
0000
,
1000
0001
1000
0000
0100
0000
0010
0000
,
0001
1000
0001
0000
0100
0000
0010
0000
,
1000
0001
0100
0000
0010
0000
0100
0000
,
0001
1000
0100
0000
0010
0000
0100
0000
,
1000
0010
0100
0000
0001
0000
1000
0000
,
0001
0010
0100
0000
1000
0000
0001
0000
,
2000
0000
0001
0000
0100
0100
3100
0000
,
0002
0000
1000
0000
0100
0100
0103
0000
,
1000
0000
0200
0000
0010
0010
0310
0000
,
0001
0000
0200
0000
0010
0010
0310
0000
,
1000
0000
0100
0000
1000
0010
0100
0000
,
0001
0000
0100
0000
0001
0010
0100
0000
,
0010
0000
0100
0000
0010
0001
1000
0000
,
0010
0000
0100
0000
0010
1000
0001
0000
,
1000
0100
1000
0000
0001
0100
0001
0000
,
1000
0010
1000
0000
0001
0010
0001
0000
,
0100
0001
0010
0000
0100
1000
0010
0000
,
1000
0001
0100
1001
,
2000
0010
0001
3100
,
0002
0000
0010
1003
,
0200
0000
1000
0310
,
0002
0000
2000
3003
,
1000
0100
0000
0010
0000
0001
0010
0100
,
0000
1000
0000
0001
0000
1000
0010
0100
,
0000
0001
0000
0010
0000
0100
1000
0001
,
0000
1000
0000
0010
0000
0100
0001
0000
,
0010
0001
0010
0000
0100
0000
1000
0000
,
0010
1000
0010
0000
0100
0000
0001
0000
,
1000
0001
0100
0000
0010
0000
0100
0000
,
0001
1000
0100
0000
0010
0000
0001
0000
,
2000
0000
0000
0001
0000
0000
0001
0000
0000
0001
0000
0000
0001
0000
3001
0000
;

//---------------dance-single - ----------------
#NOTES:
     dance-single:
     :
     Easy:
     4:
     0.289,0.267,0.074,0.206,0.000:
0000
0000
0000
0000
,
0000
0000
0000
0000
,
0001
0010
0001
1000
,
0010
0100
0002
0003
,
1000
0010
1000
0001
,
0010
0100
2000
3000
,
0010
1000
0001
0100
,
0010
1000
0200
0300
,
0010
0001
1000
0100
,
0010
0001
0200
0300
,
2000
3001
0002
1003
,
0200
0010
0310
0000
,
1000
0100
0001
0100
,
1000
0001
0200
0300
,
0001
0100
1000
0100
,
0001
1000
0200
0300
,
0010
0001
0100
0001
,
1000
0010
0200
0300
,
0002
1003
2000
3001
,
0020
0100
0130
0000
,
0001
0001
1000
1000
,
0010
0100
0001
0010
,
0001
0100
0010
1000
,
0100
0000
1000
0010
,
0100
0000
0001
0010
,
0002
0000
2000
3003
,
0010
1000
0100
1000
,
0010
0100
0001
1001
,
0010
0001
0100
0001
,
0010
0100
1000
1001
,
0100
0010
0100
0001
,
1000
0100
0010
0110
,
0100
0010
0100
1000
,
0001
0100
0010
0110
,
0001
0010
0001
0100
,
0010
1000
0001
0001
,
1000
0010
1000
0100
,
0010
0001
1000
1000
,
2000
0010
0001
3100
,
0002
0010
1000
0103
,
2000
0001
0100
3001
,
0002
1000
0100
1003
,
0200
0010
1000
0310
,
0020
0001
0100
0031
,
2000
0010
0100
3010
,
0002
0010
0100
0013
,
1000
0010
0100
0001
,
0010
0000
0001
0100
,
0010
0000
1000
0100
,
2000
0000
0002
3003
,
1000
0001
1000
1001
,
0010
0100
0010
0110
,
1000
0100
1000
1100
,
0001
0100
0001
0101
,
0010
0001
0100
0001
,
1000
0010
0100
0001
,
1000
0100
1000
0001
,
0100
0010
1000
0100
,
1000
0010
0100
1001
;

//---------------dance-single - ----------------
#NOTES:
     dance-single:
     :
     Beginner:
     2:
     0.171,0.194,0.091,0.000,0.000: // measure 1
0000
0000
0000
0000
,  // measure 2
0000
0000
0000
0000
,  // measure 3
1000
0000
1000
0000
,  // measure 4
0001
0001
0001
0000
,  // measure 5
0001
0000
0001
0000
,  // measure 6
1000
1000
1000
0000
,  // measure 7
0001
0000
0001
0000
,  // measure 8
1000
0000
1000
0000
,  // measure 9
0100
0000
0100
0000
,  // measure 10
0010
0000
0010
0000
,  // measure 11
0100
0000
0100
0000
,  // measure 12
0010
0010
0010
0000
,  // measure 13
1000
0000
1000
0000
,  // measure 14
0001
0000
0001
0000
,  // measure 15
0010
0000
0010
0000
,  // measure 16
0100
0000
0100
0000
,  // measure 17
1000
0000
1000
0000
,  // measure 18
1000
1000
1000
0000
,  // measure 19
0001
0000
0001
0000
,  // measure 20
0001
0001
0001
0000
,  // measure 21
0100
0000
0000
0000
,  // measure 22
0100
0000
0000
0000
,  // measure 23
1001
0000
0000
0000
,  // measure 24
1001
0000
0000
0000
,  // measure 25
0110
0000
0000
0000
,  // measure 26
0110
0000
1001
0000
,  // measure 27
1000
1000
1000
1000
,  // measure 28
1000
1000
1000
0000
,  // measure 29
0001
0001
0001
0001
,  // measure 30
0001
0001
0001
0000
,  // measure 31
0010
0010
0010
0010
,  // measure 32
0010
0010
0010
0000
,  // measure 33
0100
0100
0100
0100
,  // measure 34
0100
0100
0100
0000
,  // measure 35
0001
0000
0001
0000
,  // measure 36
0001
0001
0001
0000
,  // measure 37
1000
0000
1000
0000
,  // measure 38
1000
1000
1000
0000
,  // measure 39
0100
0100
0100
0000
,  // measure 40
0010
0010
0010
0000
,  // measure 41
0001
0001
0001
0000
,  // measure 42
1000
1000
1000
0000
,  // measure 43
0001
0000
1000
0000
,  // measure 44
0001
0000
1000
0000
,  // measure 45
0010
0010
0010
0000
,  // measure 46
0100
0100
0100
0000
,  // measure 47
1001
0000
0000
0000
,  // measure 48
1001
0000
0000
0000
,  // measure 49
0110
0000
0000
0000
,  // measure 50
0110
0000
1001
0000
,  // measure 51
0010
0010
0010
0000
,  // measure 52
0100
0100
0100
0000
,  // measure 53
0010
0010
0010
0000
,  // measure 54
0100
0100
0100
0000
,  // measure 55
1000
0000
1000
0000
,  // measure 56
0001
0000
0001
0000
,  // measure 57
0100
0000
0100
0000
,  // measure 58
0010
0000
0010
0000
,  // measure 59
0000
0000
0000
1001
;
