#TITLE:A Little Bit of Both;
#SUBTITLE:;
#ARTIST:Boby Brown;
#TITLETRANSLIT:;
#SUBTITLETRANSLIT:;
#ARTISTTRANSLIT:;
#GENRE:;
#CREDIT:;
#MUSIC:A Little Bit of Both -brown.ogg;
#BANNER:;
#BACKGROUND:;
#CDTITLE:;
#SAMPLESTART:0.000;
#SAMPLELENGTH:0.000;
#SELECTABLE:YES;
#OFFSET:-0.288;
#BPMS:0.000=134.000;
#STOPS:;
#BGCHANGES:;
#FGCHANGES:;

//--------------- dance-single - Zipperhead Prodiuctions ----------------
#NOTES:
     dance-single:
     Zipperhead Prodiuctions:
     Medium:
     7:
     0,0,0,0,0:
0000
0000
0000
2000
,
0010
0000
3010
0000
0100
0000
0001
0010
,
0001
0020
0200
0000
,
0000
0330
1000
0001
,
1000
0001
1000
0000
0001
0000
1001
0000
,
0010
0001
0100
0001
,
1000
0000
0010
1000
0010
0000
2020
0000
,
0000
0000
3030
0020
,
0000
0130
0200
0000
,
0310
0002
0000
0010
,
0013
0010
0100
1000
0000
0000
2200
0000
,
0000
0000
0000
0000
3300
0000
0010
0100
,
0010
0000
0100
0010
0100
0000
1000
0001
,
1000
0000
0001
1000
0001
0000
0002
0000
,
0000
0000
0000
0010
,
0000
0013
1001
0000
,
0001
0010
0100
0010
0001
1000
0001
0000
,
1000
0100
0010
0001
,
0001
0000
0000
0000
0001
0010
0100
1000
,
0001
1000
1001
0000
,
0001
0010
0001
0000
1000
0000
0010
0010
,
0000
2000
0000
0100
,
3001
0000
0100
0010
0100
0000
0220
0000
,
0000
0000
0000
0000
0330
0000
0010
1000
,
0010
0100
0001
0202
,
0000
0000
0000
0000
0303
0000
1000
0001
,
1000
1000
0001
2020
,
0000
0000
0000
3030
,
0100
0001
0010
0000
1000
0000
0001
0000
,
0100
0020
0000
0030
0000
0000
0010
0200
,
0000
2300
0002
0000
,
0000
0000
3003
0000
1001
0000
0010
0100
,
0001
2000
0010
3010
,
0020
0000
0000
0000
0130
0001
0100
0000
,
0002
0000
0000
0003
0001
1000
0001
1000
,
0001
1001
0010
0100
,
0001
0010
0100
0010
,
0100
0000
1000
0001
1000
0000
0001
1000
,
0001
0000
2000
0000
0000
0000
0100
0100
,
3100
0000
0000
0000
1000
0100
0010
0000
,
0020
0000
0130
0200
,
0000
0000
0310
0000
1000
0010
1000
0000
,
0100
0010
0001
0010
,
0001
1000
1001
0000
,
0010
0100
0001
0010
,
0100
0000
1000
0010
1000
0000
0020
0000
,
0000
0000
0000
0000
,
1000
0100
0130
0000
,
0000
0000
1000
0100
1000
0000
0010
0000
,
0001
0000
0011
0000
0001
0100
0001
0000
,
1000
0010
1010
0020
,
0000
0000
0030
0000
1000
0010
1000
0000
,
0001
0001
1000
1000
,
0010
0100
0220
0000
,
0330
0000
1000
0010
1000
0000
0100
0000
,
0020
0000
0000
0000
0031
0000
0010
0001
,
0010
0000
0021
0000
0000
0000
0000
0030
,
0010
0001
0100
0010
,
1000
0010
1000
0000
1020
0000
0000
0000
,
1000
1030
1010
0011
,
0010
0100
0010
0000
0100
1000
0100
0000
,
0010
0100
0001
0000
0010
0000
0100
0000
,
0220
0000
0000
0000
,
0330
0000
0000
0000
1000
0100
0010
0100
,
0001
2000
0010
3010
,
0020
0000
0000
0000
0130
0001
0100
0000
,
0002
0000
0000
0003
0001
1000
0001
1000
,
0001
1001
0010
0100
,
0001
0010
0100
0010
,
0100
0000
1000
0001
0000
0000
1000
0000
,
0001
1000
0001
0000
2000
0000
0000
0000
,
0100
0100
3100
0000
0000
0000
1000
0100
,
0010
0020
0000
0130
,
0200
0000
0000
0000
0310
0000
1000
0010
,
1000
0000
0100
0000
1000
0100
0010
0000
,
0020
0000
0130
0200
,
0000
0000
0310
0000
1000
0010
1000
0000
,
0100
0010
0001
0010
,
0001
1000
2002
0000
,
0000
0000
0000
0000
,
3003
0000
0000
0000
,
0000
0000
0000
0000
,
0100
0010
0100
0010
,
1000
0001
0000
0000
,
1000
0001
1000
0000
0001
0000
0010
0000
,
0001
1000
0001
0000
1000
0000
0010
0000
,
0010
0100
0001
0000
1000
0000
0001
0000
,
0010
0000
0100
0100
0010
0000
0001
0000
,
1000
0100
1000
0000
1100
0000
0100
0010
,
0001
1000
1000
0010
,
0100
0001
0010
0020
,
0000
0000
0001
0030
1000
0000
0010
0000
,
1000
0100
1000
0000
0010
0000
0001
0000
,
1000
0100
0010
0100
0001
0000
2000
0000
,
0010
3010
0020
0000
,
0130
0001
0100
0000
0002
0000
0000
0003
,
0001
1000
0001
1000
0001
0000
1001
0000
,
0010
0100
0001
0010
,
0100
0000
0010
0000
0100
0000
1000
0001
,
0000
0000
1000
0000
0001
1000
0001
0000
,
1000
0100
0010
0000
0020
0000
0000
0000
,
0130
0200
0000
0310
,
1000
0010
1000
0000
0100
0000
1000
0100
,
0010
0020
0000
0130
,
1000
0001
0010
0200
,
0010
0310
0100
0010
,
0001
0010
0002
1000
,
1003
0100
0010
1000
,
0001
0000
1000
0001
1000
0001
1000
0000
,
0001
0100
0010
0000
1001
0000
0110
0000
,
0000
0000
0000
0000
,
0000
0000
1001
0000
;
