#TITLE:void + lumina;
#SUBTITLE:;
#ARTIST:saiiko2;
#TITLETRANSLIT:;
#SUBTITLETRANSLIT:;
#ARTISTTRANSLIT:;
#GENRE:;
#CREDIT:;
#BANNER:banner.png;
#BACKGROUND:;
#LYRICSPATH:;
#CDTITLE:;
#MUSIC:v+l.ogg;
#OFFSET:-0.100000;
#SAMPLESTART:99.931610;
#SAMPLELENGTH:12.000000;
#SELECTABLE:YES;
#BPMS:0.000000=175.000000
,192.000000=87.500000
,224.000000=175.000000
,288.000000=87.500000
;
#STOPS:
;
#BGCHANGES:;
#KEYSOUNDS:;
#ATTACKS:;

//---------------dance-single - ----------------
#NOTES:
     dance-single:
     :
     Medium:
     10:
     0.498501,0.773490,0.334814,0.290172,0.286452,469.000000,424.000000,45.000000,39.000000,6.000000,1.000000,0.498501,0.773490,0.334814,0.290172,0.286452,469.000000,424.000000,45.000000,39.000000,6.000000,1.000000:
0101
0000
0000
0000
,
0000
0000
0000
0000
,
0000
0000
0000
0000
,
0010
0000
0000
0000
0000
0000
0100
0010
,
1100
0000
0000
0000
,
0001
0000
0110
0000
,
0011
0000
0000
0000
,
1100
0000
0000
0000
,
1010
0000
0000
0000
,
0000
0000
0000
0000
,
0000
0000
0010
0000
0000
0100
0000
0000
,
0001
0000
0000
0010
0000
0000
1000
0000
,
0110
0000
0000
1000
,
0000
0000
0001
0000
,
0000
0000
0000
0000
,
0000
0000
0000
0000
,
2100
0000
0010
0000
,
3001
0000
0010
0000
,
0200
0000
0000
0000
,
0310
0000
0001
0000
,
2010
0000
0000
0100
0000
0000
0010
0000
,
3000
0100
0000
0000
0001
0000
0010
0000
,
0001
1000
0100
0010
,
0100
1000
0010
0100
,
0012
0000
0100
0000
,
1003
0000
0010
0000
,
0100
0000
0000
0010
0000
0000
0000
0000
,
1000
0000
0100
0000
,
0010
0000
0000
0010
0000
0000
0200
0000
,
0000
0300
0100
0010
,
0001
0000
0001
1000
0000
1000
0000
0200
,
0000
0000
0000
0300
0000
0000
1001
0110
,
1001
0000
1100
0000
1000
0100
1000
0000
,
0011
0000
0000
0000
0101
0000
0000
0001
0000
0000
0010
0000
0001
0000
0000
0000
,
1100
0000
1010
0000
1000
0010
1000
0000
,
0011
0000
0000
0000
0101
0000
0000
0100
0000
0010
0000
0000
0001
0000
0000
0000
,
1000
0100
1000
0010
0100
0010
0010
0100
,
0001
0010
0001
0100
0010
0100
0100
0010
,
1000
0010
1000
0100
0001
0100
0100
0001
,
0010
0000
1000
0000
0010
0000
0001
0100
0000
0001
0100
0000
0010
0000
0010
0000
,
1010
0100
0010
1000
0100
0010
0100
0010
,
0001
0100
0010
0001
0010
1000
0001
1000
,
0001
0010
0100
0001
0010
0100
0010
0100
,
1000
0010
0100
1000
0100
0001
1000
0001
,
0110
0000
0000
0000
1000
0000
0001
1000
0001
0000
0100
0000
0010
0000
0110
0000
,
0100
0000
0010
0000
0011
0000
1000
0100
0010
0100
0010
0100
0010
0000
0001
0000
,
0010
0000
1000
0000
0011
0000
0100
0000
1000
0100
1010
0000
0100
0000
0010
0000
,
1000
0001
1000
0001
1000
0001
1000
0001
2000
0000
0000
0000
0000
0000
0000
3000
,
M21M
0010
0000
0001
0000
0000
0000
0001
2310
0000
0000
0000
3200
0000
0000
0000
,
0302
0000
0000
0000
0203
0000
0000
0000
0310
0001
0010
2000
0000
0000
3100
0000
,
0002
0000
0000
0000
0003
0010
0001
0100
0020
0000
0000
0030
0200
0000
0000
0300
,
2000
0000
0000
0000
0000
0000
3200
0000
0000
0000
0000
0000
2300
0000
0000
0000
0000
0000
3100
0000
0010
0000
0100
0000
0010
0000
0001
0000
0010
0100
0010
0100
,
0020
0000
0000
0030
0001
0100
0001
0100
2000
0000
0000
0000
3002
0000
0000
0000
,
0203
0000
0320
0000
0230
0000
2300
0000
3200
0000
2300
0000
3001
0010
0100
0010
,
0002
0023
0230
0302
2003
3020
0230
0320
,
2030
0000
0000
0000
0002
0000
0000
3003
,
1MM1
0100
0010
0100
0010
0001
0010
0001
,
1000
0100
1000
0000
0010
0100
0010
0000
0001
0010
0001
0000
0010
0000
0100
0000
,
0001
0000
1000
0100
0010
0000
0100
0010
0001
0000
0010
0100
1000
0000
0001
0010
,
0100
0000
1000
0000
0010
0000
0100
0010
0100
0000
0001
0000
0010
0000
1000
0000
,
0100
0000
1000
0100
0010
0100
0010
0001
0010
0000
0001
0010
0100
0010
0100
0000
,
1000
0000
1000
0100
0010
0000
0100
0010
0001
0000
0001
0010
0000
0010
0100
0000
,
1000
0100
0010
0100
0010
0001
0010
0100
,
1000
0000
0001
0000
1000
0000
0010
0000
0100
0001
0100
0001
0100
0000
0010
0000
,
1000
0000
0100
0000
1000
0000
0100
0010
0001
0000
1000
0000
0001
0000
0100
0000
,
0100
0000
1000
0100
1000
0000
0001
0010
0001
0000
0100
0010
0100
0000
0010
0100
,
0010
0000
0001
0000
0010
0000
0100
0000
1000
0100
1000
0100
0010
0100
0010
0100
,
0010
0000
0000
0001
0000
0000
0010
0000
0000
0001
0010
0001
,
0010
0000
1100
0000
0100
0100
0010
0100
,
0000
0000
0010
0000
0110
0000
0000
0100
1000
0000
0100
0000
0011
0000
0000
0000
,
1000
0001
1000
0001
0100
0010
0100
0010
,
1000
0001
1000
0001
0100
0010
0100
0010
0200
0000
0000
0000
0000
0000
0000
0300
,
11MM
0000
0000
0000
0000
0100
0010
0000
,
0001
0000
0000
0010
0000
0000
0100
0000
0000
0000
0000
0000
1000
0000
0010
0000
,
0100
0000
0000
0011
,
0110
0000
0000
0100
0000
0000
1000
0000
0100
0010
0000
0000
0011
0000
0000
0000
,
1001
0000
0000
0100
0000
0000
0010
0000
0000
0000
0000
0001
0010
0100
0010
0000
,
1100
0000
0000
0110
0000
0000
0011
0000
0000
0000
0000
0000
1001
0000
0000
0000
,
0110
0000
0011
0101
,
1001
0000
0000
0000
0000
0000
0000
0000
0000
0000
0000
0000
0000
0000
0000
0000
0000
0000
0000
0000
0000
0000
0000
0000
0000
0000
0000
0000
0100
0010
0100
0010
;

//---------------dance-single - ----------------
#NOTES:
     dance-single:
     :
     Hard:
     14:
     0.732339,0.922238,0.431538,0.089284,0.494781,689.000000,631.000000,58.000000,12.000000,6.000000,0.000000,0.732339,0.922238,0.431538,0.089284,0.494781,689.000000,631.000000,58.000000,12.000000,6.000000,0.000000:
1010
0000
1000
0100
0000
0100
0010
0000
,
0010
0001
0000
0001
0010
0001
0010
0100
,
1000
0000
1000
0100
0000
0100
0010
0000
,
0010
0001
0000
0001
0010
0001
0010
0100
,
0011
0000
0001
0010
0000
0010
0100
0000
,
0100
1000
0000
1000
0100
0010
0100
0010
,
0001
0000
0001
0010
0000
0010
0100
0000
,
0100
1000
0000
1000
0100
0010
0001
0010
,
0110
0000
0100
1000
0000
1000
0010
0000
,
0010
0100
0000
0100
0001
0010
0001
0010
,
0100
0000
0100
0001
0000
0001
0010
0000
,
0010
1000
0000
1000
0001
0100
0001
0100
,
0011
0000
0001
0010
0000
0010
0100
0000
,
0100
1000
0000
1000
0001
0100
0010
0100
,
1000
0000
1000
0100
0000
0100
0001
0000
,
0001
0010
0000
0010
0100
0010
0001
0010
,
1100
0000
0100
0010
0001
0010
0100
0000
,
0001
0010
0000
0010
0100
1000
0100
1000
,
0010
0000
0100
0010
0000
0010
0001
0000
,
1010
1000
0000
0001
0011
0100
0010
0100
,
1100
0010
0100
0010
0000
0010
0001
0000
,
0001
0010
0000
0010
0100
1000
0100
0010
,
1000
0001
1000
0010
1000
0100
0010
0100
,
0010
0001
0100
0001
0010
0100
0001
0100
,
1100
0000
0000
0000
0110
0000
0000
0100
,
0000
0100
0110
0000
,
0001
0000
0000
0001
1001
0000
0000
0100
,
0000
0100
0110
0000
,
0010
0000
0010
0000
0010
0100
0010
0000
1000
0000
1000
0000
1000
0000
0100
1000
,
0100
0000
0001
0000
0010
0001
0010
0000
0001
0000
0010
0000
0100
1000
0100
1000
,
0100
0010
0002
0013
0002
0103
1000
1000
,
0100
0000
1000
0000
0100
1000
0100
0000
0010
0000
0010
0000
1100
0000
0011
0000
,
1001
0000
1010
1000
0100
0010
0110
0000
,
0001
0000
0000
0000
0101
0000
0010
0100
0000
0010
0100
0000
1100
0000
0000
0000
,
0001
0000
1001
0100
0010
0100
1100
0000
,
0001
0000
0001
0000
0011
0000
0000
0100
0000
0010
0000
0000
1100
0000
0100
0000
,
0001
0000
0001
0010
0001
0000
0001
0000
0001
0010
0001
0010
0001
0000
0001
0010
,
0100
0000
0100
0010
0100
0000
0100
0000
0100
0010
0100
0010
0100
0000
0100
0010
,
1000
0000
1000
0100
1000
0000
1000
0000
1000
0100
1000
0100
1000
0000
1000
0100
,
1000
0100
1000
0100
0010
0100
0010
0100
0010
0000
0001
0000
0010
0000
0010
0000
,
0100
0010
0100
0001
1000
0001
0010
1000
,
0001
0010
1000
0010
0100
0001
0010
0001
,
1000
0010
0100
0001
0010
0001
0100
0010
,
0001
0100
0010
1000
0100
1000
0010
0100
,
0002
0000
0000
0000
0013
0000
0100
1000
0100
0000
0100
0000
0010
0000
0110
0000
,
1000
0000
0001
0000
0011
0000
1000
0001
0100
0010
0100
0010
0100
0000
0010
0000
,
1000
0100
0011
1000
0100
0011
0100
0010
,
1000
0001
1000
0001
1000
0001
1000
0001
2000
0000
0000
0000
0002
0000
0000
3003
,
M11M
0100
0000
0010
0000
0000
0000
1000
0110
0000
0000
0100
0011
0000
0000
0010
,
1001
0000
0000
0000
0110
0000
0000
0000
1000
0100
0010
0110
0001
0000
0001
0000
,
0010
0000
0000
0000
0000
0100
0010
0001
1010
0000
0000
0000
0110
0000
0000
0000
,
0011
0000
0000
0000
0000
0000
0001
0000
0000
0000
0000
0000
0010
0000
0000
0000
0000
0000
0100
0000
0000
0000
1000
0000
0100
0000
1000
0000
0100
0010
0100
0010
,
0100
0000
0010
0000
0100
0001
0100
0001
0010
0010
0100
0010
0100
0100
1000
0100
,
0010
0000
0100
0010
0100
0000
0001
0000
1000
0000
0010
0000
1000
0100
0010
0001
,
0020
0000
0130
0010
0200
0000
1300
0100
2000
0000
3100
1000
0200
0000
0310
0100
,
0020
0000
0000
0000
0000
0000
0000
0000
0200
0000
0000
0000
0000
0000
0000
0330
,
1MM1
0100
0010
0100
0010
0001
0010
0100
,
1000
0001
0100
0010
1000
0001
0100
0010
1000
0100
0010
0001
1000
0100
0010
0001
,
1000
0000
0010
0100
0010
0000
0100
0010
0100
0000
0001
0010
0001
0010
0100
0010
,
0100
0000
1000
0000
0100
0000
0010
0100
0010
0000
0100
0000
1000
0000
0001
0000
,
1000
0000
1000
0100
0010
0100
0010
0001
0010
0000
0001
0010
0100
1000
0100
0000
,
0010
0000
0010
0001
0010
0100
0010
0000
1000
0000
1000
0100
0000
0100
0010
0000
,
1000
0100
0010
0001
1000
0100
0010
0001
1000
0000
0100
0010
0001
0000
0010
0000
,
0100
0000
0010
0000
0001
0000
1000
0000
0001
1000
0001
1000
0001
0000
0100
0000
,
0010
0000
0100
0000
0010
0000
1000
0100
1000
0000
0010
0000
0100
0000
0001
0000
,
0010
0000
0001
0010
0001
0010
0100
1000
0100
0010
0100
0010
0001
0000
0010
0100
,
1000
0001
0100
0010
1000
0001
0100
0010
1000
0100
0010
0001
1000
0100
0010
0001
,
1000
0000
0000
0000
0000
0000
0100
0000
0000
0000
0000
0000
0010
0000
0000
0000
0000
0000
1000
0100
1000
0100
1000
0100
,
1000
0000
0110
0000
1000
1000
0100
1100
,
0000
0000
0100
0000
0110
0000
0000
0010
0001
0000
0001
0000
0101
0000
0000
0000
,
0010
0100
0010
0100
0010
1000
0010
1000
,
0001
0010
0100
1000
0001
0010
0100
1000
0002
0000
0000
0000
0000
0000
0000
0003
,
1MM1
0000
0000
0000
0000
1000
1000
0000
,
0011
0000
0000
0110
0000
0000
1100
0000
0000
0000
0000
0000
0100
0000
0010
0000
,
0101
0000
0000
1000
0000
0000
0100
0000
0000
0000
0000
0000
0110
0000
0000
0000
,
0011
0000
0000
0001
0000
0000
0010
0000
1000
0100
0000
0000
0001
0000
0000
0000
,
1001
0000
0000
0010
0000
0000
0100
0000
0000
0000
0000
1000
0100
0010
0100
0000
,
0011
0000
0000
0110
0000
0000
0011
0000
1000
0000
0000
0000
1010
0000
0000
0000
,
0110
0000
0000
0001
0000
0000
0010
0000
1100
0100
0000
0000
0011
0000
0000
0100
,
1100
0000
0000
0000
0010
0000
0000
0000
0100
0000
0010
0000
0000
0000
0000
0000
0001
0000
0000
0000
0000
0000
0010
0000
0000
0000
0000
0000
1000
0001
1000
0001
;

//---------------dance-single - ----------------
#NOTES:
     dance-single:
     :
     Challenge:
     17:
     0.923661,1.279233,0.372016,0.066963,0.918878,869.000000,819.000000,50.000000,9.000000,5.000000,0.000000,0.923661,1.279233,0.372016,0.066963,0.918878,869.000000,819.000000,50.000000,9.000000,5.000000,0.000000:
// measure 0
1010
1000
0100
1000
0010
0010
0100
0010
,  // measure 1
0100
0010
0100
0100
0001
0010
0001
0001
,  // measure 2
0010
0100
0010
0010
1000
0001
1000
1000
,  // measure 3
0101
0010
0001
0001
0100
0010
1100
1100
,  // measure 4
0011
1000
0010
0010
0100
0010
0100
0100
,  // measure 5
0011
0010
0001
0001
1100
0010
1000
1000
,  // measure 6
0011
0100
0010
0010
1000
0010
1000
1000
,  // measure 7
0101
0010
0001
0001
0100
0010
0100
0100
,  // measure 8
1001
0010
0001
0010
1000
0100
1000
0100
,  // measure 9
0010
0100
0010
0100
0001
1000
0001
1000
,  // measure 10
0010
0100
0011
0100
1000
0110
1000
0010
,  // measure 11
1100
0001
0100
0011
0010
0100
0110
0100
,  // measure 12
0011
0010
0001
0010
1000
0010
1100
0010
,  // measure 13
0100
0001
0100
0001
0011
1000
0010
1000
,  // measure 14
0100
0010
0100
0010
0001
1000
0001
1000
,  // measure 15
0010
0100
0010
0100
1000
0010
1000
0010
,  // measure 16
1100
0000
0100
0010
0100
0001
0100
0000
0010
1000
0010
0100
0010
0000
0100
0010
,  // measure 17
0100
0000
0010
0100
0010
1000
0010
0000
0100
0001
0100
0010
0100
0000
0010
0100
,  // measure 18
0010
0000
1000
0010
1000
0100
1000
0000
0001
0010
0001
0100
0001
0000
0010
0100
,  // measure 19
0010
0000
1000
0010
1000
0100
1000
0000
0001
0100
0010
0100
0001
0000
1000
0010
,  // measure 20
1000
0000
0010
0100
0010
1000
0010
0000
0100
0001
0100
0010
0100
0000
0001
0010
,  // measure 21
0001
0000
1000
0010
1000
0100
1000
0000
0001
0100
0001
0010
0001
0000
1000
0010
,  // measure 22
1000
0000
0100
0010
0100
0001
0100
0000
0001
1000
0001
0100
0001
0000
0010
1000
,  // measure 23
0010
0000
0100
0001
0100
0010
0100
0000
1000
0010
1000
0001
1000
0000
0010
0100
,  // measure 24
0010
0000
1000
0100
1000
0010
1000
0000
0001
0100
0001
0010
0001
0000
1000
0010
,  // measure 25
1000
0000
0100
1000
0100
0010
0100
0000
0001
0010
0001
0100
0001
0000
1000
0010
,  // measure 26
1000
0000
0100
0010
0100
0001
0100
0000
0010
1000
0010
0100
0010
0000
1000
0010
,  // measure 27
1000
0000
0001
0100
0001
0010
0001
0000
1000
0010
1000
0001
1000
0000
0010
0100
,  // measure 28
0010
0000
0010
0000
0010
0100
0010
0100
1000
0000
1000
0100
1000
0000
0200
0300
,  // measure 29
0010
0000
0100
0000
0010
0100
0010
0100
0010
0000
0001
0000
1000
0001
1000
0001
,  // measure 30
0100
1000
0002
0013
0001
0010
0100
1000
,  // measure 31
0010
0000
0100
0000
0010
0001
0010
0000
0100
0000
0000
0000
0011
0000
0110
0000
,  // measure 32
1100
0000
0010
0100
0010
0000
0100
0010
0100
1000
0100
0000
0010
0000
0001
0000
,  // measure 33
1000
0000
0010
0000
0100
0000
0001
0010
0000
0001
0010
0000
0100
0000
0010
0000
,  // measure 34
1000
0000
0100
0010
0100
0000
1000
0100
1000
0100
1000
0000
0010
0000
0100
0000
,  // measure 35
0001
0000
0010
0100
0010
0000
1000
0100
0000
0100
0010
0000
0001
0000
0010
0100
,  // measure 36
1000
0000
0001
1000
0001
0000
1000
0000
1000
0010
1000
0010
1000
0000
0100
0010
,  // measure 37
0100
0000
0010
0100
0010
0000
0001
0000
1000
0001
1000
0001
1000
0000
0010
0100
,  // measure 38
0010
0000
1000
0010
1000
0000
1000
0000
0001
0100
0001
0100
0001
0000
0010
0001
,  // measure 39
0010
0100
0001
1000
0010
0100
0001
1000
0000
0001
1000
0001
0100
0000
0100
0000
,  // measure 40
0110
0000
0100
0000
0001
0000
1000
0000
0001
0000
0010
0000
1000
0000
0100
0010
,  // measure 41
0100
0000
0010
0000
0001
0000
1000
0010
0001
0000
0100
0000
1000
0000
0010
0000
,  // measure 42
0100
0000
0001
0000
1000
0000
0010
0100
0010
0000
1000
0000
0010
0000
0100
0000
,  // measure 43
0001
0000
0010
0000
1000
0000
0100
1000
0010
0100
1000
0000
0010
0000
0001
0000
,  // measure 44
0100
0000
0010
0000
0100
0000
1000
0100
1000
0000
0100
0000
0010
0000
0001
0000
,  // measure 45
0100
0000
0001
0000
0010
0000
1000
0001
0100
0010
1000
0001
0100
0000
0010
0000
,  // measure 46
0100
0000
0001
0000
1100
0000
0010
0000
0001
0000
1100
0000
0010
0100
0010
0100
,  // measure 47
0001
0000
0000
0010
0000
0000
0001
0000
0000
0010
0000
0000
1000
0000
0000
0001
0000
0000
1000
0000
0000
0001
0000
0000
0100
0000
0010
0000
0100
0000
0010
0000
0100
0000
0010
0000
0200
0000
0000
0000
0000
0000
0000
0000
0000
0000
0300
0000
,  // measure 48
M11M
0100
0000
0010
0000
0000
0000
1000
0110
0000
0000
0000
0011
0000
0000
0000
,  // measure 49
1001
0000
0000
0000
1010
0000
0000
0000
0100
0010
0001
1010
0000
0000
0100
0000
,  // measure 50
2000
0000
0000
0000
0000
3100
0010
0100
0011
0000
0000
0000
0110
0000
0000
0000
,  // measure 51
1010
0000
0000
0000
0000
0000
0010
0000
0000
0000
0000
0000
0100
0000
0000
0000
0000
0000
0100
0000
0010
0000
1000
0000
0010
0000
0100
0000
0010
0001
0010
0001
,  // measure 52
0010
0000
0100
0010
0100
0000
1000
0000
0010
0100
0010
0000
0001
0000
0000
0000
1000
0000
0100
1000
0100
0000
0010
0000
0100
0001
0100
0000
0010
0100
0010
0100
,  // measure 53
0010
0000
1000
0100
1000
0000
0010
0000
0100
0010
0100
0000
0001
0000
0000
0000
1000
0000
0100
1000
0100
0000
0010
0000
0001
0100
0001
0000
1000
0000
1000
0000
,  // measure 54
0200
0000
0000
0000
0310
0000
0000
0010
0002
0000
0000
0000
0000
0000
0013
0100
0020
0000
0000
0000
0130
0000
0000
0100
1000
0100
1000
0000
0001
0000
0010
0100
,  // measure 55
0020
0000
0000
0000
0200
0000
0000
0330
,  // measure 56
0100
0010
0100
1000
0010
0100
0010
0001
0010
0100
0010
0100
1000
0000
0010
0000
,  // measure 57
1000
0100
0010
0001
1000
0100
0010
0001
1000
0001
0100
0010
1000
0001
0100
0000
,  // measure 58
0001
0010
0100
0010
1000
0100
0010
0100
0001
0010
0100
0010
1000
0100
0010
0100
,  // measure 59
1000
0000
0100
0000
0010
0000
0100
0010
0100
0000
0001
0000
0010
0000
0100
0000
,  // measure 60
1000
0000
0100
0010
0001
1000
0100
0010
0001
0000
0100
1000
0001
0010
0100
0000
,  // measure 61
0001
0000
0001
0010
0100
0010
0100
1000
0100
0000
0100
0010
0000
0010
0001
0000
,  // measure 62
1000
0100
0010
0001
1000
0100
0010
0001
1000
0000
0100
0010
1000
0000
0100
0000
,  // measure 63
1000
0000
0100
0000
0010
0000
0100
0000
0001
0010
0001
0010
0100
0000
0100
0000
,  // measure 64
0010
0000
0010
0000
0100
0000
1000
0100
1000
0000
0010
0000
0001
0010
0001
0010
,  // measure 65
0100
0000
0010
0000
0010
0000
0001
0010
0100
1000
0100
0000
0010
0100
0010
0100
,  // measure 66
1000
0100
0010
0001
0010
0100
0010
0100
1000
0100
0010
0001
0010
0100
0010
0100
,  // measure 67
1000
0000
0000
0000
0000
0000
0100
0000
0000
0000
0000
0000
0010
0000
0000
0000
0000
0000
1000
0001
0100
0010
1000
0001
,  // measure 68
0100
0100
0110
0000
0010
0010
0100
1100
,  // measure 69
0000
0000
0100
0000
0011
0000
0000
0100
0010
0000
0100
0000
1010
0000
0000
0000
,  // measure 70
0100
0010
1000
0001
1000
0010
0100
0001
,  // measure 71
1000
0100
0010
0001
1000
0100
0010
0001
1000
0100
0010
0001
1000
0100
0010
0001
,  // measure 72
1MMM
0000
0000
0000
0000
1000
0100
0000
,  // measure 73
0110
0000
0000
0011
0000
0000
0110
0000
0000
0000
1000
0000
0100
0000
0010
0000
,  // measure 74
0100
0000
0000
0100
0000
0000
0010
0000
0000
0000
0000
0000
0001
0000
0000
0000
,  // measure 75
0101
0000
0000
1000
0000
0000
0100
0000
1000
0100
0000
0000
0011
0000
0000
0000
,  // measure 76
1001
0000
0000
0100
0000
0000
0010
0000
0000
0000
0000
0001
0010
0100
1000
0000
,  // measure 77
1100
0000
0000
0110
0000
0000
0011
0000
0100
0010
0000
0000
1001
0000
0000
0000
,  // measure 78
0110
0000
0000
1000
0000
0000
0001
0000
0100
0010
0000
0000
1100
0000
0000
0010
,  // measure 79
0100
0000
0000
0000
0001
0000
0000
0000
0000
0000
0100
0000
0000
0000
0000
0000
1000
0000
0000
0000
0000
0000
0001
0000
0000
0000
0000
0000
1000
0100
0010
0001
;
