#VERSION:0.83;
#TITLE:skyrmion;
#SUBTITLE:;
#ARTIST:Daniel Van Eden;
#TITLETRANSLIT:;
#SUBTITLETRANSLIT:;
#ARTISTTRANSLIT:;
#GENRE:;
#ORIGIN:;
#CREDIT:;
#BANNER:skyrmion.png;
#BACKGROUND:skyrmion-bg.png;
#PREVIEWVID:;
#JACKET:skyrmion-jacket.png;
#CDIMAGE:;
#DISCIMAGE:;
#LYRICSPATH:;
#CDTITLE:;
#MUSIC:skyrmion.ogg;
#OFFSET:0.015922;
#SAMPLESTART:12.831297;
#SAMPLELENGTH:19.199999;
#SELECTABLE:YES;
#BPMS:0.000=150.000;
#STOPS:;
#DELAYS:;
#WARPS:;
#TIMESIGNATURES:0.000=4=4;
#TICKCOUNTS:0.000=4;
#COMBOS:0.000=1;
#SPEEDS:0.000=1.000=0.000=0;
#SCROLLS:0.000=1.000;
#FAKES:;
#LABELS:0.000=Song Start;
#BGCHANGES:;
#KEYSOUNDS:;
#ATTACKS:
;

//---------------dance-single - ----------------
#NOTEDATA:;
#CHARTNAME:;
#STEPSTYPE:dance-single;
#DESCRIPTION:;
#CHARTSTYLE:;
#DIFFICULTY:Hard;
#METER:14;
#RADARVALUES:0.523737,0.687500,0.297256,0.487805,0.213415,481.000000,442.000000,39.000000,64.000000,0.000000,0.000000,0.000000,0.000000,0.000000,0.523737,0.687500,0.297256,0.487805,0.213415,481.000000,442.000000,39.000000,64.000000,0.000000,0.000000,0.000000,0.000000,0.000000;
#CREDIT:Daniel Van Eden;
#NOTES:
// measure 0
0000
0000
0000
0000
,  // measure 1
0000
0000
0000
0000
,  // measure 2
0000
0000
0000
0000
,  // measure 3
0000
0000
0000
0000
,  // measure 4
0000
0000
0000
0000
,  // measure 5
0000
0000
0000
0000
,  // measure 6
0000
0000
0000
0000
,  // measure 7
0000
0000
0000
0000
,  // measure 8
1000
0100
1000
0000
0001
0000
0100
1000
,  // measure 9
0100
0000
0101
0000
0001
0000
1010
0010
,  // measure 10
1000
0001
0100
0000
0001
0000
0010
1000
,  // measure 11
0010
0001
1000
0000
1010
0000
0010
0100
,  // measure 12
0001
0110
0100
1001
,  // measure 13
0010
0101
0010
1100
,  // measure 14
0100
1000
1001
0000
0001
0000
0100
0001
,  // measure 15
0010
0001
1001
0000
1000
0000
1000
0010
,  // measure 16
0100
0010
1010
1000
1000
0010
0100
0001
,  // measure 17
0010
0001
0101
0001
0001
1000
0100
0010
,  // measure 18
0001
1100
1000
0110
,  // measure 19
0001
1010
0100
0011
,  // measure 20
0001
0000
0000
0100
0000
0000
0001
0000
0000
1000
0000
0000
0100
0000
0010
0000
,  // measure 21
0002
0000
0000
0000
0003
0000
0001
0100
0010
0000
0100
0000
0010
0000
1000
0000
,  // measure 22
1100
0000
0000
0011
0000
0000
0110
0000
2002
0000
0000
0000
0000
0000
0000
0000
,  // measure 23
0000
0000
0000
0000
3003
1000
0100
1000
,  // measure 24
0020
0000
1030
0001
0002
0000
1003
0200
,  // measure 25
0000
0000
0310
0000
0000
0000
0001
0010
0001
0000
0100
0000
0010
0000
1000
0001
,  // measure 26
1000
0000
0000
1010
0000
0000
0110
0000
2002
0000
0000
0000
0000
0000
0000
0000
,  // measure 27
0000
0000
3003
0000
,  // measure 28
2000
3020
0230
0302
,  // measure 29
2003
3200
0320
0032
,  // measure 30
1003
0000
0010
0000
1000
0000
0001
0000
0010
0100
0010
0100
1000
0001
1000
0001
,  // measure 31
2000
0010
3002
0013
,  // measure 32
0210
1000
1300
0000
0012
1000
1003
0010
,  // measure 33
0200
0000
0001
0000
0301
0000
0000
0000
2010
0000
0001
0000
3001
0000
0010
0100
,  // measure 34
0020
0001
0031
0000
2100
0010
3010
0100
,  // measure 35
0001
0000
0010
0001
0010
0001
0100
0010
1000
0000
0010
0000
0010
0000
0100
0000
,  // measure 36
0001
0010
0010
1000
0010
0001
1001
0000
,  // measure 37
0001
0000
0100
0000
1000
0000
0100
0000
0001
0000
0000
1000
0010
0000
0100
0000
,  // measure 38
0010
0000
1000
0000
1000
0000
0001
0000
1000
0000
0001
0010
0001
0000
1000
0000
,  // measure 39
0010
0000
0100
0000
0010
1000
0010
1000
0001
0000
0000
0010
0000
0000
0100
0000
,  // measure 40
2100
0001
3001
0000
0002
0023
0032
2003
,  // measure 41
3010
0000
0100
0001
0100
0000
0010
0000
0110
0000
0100
0000
0100
0000
0100
0000
,  // measure 42
0001
2000
3020
0130
0202
0303
2200
3300
,  // measure 43
2020
0000
3030
0000
0001
0000
0010
0000
0001
0000
1000
0010
1000
0100
0010
0001
,  // measure 44
1000
0000
0000
0010
0100
0000
1000
0000
0100
0001
0000
0000
0010
0000
0001
0000
,  // measure 45
1000
0000
0000
0000
0001
0000
1000
0100
0010
0000
1000
0000
0010
0000
0001
0000
,  // measure 46
0100
0000
0000
0010
0100
0000
1000
0000
0100
0000
0000
0000
0100
0001
1000
0000
,  // measure 47
0100
0000
1000
0001
1000
0000
0010
0000
0001
0000
0010
0000
1000
0000
0001
0000
,  // measure 48
0001
0010
0000
0000
0000
0000
0000
0000
0100
0000
0000
0000
0010
0000
0000
0000
0010
0000
0000
0000
0000
0000
0000
0000
0001
0000
0000
0000
1000
0000
0000
0000
,  // measure 49
0000
0000
0000
0000
0001
0100
0000
0000
0000
0000
0000
0000
0010
0000
1000
0000
0010
0000
0000
0000
0100
0000
0000
0000
0001
0000
0000
0000
1000
0000
0000
0000
,  // measure 50
0100
0010
0000
0100
0000
0000
1000
0000
0002
0000
0000
0000
0000
0000
0000
0000
,  // measure 51
0000
0000
0000
0000
,  // measure 52
1003
0001
0010
0100
,  // measure 53
1000
0001
0100
0010
,  // measure 54
1000
0100
0010
0001
,  // measure 55
1000
0000
0010
0000
0100
0000
0001
0000
0010
0100
0010
0001
1000
0001
0010
0100
,  // measure 56
2000
3020
0032
0023
,  // measure 57
2030
3200
0310
1001
,  // measure 58
1000
0000
0000
0010
0100
0000
0010
0000
1000
0100
0000
0000
0010
0000
0001
0000
,  // measure 59
2000
0000
0000
0000
3010
0000
1000
0100
0010
0000
0100
0000
0010
0000
0001
0000
,  // measure 60
0010
0000
0000
0100
1000
0000
0001
0000
0100
0000
0000
0000
0100
0001
1000
0000
,  // measure 61
0010
0001
0010
1000
0001
0010
0100
1000
,  // measure 62
0020
0000
0130
1000
2000
0000
3100
0001
,  // measure 63
1000
0000
0100
0000
0001
0000
0100
0010
0001
0000
1000
0000
0010
0000
0100
0000
,  // measure 64
0010
0000
0000
1000
0001
0000
1000
0000
0200
0000
0000
0000
0310
0000
1000
0000
,  // measure 65
0010
0000
0000
0001
0100
0000
0010
0000
2020
0000
3030
0000
2200
0000
3300
0000
,  // measure 66
0011
0000
0000
0010
0100
0000
0010
0000
0001
0100
0000
0000
0010
0000
1000
0000
,  // measure 67
0002
0000
0000
0000
0013
0000
0001
0100
0010
0000
0001
0000
1000
0000
0100
0000
,  // measure 68
0001
0000
0000
0010
0100
0000
1000
0000
0020
0000
0000
0000
1030
0001
0200
0000
,  // measure 69
0000
1300
0100
0001
0010
0100
0010
0001
,  // measure 70
0200
0000
0301
0010
0110
0000
0100
0001
,  // measure 71
0100
0000
1000
0000
0010
0000
0100
0001
0100
0000
0010
0000
1000
0000
0001
0000
,  // measure 72
0100
0000
0000
0001
0010
0000
0100
0000
1000
0000
0000
0000
0001
1000
0010
0000
,  // measure 73
0100
0000
0001
1000
0010
0000
0001
0000
0010
0000
1000
0000
0001
0000
0000
0000
,  // measure 74
2001
0000
0000
0000
,  // measure 75
3020
0000
0000
0000
,  // measure 76
0230
0000
0002
0000
,  // measure 77
0000
0000
0000
0303
,  // measure 78
0012
0000
0000
0000
,  // measure 79
2003
0000
0000
0000
,  // measure 80
3200
0000
0020
0000
,  // measure 81
0000
0000
0000
0000
,  // measure 82
0330
0000
0000
0000
;

//---------------dance-single - ----------------
#NOTEDATA:;
#CHARTNAME:;
#STEPSTYPE:dance-single;
#DESCRIPTION:;
#CHARTSTYLE:;
#DIFFICULTY:Medium;
#METER:11;
#RADARVALUES:0.373476,0.562500,0.160061,0.243902,0.007622,343.000000,322.000000,21.000000,32.000000,0.000000,0.000000,0.000000,0.000000,0.000000,0.373476,0.562500,0.160061,0.243902,0.007622,343.000000,322.000000,21.000000,32.000000,0.000000,0.000000,0.000000,0.000000,0.000000;
#CREDIT:Daniel Van Eden;
#NOTES:
0000
0000
0000
0000
,
0000
0000
0000
0000
,
0000
0000
0000
0000
,
0000
0000
0000
0000
,
0000
0000
0000
0000
,
0000
0000
0000
0000
,
0000
0000
0000
0000
,
0000
0000
0000
0000
,
1000
0010
1000
0000
0001
0000
1000
0010
,
0000
0100
0010
1000
,
0001
0010
0001
0000
1000
0000
0001
0100
,
0000
0010
0010
1000
,
0001
0011
0010
0110
,
0100
1100
1000
1001
,
0001
0010
0001
0000
0001
0000
1000
0000
,
0010
1000
0010
0000
0010
0000
0100
0000
,
0001
0100
0001
0001
0001
0000
1000
0000
,
0100
1000
1000
1000
1000
0000
0010
0000
,
1000
1010
0010
0110
,
0100
0101
0001
1001
,
0021
0000
0000
0000
,
0230
0000
0000
0000
,
1300
0000
0000
0100
0000
0000
0010
0000
0012
0000
0000
0000
0000
0000
0000
0000
,
0000
0000
0000
0000
0003
1000
0001
0100
,
0020
0000
0000
1000
,
0230
0000
0000
0000
0000
0000
0000
0001
,
0301
0000
0000
0010
0000
0000
0100
0000
2100
0000
0000
0000
0000
0000
0000
0000
,
0000
0000
0000
0000
,
3001
0010
0001
0100
,
0001
0010
0100
1000
,
0010
1000
0010
1000
0001
1000
0001
1000
,
0002
1003
2000
3100
,
0010
0100
0100
0000
0010
0001
0001
1000
,
0010
0100
0100
0000
0010
1000
1000
0001
,
0010
0100
0100
0000
0010
0001
0001
1000
,
0100
1000
0100
0010
0001
1000
1000
0001
,
0100
0000
0000
0100
0001
0000
1001
0000
,
1000
0010
1000
0000
0001
0000
0010
0100
,
1000
0000
0001
0100
0001
0000
0010
0000
,
0001
1000
0001
1000
0001
0000
0000
0000
,
0100
0010
0010
0000
0200
0302
0203
0320
,
1030
0001
0001
0001
1000
1000
1000
0100
,
0010
0002
2003
3010
0110
0000
0110
0000
,
1010
0000
1000
0001
0101
0000
1001
0000
,
0001
0000
0010
0100
0010
0000
0001
0000
,
1000
0000
0001
0100
0010
0000
1000
0001
,
0001
0000
1000
0100
0010
0000
0100
1000
,
0100
0000
0010
0000
0001
1000
0001
1000
,
0020
0000
0000
0000
,
2030
0000
0000
0000
,
3002
0000
0000
0000
,
0023
0000
0000
0000
,
0130
1000
0100
0010
,
1000
0001
1000
0100
,
0010
0001
1000
0001
,
0100
0010
0100
0010
1000
0010
1000
0001
,
2000
3002
0023
0230
,
2300
3002
0103
1010
,
1000
0000
0001
1000
0000
0010
1000
0100
,
1000
0000
0010
0000
1000
0100
0010
0000
,
0001
0000
0100
0001
0100
0000
0001
0000
,
0010
0000
0100
0010
0100
0000
1000
0100
,
0010
0000
0001
1000
1000
0000
0010
0000
,
1000
0001
1000
0000
0001
0010
0100
0000
,
1000
0000
0010
0100
0001
0000
0100
0010
,
0100
0000
0001
1000
0010
0000
0110
0000
,
1001
0000
1000
0001
0000
0010
0001
0100
,
0001
0000
0010
0000
0001
0100
0010
0000
,
1000
0000
0100
1000
0100
0000
0010
0001
,
0000
1000
0100
0010
0100
0000
1000
0010
,
0100
0000
0001
0100
0010
0000
1000
0001
,
0000
0010
0000
0010
0100
0010
0001
1000
,
0010
0000
0100
0001
1000
0000
0100
0010
,
0000
0010
0100
1000
0001
0100
0010
0000
,
2001
0000
0000
0000
,
3200
0000
0000
0000
,
0320
0000
0002
0000
,
0000
0000
0000
0033
,
0002
0000
0000
0000
,
0203
0000
0000
0000
,
0320
0000
2000
0000
,
0000
0000
0000
0000
,
3030
0000
0000
0000
;

//---------------dance-single - ----------------
#NOTEDATA:;
#CHARTNAME:;
#STEPSTYPE:dance-single;
#DESCRIPTION:;
#CHARTSTYLE:;
#DIFFICULTY:Easy;
#METER:6;
#RADARVALUES:0.219948,0.343750,0.091463,0.205793,0.000000,202.000000,190.000000,12.000000,27.000000,0.000000,0.000000,0.000000,0.000000,0.000000,0.219948,0.343750,0.091463,0.205793,0.000000,202.000000,190.000000,12.000000,27.000000,0.000000,0.000000,0.000000,0.000000,0.000000;
#CREDIT:Daniel Van Eden;
#NOTES:
0000
0000
0000
0000
,
0000
0000
0000
0000
,
0000
0000
0000
0000
,
0000
0000
0000
0000
,
0000
0000
0000
0000
,
0000
0000
0000
0000
,
0000
0000
0000
0000
,
0000
0000
0000
0000
,
1000
0000
1000
0000
0000
0000
0000
0010
,
0000
0100
0000
0001
,
0001
0000
0010
0000
0000
0000
0000
0100
,
0000
0010
0010
0001
,
2000
3020
0230
0302
,
2003
3200
0320
0032
,
1003
0010
0010
1000
,
0001
0100
0100
0000
,
0001
0010
0010
0100
,
1000
1000
1000
1000
,
0002
0023
0230
2300
,
3002
0203
0320
2030
,
3001
0000
0000
0000
,
0010
0000
0000
0000
,
0110
0000
0000
0100
0200
0000
0000
0000
,
0000
0000
0300
0100
,
1000
0000
0000
0000
,
0010
0000
0000
0000
0000
0000
0000
1000
,
1000
0000
0000
0001
2002
0000
0000
0000
,
0000
0000
0000
3003
,
1000
0000
0001
0000
,
1000
0000
0010
0000
,
1000
1000
0001
0001
,
0020
0030
0200
0300
,
1001
0000
1000
0010
,
0010
0000
1000
0001
,
1000
0000
0001
0100
,
0100
0001
1001
0000
,
0001
0000
0000
0001
1000
0000
0110
0000
,
0010
1000
0001
0010
,
0100
0100
1000
0001
,
1000
0010
0100
0000
,
1001
0000
0001
0010
,
0010
0001
0001
1000
,
0100
0000
1000
0010
,
1010
1000
1001
0001
,
0101
0000
0100
0010
,
0100
0000
0001
0010
,
0100
1000
0001
1000
,
1000
0000
0010
0000
,
0110
0000
0000
0000
,
0001
0000
0000
0000
,
1000
0000
0000
0000
,
0100
0000
0000
0000
,
0010
0000
0010
0000
,
0001
0000
0001
0000
,
1000
0000
1000
0000
,
0010
0010
1000
1000
,
0002
0003
2000
3000
,
0020
0030
0200
0300
,
1001
0000
0001
0010
,
0001
0000
1000
0010
,
1000
0001
1000
0000
,
0100
0000
0010
0000
,
0001
1000
1000
0000
,
0010
0000
0100
0010
,
0100
0000
0001
1000
,
0001
0000
0010
0100
,
1000
0000
1000
0010
,
1000
0000
0001
0010
,
0001
1000
0001
0000
,
0100
0000
0010
0000
,
1000
0000
0010
0100
,
0100
0000
0001
1000
,
0001
0000
0010
0000
0010
0000
0000
0010
,
0000
0100
1000
0001
,
1001
0000
0000
0000
,
1000
0000
0000
0000
,
0010
0000
0200
0000
,
0000
0000
0000
0000
,
0310
0000
0000
0000
,
1000
0000
0000
0000
,
0001
0000
0020
0000
,
0000
0000
0000
0000
,
0030
0000
0000
0000
;

//---------------dance-single - ----------------
#NOTEDATA:;
#CHARTNAME:;
#STEPSTYPE:dance-single;
#DESCRIPTION:;
#CHARTSTYLE:;
#DIFFICULTY:Beginner;
#METER:2;
#RADARVALUES:0.175305,0.245427,0.091463,0.000000,0.000000,161.000000,149.000000,12.000000,0.000000,0.000000,0.000000,0.000000,0.000000,0.000000,0.175305,0.245427,0.091463,0.000000,0.000000,161.000000,149.000000,12.000000,0.000000,0.000000,0.000000,0.000000,0.000000,0.000000;
#CREDIT:Daniel Van Eden;
#NOTES:
0000
0000
0000
0000
,
0000
0000
0000
0000
,
0000
0000
0000
0000
,
0000
0000
0000
0000
,
0000
0000
0000
0000
,
0000
0000
0000
0000
,
0000
0000
0000
0000
,
0000
0000
0000
0000
,
1000
0000
0010
0000
,
1000
0000
0000
0000
,
0001
0000
0010
0000
,
0100
0100
0100
0000
,
1001
0000
0001
0000
,
1000
0000
1000
0000
,
0001
0001
0001
0000
,
1000
1000
1000
0000
,
0010
0010
0010
0000
,
0100
0100
0100
0000
,
0110
0000
0010
0000
,
0100
0000
0100
0000
,
0001
0000
0000
0000
,
0010
0000
0000
0000
,
0100
0000
1001
0000
,
0000
0000
0000
0000
,
1000
0000
0000
0000
,
0100
0000
0000
0000
,
0010
0000
1001
0000
,
0000
0000
0000
0000
,
1000
0000
0100
0000
,
0010
0000
0001
0000
,
1000
1000
0001
0001
,
1000
0000
0000
0000
,
0010
0000
0110
0000
,
0100
0000
0001
0001
,
0001
0000
1001
0000
,
1000
0000
0100
0100
,
0100
0000
0010
1001
,
0000
1000
0000
0010
,
0000
0100
0000
0001
,
0010
0010
0010
0000
,
0110
0000
0100
0000
,
1000
1000
1000
0000
,
0001
0000
0100
0000
,
0010
0010
0010
0000
,
1001
0000
0001
0000
,
0010
0000
0001
0001
,
0001
0000
1000
0000
,
0010
0000
0100
0100
,
0100
0000
0000
0000
,
0010
0000
0000
0000
,
1000
0000
0000
0000
,
0001
0000
0000
0000
,
0001
0000
0100
0000
,
0010
0000
1000
0000
,
0100
0000
0010
0000
,
0001
0001
1000
1000
,
0001
0000
0000
0000
,
0000
0000
0000
1001
,
0001
0000
1000
0000
,
0010
0000
0100
0100
,
0100
0000
0010
0000
,
1000
0000
0001
0001
,
0001
0000
0010
0000
,
0100
0000
0010
0010
,
0010
0000
0001
0000
,
1000
0000
0010
0000
,
0110
0000
0100
0000
,
0010
0000
1000
1000
,
1000
0000
0001
0000
,
0010
0010
0010
0000
,
0100
0000
1000
0000
,
0001
0000
0100
0100
,
0100
0000
0010
0000
,
1000
1000
0001
0001
,
1001
0000
0000
0000
,
1000
0000
0000
0000
,
0100
0000
0100
0000
,
0000
0000
0000
0000
,
0010
0000
0000
0000
,
0010
0000
0000
0000
,
0001
0000
0001
0000
;
