#TITLE:nuWaves;
#SUBTITLE:;
#ARTIST:about-blank;
#TITLETRANSLIT:;
#SUBTITLETRANSLIT:;
#ARTISTTRANSLIT:;
#GENRE:;
#CREDIT:;
#MUSIC:nuwaves.ogg;
#BANNER:nuWaves-bn.png;
#BACKGROUND:nuWaves-bg.png;
#CDTITLE:;
#SAMPLESTART:0.000;
#SAMPLELENGTH:0.000;
#SELECTABLE:YES;
#OFFSET:1.994;
#BPMS:0.000=120.000;
#STOPS:;
#BGCHANGES:;
#FGCHANGES:;

//--------------- dance-single - about-blank ----------------
#NOTES:
     dance-single:
     about-blank:
     Beginner:
     4:
     0,0,0,0,0:
0000
0000
0000
0000
,
0000
0000
0000
0000
,
0000
0000
0000
0000
,
0000
0000
0000
0000
,
0000
0000
0000
0000
,
1000
0000
1000
0000
,
0001
0000
0001
0000
,
0010
0000
0010
0000
,
0100
0100
0100
0000
,
1000
0000
1000
0000
,
0001
0000
0001
0000
,
0010
0000
0010
0000
,
0100
0100
0100
0000
,
1001
0000
0100
0000
,
1001
0000
0100
0000
,
0001
0000
0010
0000
,
0100
0000
0010
0100
,
0110
0000
0000
0000
,
0110
0000
0000
0000
,
0110
0000
0000
0000
,
1001
0110
1001
0000
,
1000
1000
0100
0000
,
0001
0001
0100
0000
,
1000
1000
0010
0000
,
0001
0010
1000
0010
,
0001
0000
1000
0000
,
0001
0000
0100
0000
,
0001
0000
1000
0000
,
0001
0001
0001
0000
,
1000
0000
0001
0000
,
1000
0000
0100
0000
,
1000
0000
0001
0000
,
0010
0010
0010
0000
,
1001
0000
0100
0000
,
0001
0000
0100
0000
,
0001
0000
0010
0000
,
0001
0000
0010
0000
,
1001
0000
0100
0000
,
0001
0000
0100
0000
,
1000
0000
0100
0000
,
0001
1000
0001
0000
,
0110
0000
0100
0100
,
0001
0000
0010
0010
,
1000
0000
0100
0100
,
0001
0000
1001
0000
,
0001
0010
0001
0000
,
1000
0010
1000
0000
,
0001
0010
0001
0000
,
1001
0000
1001
0000
,
0110
0000
0000
0000
,
0000
0000
0000
0000
,
0020
0000
0000
0030
,
1001
0000
0000
0000
,
1000
0001
1000
0000
,
1000
0010
1000
0000
,
1000
0001
1000
0000
,
1001
0000
1001
0000
,
0001
1000
0001
0000
,
0001
0010
0001
0000
,
0001
1000
0001
0000
,
1001
0000
1001
0000
,
1000
0100
1000
0000
,
0001
0100
0001
0000
,
1000
0100
1000
0000
,
0110
0000
0110
0000
,
0001
1000
0001
0000
,
1000
0001
1000
0000
,
0010
0100
0010
0000
,
0100
0010
0100
0010
,
0110
0000
0000
0000
;

//--------------- dance-single - about-blank ----------------
#NOTES:
     dance-single:
     about-blank:
     Easy:
     8:
     0,0,0,0,0:
0000
0000
0000
0000
,
0000
0000
0000
0000
,
0000
0000
0000
0000
,
0000
0000
0000
0000
,
0000
0000
0000
0000
,
1000
0000
0001
0000
1000
0100
0010
0000
,
0001
0000
1000
0000
0001
0100
0010
0000
,
0010
0000
1000
0000
0001
0010
0100
0000
,
0011
1100
0001
1000
,
0010
0000
0100
0000
0001
0010
0001
0000
,
0010
0000
0100
0000
1000
0010
1000
0000
,
0001
0000
1000
0000
0100
0010
0100
0000
,
0011
1100
0101
1010
,
0001
0001
1000
0000
0010
0010
1000
0000
,
0100
0100
1000
0000
0010
0010
1000
0000
,
0100
0010
0100
0000
1000
0001
1000
0000
,
1001
1001
1001
1001
,
0220
0000
0000
0330
,
0022
0000
0000
0033
,
2200
0000
0000
3300
,
1000
0100
0001
0000
0001
0100
1000
0000
,
0010
0000
0010
0000
0100
0001
0100
0000
,
0010
0000
0010
0000
0100
1000
0001
0100
,
0101
0000
0001
0000
0001
0010
1000
0000
,
0001
0100
1000
0000
0001
0100
1000
0000
,
0100
1000
0010
0000
0100
0100
0001
0000
,
0010
0001
0100
0000
0010
0010
1000
0000
,
0101
0000
1100
0000
0001
1000
0100
0000
,
0011
0000
1010
0000
1000
0001
0010
0100
,
0100
1000
0010
0000
0100
0001
0100
0001
,
1000
0010
1000
0000
0001
0010
0001
0010
,
0100
1000
0001
0000
1000
0010
0100
0001
,
1000
0010
1000
0000
0001
0100
0001
0000
,
1002
0100
0100
0103
,
2001
0100
0100
3100
,
1002
0010
0010
0013
,
1200
0310
0201
0310
,
1000
0001
1000
0000
1000
1000
0100
0000
,
0001
1000
0001
0000
0001
0001
0100
0000
,
0001
1000
0001
0000
0010
0010
0100
0000
,
1200
0000
0001
0000
1300
0010
0100
0000
,
0002
0000
0010
0003
0001
0010
0100
0000
,
2000
0000
0010
3000
1000
0010
0100
0000
,
2000
0000
0100
3000
1000
0100
0010
0000
,
1000
0100
0001
0000
1000
0010
0001
0000
,
0200
0000
0001
0000
1300
0001
0010
0000
,
0020
0000
1000
0000
0031
1000
0100
0000
,
0002
0000
0010
0003
1000
0001
0100
0000
,
0101
1000
0010
0000
1100
0001
0010
0000
,
2002
0000
0000
0000
,
3003
0000
0000
0000
,
0200
0000
0000
0000
,
0301
0001
1001
0000
,
1000
0100
0010
0000
1000
0100
0010
0000
,
0001
0100
0010
0000
0001
0100
0010
0000
,
1000
0010
0100
0000
1000
0010
0100
0000
,
1010
0101
0011
1100
,
0001
0010
0100
0000
0001
0010
0100
0000
,
1000
0010
0100
0000
1000
0010
0100
0000
,
0001
0100
0010
0000
0001
0100
0010
0000
,
0101
1100
0011
1010
,
1000
0010
1000
0000
0010
0100
0010
0000
,
0001
0010
0001
0000
0010
0100
0010
0000
,
1000
0010
1000
0000
0010
0100
0010
0000
,
1010
0011
1010
0011
,
0001
0100
0001
0000
0100
1000
0100
0000
,
0001
0010
0001
0000
0010
1000
0010
0000
,
0001
1000
0001
0000
0100
0010
0100
0000
,
1001
0110
1001
0110
,
1001
0000
0000
0000
;

//--------------- dance-single - about-blank ----------------
#NOTES:
     dance-single:
     about-blank:
     Medium:
     10:
     0,0,0,0,0:
0000
0000
0000
0000
,
0000
0000
0000
0000
,
0000
0000
0000
0000
,
0000
0000
0000
0000
,
0000
0000
0000
0000
,
1000
1000
0010
0000
1000
0100
0001
0000
,
0001
0001
0010
0000
0001
0100
1000
0000
,
0010
0010
0100
0000
0010
1000
0100
0000
,
0011
1100
0101
1010
,
0001
1000
0001
0000
0100
0001
0100
0000
,
0010
0100
0010
0000
0001
1000
0010
0000
,
1000
0010
0100
0000
0001
0010
0100
0000
,
0011
0000
1100
0000
0101
0000
0001
0100
,
0001
0010
0001
0010
0100
1000
0100
1000
,
0001
0100
0001
0100
0010
1000
0010
1000
,
1001
1100
0011
0101
,
1000
0100
1000
0100
0010
0001
0100
0010
,
2000
0000
0000
0000
0000
0000
0000
0000
0000
0000
0001
0000
0000
3001
0000
0000
,
0002
0000
0000
0000
0000
0000
0000
0000
0000
0000
1000
0000
0000
1003
0000
0000
,
2000
0000
0000
0000
0000
0000
0000
0000
0000
0000
0010
0000
0000
3010
0000
0000
,
0110
0100
0101
0000
0110
0100
1100
0000
,
0002
0000
0000
0000
0013
0000
0000
0000
0001
0000
0100
0010
0100
0000
0000
0000
,
2000
0000
0000
0000
3010
0000
0000
0000
1000
0000
0100
0010
0100
0000
0010
0000
,
0002
0000
0000
0000
0013
0000
0000
0000
0100
0000
1000
0001
1000
0000
0000
0000
,
1100
0101
1010
0011
,
0001
0001
1000
1000
0010
0100
0001
0000
,
1000
1000
0100
0100
0010
0001
0100
0010
,
0100
0100
0001
0001
1000
0001
0010
0000
,
1100
0000
0110
0000
0010
0001
0100
0010
,
0100
0100
0001
0001
1000
0010
0200
0000
,
0301
0001
0010
0010
0001
1000
0200
0000
,
1300
1000
0010
0010
0100
1000
0002
0000
,
0023
2030
3200
0320
,
0031
0000
0001
0000
0001
0001
1000
0000
,
0010
0000
0010
0000
0010
0010
0100
0000
,
1000
0000
1000
0000
1000
1000
0100
0000
,
0001
0001
0100
0000
1000
1000
0100
0000
,
0101
0000
0110
0000
1000
0010
0100
0000
,
1100
0000
0110
0000
0001
0010
0100
0000
,
1100
0000
0101
0000
1000
0100
0001
0000
,
0110
0002
0000
1003
0010
0010
0010
0000
,
1000
0100
0001
0000
0001
0100
1000
0000
,
0001
0100
1000
0000
1000
0100
0001
0000
,
0100
0001
0010
0000
0010
0001
0100
0000
,
0010
1000
0110
0000
0010
0001
0110
0000
,
0001
1000
1000
0100
0010
0001
1001
0000
,
1000
0001
0001
0100
0010
1000
1001
0000
,
0001
0010
0010
0100
1000
0010
0110
0000
,
0101
0010
1100
0000
1010
0100
0011
0000
,
2002
0000
0000
0000
,
3003
0000
0000
0000
,
0020
0000
0000
0000
,
1030
0000
0000
1000
0000
0000
0001
0010
0100
1000
0000
0000
,
0001
0100
0001
0100
0001
0100
0010
0100
,
0001
1000
0001
1000
0001
1000
0010
0100
,
0001
1000
0010
1000
0100
0010
0001
0100
,
0101
0010
1100
0000
1100
0010
0101
0000
,
1000
0010
1000
0010
0100
0001
0010
0100
,
1000
0100
1000
0100
1000
0001
0100
0010
,
1000
0010
1000
0010
0100
0001
0010
0100
,
1100
0001
0011
0000
0101
1000
1010
0000
,
0001
1000
0001
0010
0001
0010
1000
0010
,
0001
0100
0010
0100
0010
1000
0100
1000
,
0001
1000
0100
1000
0100
0010
0100
1000
,
0010
0100
0101
0000
0010
0100
1100
0001
,
0001
0010
0100
1000
0001
0010
0100
1000
,
0001
0100
0010
1000
0001
0100
0010
1000
,
0101
0100
0010
1000
1100
1000
0100
0010
,
0011
0100
1100
0000
1010
0100
0101
0000
,
1001
0000
0000
0000
;

//--------------- dance-single - about-blank ----------------
#NOTES:
     dance-single:
     about-blank:
     Hard:
     12:
     0,0,0,0,0:
0000
0000
0000
0000
,
0000
0000
0000
0000
,
0000
0000
0000
0000
,
0000
0000
0000
0000
,
0000
0000
0000
0000
,
1000
0000
0000
0001
0000
0000
0100
0000
0000
0000
0000
0010
1000
0000
0010
1000
0000
0000
0001
0000
0000
1000
0000
0000
,
0100
0000
0000
0100
0000
0000
0010
0000
0000
0000
0000
0001
0010
0000
0001
0010
0000
0000
0100
0000
0000
1000
0000
0001
,
1000
0000
0000
0100
0000
0000
0010
0000
0000
0000
0000
0001
0100
0000
0001
0100
0000
0000
1000
0000
0000
0000
0000
0001
,
0010
0000
0000
0000
0000
0000
0110
0000
0000
0000
0000
0000
1001
0000
0000
0000
0000
0000
1000
0000
0001
1000
0000
0001
,
1000
0000
0000
0100
0000
0000
0011
0000
0000
0000
0000
0001
1000
0000
0000
0010
0000
0000
0010
0000
0000
0100
0000
0000
,
0001
0000
0000
0010
0000
0000
1100
0000
0000
0000
0000
1000
0001
0000
0000
0010
0000
0000
0010
0000
0000
0100
0000
0000
,
1000
0000
0000
0001
0000
0000
1001
0000
0000
0000
0000
0010
1000
0000
0000
0010
0000
0000
0010
0000
0000
0100
0000
0000
,
0011
0000
0000
0000
0000
0000
1100
0000
0000
0000
0000
0000
0101
0000
0000
0000
0000
0000
0001
0000
1000
0001
0000
1000
,
0001
0100
1000
0100
0001
0100
1000
0100
,
0001
0010
1000
0010
0001
0010
1000
0010
,
0001
0001
1000
1000
0010
0010
0100
0100
,
1001
0000
0000
1001
0000
0000
0110
0000
0000
0110
0000
0000
0001
0000
1000
0001
0000
1000
0010
0000
0100
0010
0000
0100
,
0002
0000
0000
0000
0000
0000
0000
0000
0000
0000
1000
0000
0000
0103
0000
0000
,
2010
0000
0000
0000
0000
0000
0000
0000
0000
0000
0001
0000
0000
3010
0000
0000
,
0201
0000
0000
0000
0000
0000
0000
0000
0000
0000
1000
0000
0000
0310
0000
0000
,
0001
0000
0000
0001
1000
0000
0000
1000
0010
0000
0100
0010
0100
0000
0000
0000
,
0021
0000
0000
0000
1030
0000
0000
0000
0001
0000
0100
1000
0100
0000
0000
0000
,
1020
0000
0000
0000
0031
0000
0000
0000
1000
0000
0100
0010
0100
0000
0001
0000
,
2010
0000
0000
0000
3100
0000
0000
0000
1000
0000
0001
0100
0001
0000
0010
0000
,
0001
0100
1000
0100
0001
0010
1000
0000
,
0110
0000
1000
0000
0100
0000
1000
0000
0010
0000
0100
0001
0100
0000
0000
0000
,
0110
0000
0001
0000
0100
0000
0001
0000
0010
0000
0100
0010
0100
0000
0010
0000
,
1001
0000
0001
0000
0100
0000
1000
0000
0100
0000
0001
1000
0001
0000
0000
0000
,
0011
0000
0000
0000
1100
0000
0000
0000
1000
0000
0100
0010
0100
0000
0010
0000
,
0001
0000
0100
0000
0010
0000
1000
0000
0100
0000
0010
0100
0010
0000
0010
0000
,
0001
0000
1000
0000
0010
0000
0100
0000
0001
0000
1000
0010
1000
0000
1000
0000
,
0001
0000
0010
0000
0100
0000
0001
0000
1000
0000
0010
0100
0010
0000
0001
0000
,
0110
0000
0000
0000
1001
0000
0000
0000
1000
0010
1000
0000
0001
0100
0001
0000
,
0012
0000
0000
0000
0000
0000
1003
0000
0000
0000
0000
0000
0001
0000
0000
0100
0000
0000
0001
0000
0010
0000
0000
0000
,
2000
0000
0000
0000
0000
0000
3001
0000
0000
0000
0000
0000
1000
0000
0000
0100
0000
0000
1000
0000
0010
0000
0000
0000
,
0201
0000
0000
0000
0000
0000
1000
0000
0000
0000
0000
0000
0310
0000
0000
1000
0000
0000
0001
0000
0010
0000
0000
0000
,
1200
0000
0000
0010
0000
0000
0001
0000
0000
0000
0000
0000
1300
0000
0000
0010
0000
0100
0001
0000
0000
0010
0000
0000
,
0100
0000
0000
0100
0000
0000
1001
0000
0000
0000
0000
0000
0010
0000
0000
0010
0000
0000
1100
0000
0000
0000
0000
0001
,
1000
0000
0000
1000
0000
0000
0110
0000
0000
0000
0000
0000
0010
0000
0000
0010
0000
0000
1001
0000
0000
0000
0000
0100
,
0001
1000
0110
0000
1100
0001
0110
0000
,
1000
0000
0000
0000
0000
1000
0100
0000
0000
0000
0000
0100
0001
0000
0000
0000
0000
0001
1000
0000
0000
0010
0000
0000
,
0001
0000
0000
1000
0000
0000
0110
0000
0000
0001
0000
0000
0010
0000
0000
1000
0000
0000
0110
0000
0000
0000
0000
1000
,
0001
0000
0000
0010
0000
0000
0110
0000
0000
1000
0000
0000
0010
0000
0000
1000
0000
0000
0110
0000
0000
0000
0000
0100
,
0001
0000
0000
1000
0000
0000
1100
0000
0000
0001
0000
0000
1000
0000
0000
0001
0000
0000
0101
0000
0000
0000
0000
0001
,
0100
0000
0000
1000
0000
0000
0110
0000
0000
0000
0000
1000
0100
0000
0000
0001
0000
0000
0110
0000
0000
0000
0000
0001
,
2000
0000
0000
0010
0000
0000
3010
0000
0000
1000
0000
0000
1000
0000
0000
0100
0000
0000
0110
0000
0000
0000
0000
1000
,
0002
0000
0000
0010
0000
0000
0013
0000
0000
0001
0000
0000
0001
0000
0000
1000
0000
0000
0101
0000
0000
0000
0000
1000
,
0020
0000
0000
0001
0000
0000
0031
0000
0000
0010
0000
0000
0010
0000
0000
1000
0000
0000
0100
0000
0000
0010
0000
0001
,
0010
0000
0000
0100
0000
0000
1001
0000
0000
0010
0000
1000
0010
0000
0000
0100
0000
0000
1001
0000
0000
0001
0000
1000
,
0020
0000
0000
0000
,
0230
0000
0000
0000
,
0302
0000
0000
0000
,
1003
0000
0000
0001
0000
0000
0010
0100
0010
0100
0000
0000
,
1000
0100
0001
0100
1000
0010
0100
0010
,
1000
0100
0010
0001
0100
1000
0100
0001
,
0010
0100
0001
1000
0010
0100
1000
0010
,
0110
0000
1001
0000
0011
0000
1100
0001
,
0010
0100
0010
0001
0100
0010
1000
0001
,
0010
1000
0010
0001
0100
1000
0100
0001
,
0010
0010
0100
1000
0010
0010
0100
0001
,
1001
0000
0110
0000
1010
0000
0101
1000
,
0010
0010
0001
1000
0100
0100
0001
0010
,
0100
0100
1000
0001
0100
0100
0010
1000
,
0001
0001
0010
0100
1000
1000
0010
0100
,
1001
0000
0110
0000
1001
0000
0110
1000
,
0001
0001
0010
0010
0100
0100
1000
1000
,
0001
0001
0100
0100
0010
0010
1000
1000
,
0101
1000
0001
1000
0110
1000
0001
1000
,
1100
0100
0011
0010
1001
0100
0101
0010
,
2002
0000
0000
0000
0000
0000
0000
0000
0000
0000
0000
0000
0000
0000
0000
3000
0000
0000
0000
0003
0000
0000
0000
0000
;

//--------------- dance-single - about-blank ----------------
#NOTES:
     dance-single:
     about-blank:
     Edit:
     15:
     0,0,0,0,0:
0000
0000
0000
0000
,
0000
0000
0000
0000
,
0000
0000
0000
0000
,
0000
0000
0000
0000
,
0000
0000
0000
0000
0000
0000
0000
0000
0000
0000
0000
0000
0000
0000
0000
0000
0000
0000
1000
0000
0001
1000
0000
0001
,
2000
0000
0000
3010
0000
0000
1010
0000
0000
0000
0000
1000
0100
0000
0100
0010
0000
0000
0001
0000
0000
1000
0000
0000
,
0002
0000
0000
0013
0000
0000
0011
0000
0000
0000
0000
0001
0100
0000
0100
0010
0000
0000
1000
0000
0001
0010
0000
0010
,
0200
0000
0000
0001
0000
0000
1300
0000
0000
0000
0000
0010
1000
0000
1000
0100
0000
0000
0010
0000
0010
0000
0000
0001
,
1000
0000
0000
0000
0000
1000
0001
0000
0000
0000
0000
0001
1000
0000
0000
0000
0000
1000
0001
0000
0010
0001
0000
0010
,
0001
0000
0000
0100
0000
0000
0010
0000
1000
0000
0000
0001
1000
0000
0001
1000
0000
0000
0100
0000
0010
0000
0000
0001
,
0100
0000
0001
0100
0000
0000
0010
0000
1000
0000
0000
0001
0010
0000
0001
0010
0000
0000
0100
0000
0000
1000
0000
1000
,
0001
0000
0000
0100
0000
0000
0010
0000
0001
0000
0000
1000
0100
0000
0100
0001
0000
0000
1000
0000
0100
0000
0000
0010
,
0001
0000
0000
0000
0000
0001
1000
0000
0000
0000
0000
1000
0001
0000
0000
0000
0000
0001
0010
0000
0100
1000
0000
0001
,
0200
0000
0000
1300
0000
0000
0100
0000
0001
0100
0000
0010
0200
0000
0000
1300
0000
0000
0100
0000
0001
0100
0000
0010
,
2000
0000
0000
3100
0000
0000
0010
0000
0001
0100
0000
0010
2000
0000
0000
3100
0000
0000
0010
0000
0001
0100
0000
0010
,
1000
1000
0001
0001
0010
0010
0100
0100
,
1000
0000
0100
1000
0000
0100
0010
0000
0001
0010
0000
0001
1000
0000
0010
1000
0000
0010
0100
0000
0001
0010
0000
0100
,
2000
0000
0000
0000
0000
0000
0000
0000
0000
0000
3010
0000
0000
0100
0000
0000
,
0002
0000
0000
0000
0000
0000
0000
0000
0000
0000
0013
0000
0000
0100
0000
0000
,
2000
0000
0000
0000
0000
0000
0000
0000
0000
0000
3010
0000
0000
0100
0000
0000
,
0001
0010
0001
0010
0100
0000
1000
0000
0010
0100
0010
0100
0001
0000
0000
0000
,
1000
0001
0000
0000
0001
0010
0000
0000
0010
0100
1000
0100
0010
0000
0000
0000
,
0001
0100
0000
0000
0100
0010
0000
0000
0010
1000
0100
0010
0001
0000
0100
0001
,
0100
0001
0000
0000
1000
0010
0000
0000
1000
0001
0010
0100
1000
0000
0001
0000
,
0001
0100
0010
0100
0001
0000
1000
0000
1000
0100
0010
0100
1000
0000
0000
0000
,
0110
0000
0001
0100
0010
0000
1000
0000
0001
0010
0000
0010
0100
0000
0010
0000
,
1001
0000
1000
0010
1000
0000
0001
0000
0100
0010
0000
0010
1000
0000
0001
1000
,
0001
1000
0001
0000
0100
0001
0100
0000
0001
0010
0000
0010
1000
0000
0001
0000
,
0110
0000
1000
0000
0110
0000
0001
0000
1000
0100
0010
0001
1000
0000
0010
0100
,
0001
0100
0001
1000
0100
1000
0010
0100
0001
0010
0100
1000
0001
0100
0001
0000
,
1000
0100
0010
0100
0010
1000
0010
1000
0001
0100
0001
0100
1000
0010
1000
0000
,
0001
0010
0001
0010
0100
1000
0100
1000
0010
0100
0001
0010
0100
1000
0001
0000
,
1100
0000
0010
0000
0101
0000
0010
0000
1000
0100
1000
0001
1000
0000
0010
0000
,
0201
0000
0000
0000
0000
0000
1300
0000
0000
0000
0000
0000
0001
0000
0000
0010
0000
0000
1000
0000
0100
0000
0000
0100
,
0020
0000
0000
0000
0000
0000
0031
0000
0000
0000
0000
0000
0100
0000
0000
1000
0000
0000
0001
0000
0010
0000
0000
0010
,
2000
0000
0000
0000
0000
0000
3001
0000
0000
0000
0000
0000
1000
0000
0000
0100
0000
0000
0010
0000
0001
0000
0000
0001
,
0200
0000
0000
0310
0000
0000
0020
0000
0000
1030
0000
0000
1001
0000
0000
0000
0000
0001
1000
0000
0000
0010
0000
0000
,
0100
0000
0000
0001
0000
0010
0001
0000
0000
1000
0000
0000
0001
0000
0000
1000
0000
0010
1000
0000
0000
0001
0000
0000
,
1000
0000
0000
0001
0000
0100
0001
0000
0000
1000
0000
0000
0001
0000
0000
1000
0000
0100
1000
0000
0000
0010
0000
0000
,
0100
0000
0000
0001
0000
0010
0100
0000
0000
1000
0000
0000
0001
0000
0000
1000
0000
0010
0100
0000
0000
0001
0000
0000
,
2000
0000
0000
3100
0000
0000
0200
0000
0000
0310
0000
0000
0020
0000
0000
0031
0000
0000
0002
0000
0000
1003
0000
0010
,
1000
0000
0000
0100
0000
1000
0100
0000
0000
0100
0000
1000
0100
0000
0000
1000
0000
0000
0010
0000
0100
0000
0000
0100
,
0001
0000
0000
0001
0000
0010
0001
0000
0000
0001
0000
0010
0001
0000
0000
1000
0000
0000
0001
0000
0010
0000
0000
0010
,
0100
0000
0000
0100
0000
1000
0100
0000
0000
0100
0000
1000
0100
0000
0000
1000
0000
0000
0010
0000
1000
0000
0000
1000
,
0001
0000
0000
0010
0000
0000
1100
0000
0000
1000
0000
1000
0001
0000
0000
0010
0000
0000
1100
0000
0000
1000
0000
1000
,
0010
0000
0000
0010
0000
0000
0100
0000
0000
0100
0000
0000
0001
0000
0000
0001
0000
0000
1000
0000
0000
1000
0000
0001
,
0100
0000
0000
0100
0000
0000
0010
0000
0000
0010
0000
0000
0001
0000
0000
0001
0000
0000
1000
0000
0000
1000
0000
0100
,
0001
0100
1000
0100
0001
0010
1000
0010
,
0101
0010
1100
0010
0101
0010
1100
0010
,
2002
0000
0000
0000
,
3003
0000
0000
0000
,
0200
0000
0000
0300
,
1001
0000
0000
0110
0000
0000
0010
0010
0010
0100
0000
0000
,
0001
0000
0000
0010
0000
0001
0010
0000
0000
0100
0000
0000
1000
0000
0000
0010
0000
1000
0100
0000
0000
0100
0000
0000
,
0010
0000
0000
0001
0000
1000
0001
0000
0000
0100
0000
0000
0001
0000
0000
0010
0000
0100
1000
0000
0000
0100
0000
0000
,
1000
0000
0000
0010
0000
1000
0001
0000
0000
0100
0000
0000
0001
0000
0000
1000
0000
0010
0001
0000
0000
0010
0000
1000
,
0001
0000
0000
0010
0000
0000
1100
0000
0000
0001
0000
0001
1000
0000
0000
0010
0000
0000
0101
0000
0000
1000
0000
0000
,
0010
0000
0000
1000
0000
0010
1000
0000
0000
0001
0000
0000
1000
0000
0000
0001
0000
0100
0001
0000
0000
0010
0000
0000
,
0001
0000
0000
0100
0000
1000
0100
0000
0000
0010
0000
0000
1000
0000
0000
0100
0000
0001
0100
0000
0000
0010
0000
0000
,
0010
0000
0000
0001
0000
1000
0001
0000
0000
0100
0000
0000
0100
0000
0000
0001
0000
1000
0001
0000
0000
0010
0000
0100
,
1000
0000
0000
0010
0000
0000
0011
0000
0000
0010
0000
0000
1000
0000
0000
0100
0000
0000
0101
0000
0000
0100
0000
1000
,
0001
0000
0000
0010
0000
0001
0010
0000
0001
1000
0000
0000
0001
0000
0000
0010
0000
0001
0010
0000
0001
1000
0000
0000
,
0010
0000
0000
0100
0000
0010
0100
0000
0010
1000
0000
0000
0001
0000
0000
0100
0000
0010
0100
0000
0010
1000
0000
0000
,
0001
0000
0000
0010
0000
0100
1000
0000
0100
0010
0000
0000
0001
0000
0000
0100
0000
0010
1000
0000
0010
0100
0000
0001
,
0010
0000
0000
0100
0000
1000
0010
0000
0000
0100
0000
0001
0010
0000
0000
0100
0000
1000
0010
0000
0000
1000
0000
0100
,
1000
0000
0000
0001
0000
0010
0100
0000
1000
0100
0000
0000
1000
0000
0000
0001
0000
0010
0100
0000
1000
0100
0000
0000
,
1010
0000
0000
0010
0000
0100
0001
0000
0010
0001
0000
0000
1000
0000
0000
0010
0000
0100
0001
0000
0010
0001
0000
0000
,
1000
0000
0100
1000
0000
0100
0010
0000
0001
0010
0000
0001
1000
0000
0010
1000
0000
0010
0100
0000
0001
0100
0000
0001
,
1000
0000
0100
0010
0000
0001
1000
0000
0010
0100
0000
0001
0010
0000
0001
0100
0000
0010
1000
0000
0100
0010
0000
0100
,
2000
0000
0000
0000
0000
0000
0000
0000
0000
0000
0000
0000
0000
0000
0000
0001
0000
0000
0000
0000
3001
0000
0000
0000
;
