#TITLE:SEE/RED;
#SUBTITLE:;
#ARTIST:dj VERTICAI;
#TITLETRANSLIT:SEE RED;
#SUBTITLETRANSLIT:;
#ARTISTTRANSLIT:;
#GENRE:;
#CREDIT:;
#BANNER:SEE RED.png;
#BACKGROUND:SEE RED-bg.png;
#LYRICSPATH:;
#CDTITLE:;
#MUSIC:SEE RED.ogg;
#OFFSET:-1.634000;
#SAMPLESTART:78.636017;
#SAMPLELENGTH:15.000000;
#SELECTABLE:YES;
#BPMS:0.000000=148.000000
;
#STOPS:
;
#BGCHANGES:;
#KEYSOUNDS:;
#ATTACKS:;

//---------------dance-single - ----------------
#NOTES:
     dance-single:
     :
     Hard:
     13:
     0.575114,0.748418,0.230046,0.287557,0.538142,490.000000,462.000000,28.000000,35.000000,0.000000,0.000000,0.575114,0.748418,0.230046,0.287557,0.538142,490.000000,462.000000,28.000000,35.000000,0.000000,0.000000:
0000
0000
0000
0000
,
0000
0000
0000
0000
,
0000
0000
0000
0000
,
0000
0000
0000
0000
,
1000
0000
0000
1000
0000
0000
0100
0000
0000
0100
1000
0000
0001
0000
0000
0001
,
0000
0000
0100
0000
0000
0100
0000
0000
0001
1000
0000
0010
0000
0000
0010
0000
,
1000
0000
0000
0001
0000
0000
0010
0000
0000
0010
0000
0001
1000
0000
0000
1000
,
0001
0000
0000
0100
0000
0000
0010
0000
0000
0100
0000
0000
0001
0000
1000
0000
0001
0000
0010
0000
0000
0100
0000
0000
,
1000
0000
0001
0000
0010
0000
0001
0000
1000
0000
0010
0000
0100
0010
0000
0010
,
1000
0000
0001
0000
0010
0000
0100
0000
1000
0000
1000
0000
0010
0100
0000
0100
,
0001
0000
1000
0000
0010
0000
1000
0000
0001
0000
0010
0000
0100
0010
0000
0010
,
0001
0000
1000
0000
0010
0000
1000
0000
0001
0000
0100
0000
0100
0001
0000
0001
,
1000
0000
0100
0000
0001
0000
0100
0000
1000
0000
0001
0000
0100
0001
0000
0001
,
1000
0000
0010
0000
0001
0000
0010
0000
1000
0000
1000
0000
0010
0100
0000
0100
,
0001
0000
0100
0000
1000
0000
0100
0000
0001
0000
1000
0000
0100
0010
0000
0010
,
0001
0000
0010
0000
1000
0000
0010
0000
0001
0000
0010
0000
0100
0010
0100
0010
,
0002
0000
0013
0000
0000
0010
0000
0000
0100
0000
1000
0000
0010
0000
1000
0000
,
0002
0000
0103
0000
0000
0100
0000
0000
0010
0000
1000
0000
0100
0010
0000
0001
,
2000
0000
3010
0000
0000
0010
0000
0000
0100
0000
0001
0000
0010
0000
0001
0000
,
2000
0000
3100
0000
0000
0100
0000
0000
0010
0000
0001
1000
0002
0000
0000
0000
,
0103
2010
3100
0012
,
0103
2010
3001
0012
,
2003
3020
0230
0302
,
1003
0000
0100
0000
1000
0000
0001
0000
0010
0001
1000
0001
0100
0000
0000
0000
,
2002
0000
0000
0000
,
0000
0000
0000
3003
,
0001
0000
0000
0001
0000
0000
0100
0000
0000
0100
0000
0000
0010
0000
0000
0010
,
0000
0000
0010
0000
0000
0010
0000
0000
0010
0000
0000
0010
0000
0000
1000
0000
,
0100
0000
0000
0100
0000
0000
1000
0000
0000
1000
0000
0000
0001
0000
0000
0001
,
0000
0000
0001
0000
0000
0001
0000
0000
0001
0000
0000
0001
0000
0000
1000
0000
,
0001
0000
0000
0001
0000
0000
0010
0000
0000
0010
0000
0000
0100
0000
0000
0100
,
0000
0100
2000
0000
3002
0000
0203
0000
,
0301
0000
0000
0101
0000
0000
1000
0000
0000
1000
0000
0000
0001
0000
0000
0011
,
0000
0000
1000
0000
0000
1000
0000
0000
1100
0000
0000
0001
0000
0000
0101
0000
,
1000
0000
0000
1010
0000
0000
0001
0000
0000
0001
0000
0000
1000
0000
0000
1100
,
0000
0000
0001
0000
0000
0000
0002
0000
0000
0000
0023
0000
0000
0230
0000
0000
,
0310
0000
0000
1100
0000
0000
0001
0000
0000
1000
0000
0000
0010
0000
0000
0101
,
0000
0000
1000
0000
0000
0001
0000
0000
0010
0000
0000
1001
0000
0000
0002
0000
,
0000
0000
0103
0000
0010
0000
0100
0000
0000
0100
0000
0000
0100
0000
0002
0000
,
0000
0013
0100
2000
0000
0001
3001
0000
,
1100
0000
0000
0000
0100
0000
0000
0010
0000
0100
0010
0000
0001
0010
0000
0001
,
0000
0010
0001
0000
1000
0001
0000
1000
0000
0001
1000
0000
1000
0001
0000
0000
,
0101
0000
0000
0000
0100
0000
0000
0010
0000
0100
0010
0000
1000
0010
0000
1000
,
0000
0010
1000
0000
0001
1000
0000
0001
0000
1000
0001
0000
0001
0010
0000
0010
,
0100
0000
1000
0000
0100
0000
1000
0000
0001
0000
1000
0000
0001
0000
1000
0010
,
0100
0000
0001
0000
0100
0000
0001
0000
0100
0000
0010
0000
1000
0001
1000
0001
,
0010
0000
0100
0000
1100
0000
1000
0000
1001
0000
0001
0000
0101
0000
0100
0001
,
1000
0000
1000
0000
0001
0000
0001
0000
1000
0100
1000
0001
1000
0001
0010
0100
,
1000
0000
0000
1000
0100
0000
1000
0000
0000
1000
0000
0000
0001
0000
0000
0001
,
0100
0000
0001
0000
1000
0001
0000
0000
0100
0000
0000
0100
0010
0000
0100
0000
,
0001
0000
0000
0001
0010
0000
0001
0000
0000
0001
0000
0000
1000
0000
0000
1000
,
0010
0000
1000
0000
0001
1000
0000
0000
0100
0000
0000
0100
0010
0000
0100
0000
,
1000
0000
0000
1000
0100
0000
0010
0000
0000
0010
0000
0000
0001
0000
0000
0001
,
0100
0000
0010
0000
0000
0010
1000
0000
0010
0000
0000
0010
0100
0000
0010
0000
,
1000
0000
0000
1000
0001
0000
0010
0000
0000
0010
0000
0000
0001
0000
0000
0001
,
0010
0000
0100
0000
0000
0100
1000
0000
0001
0000
0000
0110
0000
0000
0110
0000
,
1000
0100
0010
0001
0010
0100
1000
0001
,
0100
0010
1000
0010
0100
0001
1000
0001
,
1000
0010
0100
0001
0100
0010
1000
0001
,
0010
0100
1000
0100
0010
0001
1000
0020
,
0030
0000
0000
0000
0101
0000
0000
1100
0000
0000
0011
0000
0000
1000
0010
0000
,
0010
0000
0000
0010
0000
0100
0010
0000
1000
0000
0001
0000
0110
0000
0000
0000
,
0001
0010
1000
1000
0010
0001
0001
0100
,
1000
0000
1000
0000
0100
0000
0001
0000
1000
0000
0001
0000
1000
0100
1000
0100
,
0020
0000
0000
0031
0000
0000
2200
0000
3300
0000
0000
0000
2000
0000
0000
3010
,
0000
0000
0202
0000
0303
0000
0000
0000
0200
0000
0000
0310
0000
0000
2002
0000
,
0000
0000
0000
0000
,
0000
0000
0000
0000
,
3003
0000
0000
0000
,
1000
0000
1000
0000
0100
0000
0000
0010
0000
0001
0000
0010
0100
0000
1000
0000
,
0001
0000
0001
0000
0100
0000
0000
0010
0000
1000
0000
0010
0100
0010
0000
0000
,
1000
0000
1000
0000
0010
0000
0000
0100
0000
0001
0000
0100
0010
0000
1000
0000
,
0002
0010
0000
1000
0000
1000
0000
0103
;

//---------------dance-single - ----------------
#NOTES:
     dance-single:
     :
     Challenge:
     14:
     0.720653,0.868165,0.279341,0.279341,0.796944,614.000000,580.000000,34.000000,34.000000,0.000000,0.000000,0.720653,0.868165,0.279341,0.279341,0.796944,614.000000,580.000000,34.000000,34.000000,0.000000,0.000000:
// measure 0
0000
0000
0000
0000
,  // measure 1
0000
0000
0000
0000
,  // measure 2
0000
0000
0000
0000
,  // measure 3
0000
0000
0000
0000
,  // measure 4
2000
0000
0000
0100
0000
0000
3010
0000
0000
0010
0100
0000
0002
0000
0000
0100
,  // measure 5
0000
0000
0013
0000
0000
0010
0100
0000
1000
0001
0000
0002
0000
0000
0100
0000
,  // measure 6
1003
0000
0000
1100
0000
0000
1001
0000
0000
0101
0000
0001
1000
0000
0000
1000
,  // measure 7
0010
0000
0000
1000
0000
0000
0001
0000
0000
0000
0000
0000
0100
0000
0000
0000
0000
0000
0100
0000
0000
0000
0000
0000
0001
0000
0000
0000
0010
0000
0000
0000
0001
0000
0000
0000
1000
0000
0000
0000
0000
0000
0100
0000
0000
0000
0000
0000
,  // measure 8
2000
0000
3001
0000
0100
0000
0010
0000
1000
0000
1000
0010
0100
0000
0100
0001
,  // measure 9
1000
0000
0100
0000
0010
0001
0010
0000
0100
0010
0100
1000
0001
0000
0001
0000
,  // measure 10
1000
0000
0010
0000
1000
0010
0100
0001
0100
0000
0001
1000
0100
0000
0100
1000
,  // measure 11
0010
0000
0010
0100
0001
1000
0001
0000
0010
0000
0001
0010
0100
0000
1000
0010
,  // measure 12
0100
0000
0100
0001
2000
0000
3000
0000
0100
0000
0100
1000
0002
0000
0103
0000
,  // measure 13
0100
0000
0001
0100
1000
0000
0100
0000
0001
0000
0001
0010
1000
0000
0010
0000
,  // measure 14
0100
0000
1000
0000
0010
0000
0100
0000
0001
0000
0010
0100
0010
0000
0001
0000
,  // measure 15
0100
0010
1000
0010
1000
0000
0001
0000
0010
0001
0010
0100
0010
0001
0010
0000
,  // measure 16
0001
0000
0001
1000
0020
0000
0000
0000
0130
0001
1000
0000
0001
1000
0100
1000
,  // measure 17
0001
0000
1000
0000
1100
0000
0001
0000
0101
0000
0100
0010
0100
0000
0200
0000
,  // measure 18
0300
0000
0001
0000
0011
0000
0010
0100
2000
0000
3000
0000
0001
1000
0002
0000
,  // measure 19
0013
0000
0100
0000
1000
0000
0001
0000
1000
0001
1000
0010
0200
0000
0000
0000
,  // measure 20
0310
0000
0201
0010
0301
0000
1200
0010
,  // measure 21
1300
0000
1020
0100
1030
0000
0021
0100
,  // measure 22
0032
0013
0002
1003
0002
0103
2000
3100
,  // measure 23
0010
0000
0010
0000
0010
0000
0010
0000
0010
0100
0001
1000
0001
0000
0000
0000
,  // measure 24
2001
0000
0000
0001
0000
0000
0100
0000
0000
0100
0000
0000
0010
0000
0000
0010
,  // measure 25
0000
0000
0100
0000
0000
0100
0000
0000
0001
0000
0000
0001
0000
0000
0100
0000
,  // measure 26
3002
0000
0000
1000
0000
0000
0010
0000
0000
0010
0000
0000
0100
0000
0000
0100
,  // measure 27
0000
0000
0100
0000
0000
0100
0000
0000
1000
0000
0000
0010
0000
0000
1000
0000
,  // measure 28
0023
0000
0000
0001
0000
0000
0100
0000
0000
0100
0000
0000
1000
0000
0000
1000
,  // measure 29
0000
0000
0100
0000
0000
0100
0000
0000
0001
0000
0000
0001
0000
0000
0100
0000
,  // measure 30
0230
0000
0000
1000
0000
0000
0010
0000
0000
0010
0000
0000
1300
0000
0002
0000
,  // measure 31
0000
0010
1000
0103
,  // measure 32
0001
0000
0000
0001
0100
0000
0001
0000
0000
0001
0000
0000
1001
0000
0000
0001
,  // measure 33
0000
0000
0001
0000
0010
0001
0000
0000
0001
0000
0000
0001
1000
0000
0001
0000
,  // measure 34
1000
0000
0000
1000
0010
0000
1000
0000
0000
1000
0000
0000
1001
0000
0000
1000
,  // measure 35
0000
0000
1000
0000
0100
1000
0000
0000
1000
0000
0000
1000
0001
0000
1000
0000
,  // measure 36
0010
0000
0000
0010
1000
0000
0010
0000
0000
0010
0000
0000
0110
0000
0000
0010
,  // measure 37
0000
0000
0010
0000
0001
0010
0000
0000
0010
0000
0000
0010
0100
0000
0010
0000
,  // measure 38
0100
0000
0000
0100
0001
0000
0100
0000
0000
0100
0000
0000
0110
0000
0000
0100
,  // measure 39
0000
0000
0100
0000
0000
0100
0000
0000
0110
0000
0100
0000
1001
0000
0000
0000
,  // measure 40
1020
0000
0000
0000
0130
0000
0000
0100
0000
0001
0100
0000
0010
1000
0000
1000
,  // measure 41
0000
1000
0010
0000
0100
0001
0000
0100
0000
0100
0010
0000
1001
0000
0000
0000
,  // measure 42
0021
0000
0000
0000
0130
0000
0000
0100
0000
1000
0100
0000
0010
0001
0000
0001
,  // measure 43
0000
0001
0010
0000
0100
1000
0100
1000
0000
1000
0010
0000
1001
0000
0000
0000
,  // measure 44
0001
0000
0100
0000
1000
0000
0001
0000
0010
0000
1000
0000
0001
0000
0100
0001
,  // measure 45
1000
0000
0100
0000
0001
0000
1000
0000
0010
0000
0001
0000
1000
0100
1000
0001
,  // measure 46
0100
0000
0010
0000
1010
0000
1000
0000
1100
0000
0001
0000
0011
0000
0010
0001
,  // measure 47
0010
0100
0010
0100
1000
0001
1000
0001
0100
0001
0100
0010
1000
0010
0100
0001
,  // measure 48
1000
0000
1000
0010
0000
0010
0100
0000
0100
0010
0000
0010
1000
0000
1000
0001
,  // measure 49
0000
0001
0010
0000
0010
0100
0000
0100
0010
0000
0010
0001
0000
0001
1000
0001
,  // measure 50
0100
0000
0100
0010
0000
0010
1000
0000
1000
0001
0000
0001
0010
0000
0010
0001
,  // measure 51
0000
0001
1000
0000
1000
0100
0000
0100
1000
0000
0001
0100
0000
0001
1000
0001
,  // measure 52
0010
0000
0010
0100
0000
0100
1000
0000
1000
0001
0000
0001
1000
0000
1000
0010
,  // measure 53
0000
0010
0100
0000
0100
0001
0000
0001
1000
0000
1000
0100
0000
0100
1000
0001
,  // measure 54
1000
0000
0001
0100
0000
0100
0010
0000
1000
0001
0000
0001
0010
0000
0100
1000
,  // measure 55
0000
1000
0010
0000
1000
0001
0000
0001
0010
0001
0010
0100
1000
0000
1000
0001
,  // measure 56
0010
0001
0010
0000
0100
0000
1000
0100
1000
0000
0001
0000
1000
0010
1000
0000
,  // measure 57
0001
0000
0100
0001
0100
0000
0010
0000
1010
0000
0001
0000
0101
0000
1000
0000
,  // measure 58
0010
1000
0010
0000
0100
0000
0001
0010
0001
0000
1000
0000
0001
0100
0001
0000
,  // measure 59
0010
0000
0100
1000
0100
0000
0010
0000
0011
0000
1000
0000
1100
0000
0002
0000
,  // measure 60
2000
0000
3003
0000
1000
0000
0010
0100
0000
0001
0100
0000
0001
0010
0000
0100
,  // measure 61
1000
0000
0100
0001
0000
0100
1000
0000
0100
0000
0100
0000
0110
0000
0000
0000
,  // measure 62
0100
1000
0100
0010
0001
0000
0010
0001
1000
0001
0100
0000
0001
0100
0001
1000
,  // measure 63
0010
0000
0010
0100
0001
1000
0001
0000
1000
0001
1000
0100
0010
0001
1000
0000
,  // measure 64
0001
0000
0000
0001
0010
0000
0110
0000
1000
0000
0001
0000
1000
0000
0000
1000
,  // measure 65
0010
0000
0110
0000
0001
1000
0001
0000
0101
0000
0000
1001
0000
0000
2020
0000
,  // measure 66
0000
0000
0000
0000
,  // measure 67
0000
0000
0000
0000
,  // measure 68
3030
0000
0000
0000
,  // measure 69
1000
0000
0010
0000
0100
0000
0010
0001
0000
0010
0000
0100
0001
0000
0001
0000
,  // measure 70
0001
0000
0010
0000
0100
0000
0010
1000
0000
0010
0000
0100
1000
0100
0000
0000
,  // measure 71
1000
0000
0010
0000
0100
0000
0100
0001
0000
0001
0000
0010
0100
0000
0100
0000
,  // measure 72
2000
3010
2000
3001
2000
3001
2000
3100
;

//---------------dance-single - ----------------
#NOTES:
     dance-single:
     :
     Medium:
     11:
     0.399059,0.449051,0.115023,0.410796,0.316313,340.000000,326.000000,14.000000,50.000000,0.000000,0.000000,0.399059,0.449051,0.115023,0.410796,0.316313,340.000000,326.000000,14.000000,50.000000,0.000000,0.000000:
0000
0000
0000
0000
,
0000
0000
0000
0000
,
0000
0000
0000
0000
,
0000
0000
0000
0000
,
1000
0000
0000
0100
0000
0000
1000
0000
0000
0001
0000
0000
1000
0000
0000
0010
,
0000
0000
0100
0000
0000
0001
0000
0000
1000
0000
0000
0001
0000
0000
0010
0000
,
0001
0000
0000
0010
0000
0000
0100
0000
0000
1000
0000
0000
0010
0000
0000
0010
,
0100
0010
2000
0000
3010
0100
0002
0000
,
1003
0000
1000
0000
1000
0100
0001
0100
,
1000
0000
1000
0000
1000
0010
0001
0010
,
0100
0000
0100
0000
0100
0001
0010
0100
,
0010
0000
0010
0000
0010
0100
1000
0001
,
1000
0000
0001
0000
1000
0010
0100
0001
,
0100
0000
0010
0000
0100
0001
1000
0100
,
0010
0000
0100
0000
0010
0100
1000
0000
,
0001
0000
1000
0000
0001
0100
0010
0000
,
1000
0000
1000
0000
0000
1000
0000
0000
0001
0000
0000
0000
0101
0000
0000
0000
,
0001
0000
0001
0000
0000
0001
0000
0000
1000
0000
0000
0000
1100
0000
0000
0000
,
1000
0000
0010
0000
0000
0010
0000
0000
0100
0000
0000
0000
1010
0000
0000
0000
,
0001
0000
0010
0000
0000
0010
0000
0000
0100
0000
0010
0000
0100
0000
0000
0000
,
2000
3100
0002
0013
,
0002
0103
2000
3010
,
0002
0010
1000
0103
,
0100
0001
1000
0100
1000
0001
0010
0000
,
0002
0000
0000
0000
,
0000
0000
0000
0003
,
1000
0000
0000
1000
0000
0000
0200
0000
0000
0300
0000
0000
0100
0000
0000
0100
,
0000
0000
2000
0000
0000
3000
0000
0000
0001
0000
0000
0001
0000
0000
1000
0000
,
0001
0000
0000
0001
0000
0000
0200
0000
0000
0300
0000
0000
0001
0000
0000
0001
,
0000
0000
0020
0000
0000
0030
0000
0000
0001
0000
0000
0001
0000
0000
1000
0000
,
0100
0000
0000
0100
0000
0000
0020
0000
0000
0030
0000
0000
0010
0000
0020
0000
,
0000
0030
0002
0000
2003
0000
3020
0000
,
0130
0000
0000
0010
0000
0000
2000
0000
0000
3000
0000
0000
0010
0000
0000
0100
,
0000
0000
0002
0000
0000
0003
0000
0000
1000
0000
0000
0001
0000
0000
0001
0000
,
1000
0000
0000
0100
0000
0000
0020
0000
0000
0030
0000
0000
0001
0000
0000
0100
,
0000
0000
0020
0000
0000
0000
0230
0000
0000
0000
0302
0000
0000
1003
0000
0000
,
0001
0000
0000
1000
0000
0000
0020
0000
0000
0030
0000
0000
1000
0000
0000
0001
,
0000
0000
0200
0000
0000
0300
0000
0000
0001
0000
0000
0001
0000
0000
0020
0000
,
0000
0031
1000
0200
0000
0010
0000
0320
,
0000
0100
0000
0032
0000
1000
1003
0000
,
1001
0000
0000
0000
1000
0000
0000
0100
0000
0100
0000
0000
1000
0000
0000
0001
,
0000
0001
0000
0000
1000
0000
0000
0010
0000
0010
0000
0000
0110
0000
0000
0000
,
1001
0000
0000
0000
0001
0000
0000
0100
0000
0100
0000
0000
0001
0000
0000
1000
,
0000
1000
0000
0000
0001
0000
0000
0010
0000
0010
0000
0000
0110
0000
0000
0000
,
1001
0000
1000
0100
0000
0100
0001
0000
,
0001
0010
0000
0010
1000
0000
1000
0001
,
1000
0000
0000
0010
0000
0000
0100
0000
0000
0001
0000
0000
0100
0000
0010
0000
,
2000
0000
0002
3003
,
0001
0000
0000
0001
0000
0000
0010
0000
0000
0010
0000
0000
0100
0000
0000
0100
,
0000
0000
0010
0000
0000
0010
0000
0000
0001
0000
0000
0001
0000
0000
1000
0000
,
0001
0000
0000
0001
0000
0000
0100
0000
0000
0100
0000
0000
0010
0000
0000
0010
,
0000
0000
0100
0000
0000
0100
0000
0000
0001
0000
0000
1000
0000
0000
0100
0000
,
1000
0000
0000
1000
0000
0000
0100
0000
0000
0100
0000
0000
0010
0000
0000
0010
,
0000
0000
0100
0000
0000
0100
0000
0000
1000
0000
0000
1000
0000
0000
0001
0000
,
1000
0000
0000
1000
0000
0000
0010
0000
0000
0010
0000
0000
0100
0000
0000
0010
,
0000
0000
0010
0000
0000
0010
0000
0000
2000
0000
0000
0000
3001
0000
0000
0000
,
1000
0000
0000
0100
0000
0000
1000
0000
0000
0100
0000
0000
0010
0000
0000
0001
,
0000
0000
0010
0000
0000
0001
0000
0000
1000
0000
0000
0001
0000
0000
1000
0000
,
0001
0000
0000
0100
0000
0000
0001
0000
0000
0100
0000
0000
0010
0000
0000
1000
,
0000
0000
0010
0000
0000
1000
0000
0000
0001
0000
0000
1000
0000
0000
0002
0000
,
0003
0000
0000
0000
1000
0000
0000
1000
0000
0000
0001
0000
0000
0001
0000
0000
,
0010
0000
0000
0010
0000
0000
0010
0000
0100
0000
0010
0000
0110
0000
0000
0000
,
0100
0010
0002
0000
0103
0010
2000
0000
,
3100
0010
0001
0010
0100
1000
0020
0000
,
0130
0000
0000
0001
0000
0000
0202
0000
0303
0000
0000
0000
1000
0000
0000
0100
,
0000
0000
2200
0000
3300
0000
0000
0000
0100
0000
0000
0010
0000
0000
2002
0000
,
0000
0000
0000
0000
,
0000
0000
0000
0000
,
3003
0000
0000
0000
,
2000
0100
3200
0010
,
0320
0001
0031
1001
,
0002
0100
0203
0010
,
0320
0000
1000
0000
1030
0000
0220
0330
;

//---------------dance-single - ----------------
#NOTES:
     dance-single:
     :
     Easy:
     6:
     0.274646,0.299367,0.082159,0.542250,0.028756,234.000000,224.000000,10.000000,66.000000,0.000000,0.000000,0.274646,0.299367,0.082159,0.542250,0.028756,234.000000,224.000000,10.000000,66.000000,0.000000,0.000000:
0000
0000
0000
0000
,
0000
0000
0000
0000
,
0000
0000
0000
0000
,
0000
0000
0000
0000
,
1000
0100
1000
0001
,
0100
0001
1000
0010
,
1000
0001
0010
0001
,
0200
0300
0200
0300
,
0001
0100
0010
0100
,
0001
0100
0010
0010
,
1000
0100
0010
0100
,
1000
0100
0020
0030
,
0001
1000
0010
1000
,
0001
0100
0010
0010
,
1000
0001
0010
0001
,
1000
0100
0020
0030
,
0100
0200
0300
1000
,
0001
0002
0003
0100
,
0010
0020
0030
1000
,
0001
0002
0003
0020
,
0030
2200
3300
0202
,
0303
2020
3030
0011
,
0001
1000
0001
1000
,
0100
0100
0200
0300
,
2002
0000
0000
0000
,
0000
0000
0000
3003
,
0002
0000
0000
0203
0000
0000
0320
0000
,
0000
0030
1000
1000
,
0002
0000
0000
0023
0000
0000
0230
0000
,
0000
0300
0010
0010
,
0002
0000
0000
2003
0000
0000
3020
0000
,
0000
0130
0001
1000
,
0200
0000
0000
2300
0000
0000
3020
0000
,
0000
0030
0100
0001
,
2000
0000
0000
3002
0000
0000
0023
0000
,
0000
0000
0000
0000
0030
0000
0100
0000
0000
0000
0100
0000
0000
0010
0000
0000
,
0002
0000
0000
2003
0000
0000
3020
0000
,
0000
0030
0100
0100
,
0010
1000
0001
0100
,
0001
1000
0100
0010
,
0001
0000
0000
0000
1000
0000
0000
1000
0000
0000
0000
0000
1000
0000
0000
1000
,
0000
0000
0000
0000
1000
0000
0000
1000
0000
0000
1000
0000
0001
0000
0000
0000
,
1000
0000
0000
0000
0001
0000
0000
0001
0000
0000
0000
0000
0001
0000
0000
0001
,
0000
0000
0000
0000
0001
0000
0000
0001
0000
0000
0001
0000
1000
0000
0000
0000
,
0002
0203
2300
3200
,
0302
0023
2030
3020
,
0032
0203
0320
2030
,
3001
0001
2002
3003
,
1000
0100
0010
0001
,
0100
0010
0100
0001
,
1000
0010
0100
0001
,
0010
0100
0010
0001
,
1000
0010
0001
0001
,
0010
1000
0001
1000
,
0001
0010
1000
1000
,
0010
0001
1000
0010
,
0200
0301
0200
0310
,
0200
1300
0100
0100
,
0020
1030
0020
0130
,
0020
0031
0010
0020
,
0030
1000
0001
1000
,
0100
0001
0200
0300
,
1000
1000
0001
0001
,
0100
0100
0220
0330
,
0010
0000
0000
1010
0000
0000
0100
0000
,
0000
0101
0000
0000
1000
0000
0000
2002
,
0000
0000
0000
0000
,
3003
0000
0000
0000
,
0000
0000
0000
0000
,
1000
0100
0010
0100
,
1000
0100
0010
0010
,
0001
0100
0010
0100
,
0002
0000
0203
0000
0320
0000
2030
3000
;

//---------------dance-single - ----------------
#NOTES:
     dance-single:
     :
     Beginner:
     3:
     0.123239,0.209198,0.041080,0.016432,0.000000,105.000000,100.000000,5.000000,2.000000,0.000000,0.000000,0.123239,0.209198,0.041080,0.016432,0.000000,105.000000,100.000000,5.000000,2.000000,0.000000,0.000000:
0000
0000
0000
0000
,
0000
0000
0000
0000
,
0000
0000
0000
0000
,
0000
0000
0000
0000
,
1000
0000
0000
0000
,
0100
0000
0000
0000
,
0010
0000
0000
0000
,
0001
0000
0000
0000
,
0000
1000
0000
1000
,
0000
0001
0000
0001
,
0000
1000
0000
1000
,
0000
0001
0000
0001
,
0000
0100
0000
0100
,
0000
0010
0000
0010
,
0000
0100
0000
0100
,
0000
0010
0000
0010
,
0010
0000
0000
0000
,
1000
0000
0000
0000
,
0001
0000
0000
0000
,
0010
0000
0000
0000
,
0000
0100
0000
0100
,
0000
0100
0000
0100
,
1000
0001
1000
0001
,
1000
0000
0000
0000
,
1001
0000
0000
0000
,
0000
0000
0000
0000
,
1000
0000
0000
0000
,
0000
0000
0001
0100
,
0010
0000
0000
0000
,
0000
0000
0000
0000
,
0010
0000
0000
0000
,
0000
0100
0001
1000
,
0001
0000
0000
0000
,
0000
0000
0000
0000
,
0001
0000
0000
0000
,
0000
0000
0010
0010
,
0100
0000
0000
0000
,
0100
0000
0000
0000
,
0010
0000
0000
0000
,
0010
0000
0000
0000
,
1001
0000
0000
0000
,
1001
0000
0000
0000
,
0110
0000
0000
0000
,
0110
0000
0000
0000
,
0001
0000
0001
0000
,
1000
0000
1000
0000
,
0020
0000
0000
0000
,
0030
0000
0000
0000
,
0001
0000
0000
0000
,
0001
0000
0100
0000
,
0001
0000
0000
0000
,
1000
0000
0100
0000
,
1000
0000
0000
0000
,
0001
0000
0100
0000
,
0001
0000
0000
0000
,
1000
0000
1000
0000
,
0001
0000
0000
0000
,
1000
0000
0010
0000
,
1000
0000
0000
0000
,
0001
0000
0010
0010
,
0000
0100
0000
0100
,
0100
0000
0000
0000
,
0010
0000
0001
0000
,
1000
0000
0001
0000
,
1000
0000
0000
1000
0000
0000
0010
0000
,
0000
0010
0000
0000
0100
0000
0000
0002
,
0000
0000
0000
0000
,
0003
0000
0000
0000
,
0000
0000
0000
0000
,
0000
1000
0000
1000
,
0000
0001
0000
0001
,
0000
1000
0000
1000
,
0000
0001
0001
0001
;
