#TITLE:Operation\: ELEMENT WONDER;
#SUBTITLE:;
#ARTIST:Daniel Van Eden;
#TITLETRANSLIT:;
#SUBTITLETRANSLIT:;
#ARTISTTRANSLIT:;
#GENRE:;
#CREDIT:;
#BANNER:Operation ELEMENT WONDER.png;
#BACKGROUND:Operation ELEMENT WONDER-bg.png;
#LYRICSPATH:;
#CDTITLE:;
#MUSIC:Operation ELEMENT WONDER.ogg;
#OFFSET:-0.000910;
#SAMPLESTART:39.612209;
#SAMPLELENGTH:9.599998;
#SELECTABLE:YES;
#DISPLAYBPM:200.000000;
#BPMS:0.000000=200.000000
,294.000000=400.000000
,295.000000=200.000000
;
#STOPS:260.000000=0.112503,
260.375000=0.112495,
260.750000=0.112495,
261.125000=0.262497,
294.000000=0.074997,
294.500000=0.075005,
422.000000=2.099991
;
#BGCHANGES:;
#KEYSOUNDS:;
#ATTACKS:;

//---------------dance-single - ----------------
#NOTES:
     dance-single:
     :
     Challenge:
     18:
     0.869253,1.336476,0.215517,0.344828,0.549569,847.000000,817.000000,30.000000,48.000000,0.000000,0.000000,0.869253,1.336476,0.215517,0.344828,0.549569,847.000000,817.000000,30.000000,48.000000,0.000000,0.000000:
0000
0000
0000
0000
,
0000
0000
0000
0000
,
0000
0000
0000
0000
,
0000
0000
0000
0000
,
0000
0000
0000
0000
,
0000
0000
0000
0000
,
0000
0000
0000
0000
,
0000
0000
0000
0000
,
0000
0000
0000
0000
,
0000
0000
1000
1000
1000
0010
0000
2000
,
0000
0000
3100
0020
0000
0000
0000
0000
,
0030
0001
0100
0100
0100
0010
0100
0002
,
0000
0013
1000
0002
0000
0103
0000
1000
,
0020
0000
0130
0100
0100
0001
0000
0200
,
0000
0300
0010
2000
3000
0000
1000
0002
,
0000
0013
0100
0010
1000
0010
0001
1000
,
0010
0000
0000
0010
0000
0000
0100
0000
0000
0000
0000
0000
0100
0000
0010
0000
,
1000
0000
1000
0010
1000
0000
0001
0000
0020
0000
0000
0000
0130
0000
1000
0010
,
1000
0100
0010
0000
0220
0330
0022
0033
,
0001
0000
0001
0010
0001
0000
1000
0000
0020
0000
0000
0000
0130
0000
0001
0010
,
0001
0000
0100
0000
0010
1000
0010
0100
0001
1000
0100
0010
0001
0100
0010
1000
,
0001
0000
0001
0100
0001
0000
1000
0000
0200
0000
0000
0000
0310
0000
0001
0010
,
0100
0000
1000
0000
0001
1000
0001
1000
0001
0000
0100
0010
0100
0000
0010
1000
,
0010
0000
1000
0100
1000
0000
0001
0000
0200
0000
0000
0000
0310
0000
1000
0100
,
1000
0000
0001
0000
0100
0001
0100
0010
1000
0001
1000
0100
0010
0001
1000
0100
,
0010
0001
1000
1000
1000
0010
0100
1000
,
0100
0001
0010
1000
0010
0100
0010
0001
,
1000
0001
0010
0010
0010
0100
0010
1000
,
0010
0001
0100
1000
0100
0001
1000
0010
,
0110
0000
0100
0100
0100
0001
0010
0100
,
0110
0000
0010
0001
0010
0100
1000
0010
,
1010
0000
1000
0000
0001
0000
0010
0000
0011
0000
0001
0010
0001
1000
0010
0100
,
0010
1000
0001
0010
0000
0010
0100
0000
0000
0000
0000
0000
0000
0000
0000
0000
,
0011
0001
1000
1100
0100
1000
0010
0002
,
0000
0013
1000
0001
1000
0001
0010
0100
,
1000
0000
1001
0001
0100
0010
1000
0001
,
0100
0000
1000
0000
0100
0000
0001
0000
1000
0000
0000
0000
1000
0100
0010
0001
,
1000
1000
0010
0100
0010
1010
0000
0102
,
0000
0000
0103
0000
0010
0100
0001
0010
0100
0000
0100
1000
0100
0010
0001
0000
,
1000
0000
0010
0100
0001
0000
1000
0000
0010
0000
0100
0000
1000
0000
0100
0000
,
0001
0000
0010
0000
0100
0000
1000
0000
0001
0000
1000
0000
0010
0100
0010
0100
,
0010
1000
0010
0100
0001
1000
0001
0010
0100
0010
0001
1000
0020
0000
0030
0000
,
1100
0000
0100
0010
0100
0000
0010
0000
0001
0000
1000
0000
0010
0000
0100
0010
,
0100
0001
0010
0000
0022
0033
2200
3300
,
0001
0000
0010
0100
0010
0000
0100
0000
1000
0000
0001
0000
0100
0000
0010
0100
,
0001
0100
0010
1000
0001
0000
0000
0000
0010
0000
0001
1000
0001
0000
1000
0000
,
0100
0000
0100
1000
0001
0000
0100
0000
0010
1000
0001
1000
0100
0010
0001
0000
,
0010
0000
0100
0000
1000
0000
0010
0000
0001
0000
0010
0000
1000
0100
0010
0001
,
1000
0000
0010
1000
0000
0110
0000
0101
,
0000
0000
0001
0000
0010
0001
0100
0010
1000
0000
0010
1000
0010
0100
0001
0000
,
0100
0000
0001
1000
0001
0000
0010
0000
0100
0000
1000
0000
0010
0000
1000
0001
,
1000
0100
0010
0000
0022
0033
2200
3300
,
0100
0000
1000
0001
1000
0000
0010
0000
0100
0000
0001
0000
0010
0000
0001
1000
,
0001
0100
0010
1000
0001
0000
0100
0000
0010
0000
0100
0001
1000
0100
0010
0100
,
0020
0000
0031
0102
0000
0103
0010
1020
,
0000
0000
1030
0000
0001
0000
0021
0000
0000
0000
0000
0000
0031
1000
0100
0010
,
0001
1000
0010
1000
0001
0010
0100
1000
0001
0100
0010
0100
0001
1000
0010
1000
,
0001
1000
0100
0010
0001
1000
0010
1000
0001
0010
0100
1000
0010
0000
0100
0000
,
0020
0000
0000
0000
,
0000
0000
0000
0000
,
0030
0000
0000
0000
,
0000
0000
0000
0000
,
1000
0010
1000
0001
1000
0010
0100
0001
,
1000
0100
1000
0001
1000
0100
0010
0001
,
0001
0010
0001
1000
0001
0010
0100
1000
,
0002
0003
0000
0200
0300
0000
0020
0030
0000
2000
3000
0000
0000
0000
0000
0000
1000
0000
0000
0000
0100
0000
0000
0000
0010
0000
0000
0000
0100
0000
0000
0000
,
0000
1000
0100
0002
0000
0103
1000
0001
,
1000
0010
0100
0000
0001
0100
0010
0100
,
0000
0001
0100
1000
0000
0100
0001
1000
,
0100
0001
0100
1000
0010
0100
0001
0100
,
0000
1000
0100
0001
0000
0010
0001
0010
,
0001
1000
0100
0000
0010
0100
1000
0100
,
0000
0000
0001
0000
0100
0000
1000
0000
0010
0000
1000
0010
1000
0000
0010
0000
,
0100
0000
0010
0000
0100
0000
0000
0000
0001
0000
0000
0000
0010
0000
0000
0000
0220
0330
0000
0000
0220
0330
0000
0000
1001
0000
0000
0000
0001
0000
0000
0000
,
0100
0001
0100
0000
0010
0000
1000
0000
0001
0010
0001
0000
0010
0000
0100
0000
,
1000
0010
1000
0000
0001
0000
0100
0000
0010
0100
0010
0000
1000
0000
0001
0000
,
1000
0100
1000
0000
0001
0000
0100
0000
0010
1000
0010
0000
1000
0000
0001
0000
,
0010
0100
0010
0000
0001
0000
1000
0000
0100
1000
0001
0000
0010
0000
0001
0000
,
1000
0001
0100
0000
0010
0000
1000
0000
0010
1000
0001
0000
0010
0000
0100
0000
,
1000
0001
0010
0000
0100
0000
1000
0000
0001
0100
0010
0000
1000
0000
0001
0000
,
1000
0100
0010
0000
0001
0000
1000
0000
0010
1000
0010
0000
0100
0010
1000
0000
,
0001
0010
0001
0000
0010
0100
1000
0000
2002
0000
0000
0000
0000
0000
0000
0000
,
0000
0000
0000
0000
,
0000
0003
0200
0000
,
0000
0000
0000
0000
,
0000
3000
0020
0000
,
0000
0000
0000
0000
,
0000
0000
0300
0000
0031
0001
0010
0010
,
0100
0000
0100
0000
1000
0000
1000
0000
0001
0100
0001
0100
0010
1000
0010
1000
,
0010
0100
0010
0100
0001
1000
0001
1000
0100
0000
0000
0000
0010
0000
0001
0000
,
0000
1000
0001
0100
0000
0001
1000
0001
,
1000
0010
1000
0100
0010
0000
0001
0010
,
0001
1000
0010
0100
0010
0001
0010
1000
,
0001
0000
0000
0000
0001
0100
0010
1000
0001
0000
0000
0000
0010
0000
0001
0000
,
0000
0000
1000
0000
0000
0000
0100
0000
0000
0000
0100
0000
0010
0100
1000
0001
,
0100
0000
0010
0100
0010
0100
0001
0000
0000
0000
0001
0010
0100
0000
1000
0000
,
0001
0100
1000
0100
0001
0010
0001
0100
,
0010
0000
1000
0001
1000
0100
0010
0001
1000
0000
0001
0000
1000
0000
1010
0000
,
0010
1000
0100
0002
0000
0103
1000
0001
,
1000
0001
0100
0010
1000
0000
1001
1000
,
0010
0100
0001
1000
0010
0001
0010
1000
,
0001
0000
0000
0000
0001
0100
0010
1000
0001
0000
0000
0000
0010
0100
0010
0100
,
0010
0000
0011
0000
0000
0000
2100
0000
0000
0000
3100
0000
0010
0100
1000
0010
,
0100
0000
0100
0001
0100
0010
1000
0000
0001
0000
0010
0100
1000
0000
0010
0000
,
0100
0000
0010
0000
1000
0000
0001
0000
1000
0010
0100
0010
1000
0001
0100
0001
,
1000
0100
0010
0001
1000
0001
0010
0100
1000
0000
0000
0000
1001
0000
0001
0000
,
1000
0001
1000
0010
1000
0001
1000
0010
,
0100
0010
1000
0100
0001
0100
1000
1000
,
0001
0010
1000
0010
0001
0010
0100
0010
,
0001
1000
0010
0100
0010
0100
0010
1000
,
0001
1000
0100
0001
0100
0010
0001
1000
,
0010
0000
0100
0000
1000
0000
0100
0000
0001
1000
0001
1000
0001
0010
0100
0010
,
0001
1000
0001
0100
0010
0100
0001
1000
0200
0000
0000
0000
0300
0000
0000
0000
;

//---------------dance-single - ----------------
#NOTES:
     dance-single:
     :
     Hard:
     16:
     0.755337,1.011359,0.122126,0.316092,0.334052,736.000000,719.000000,17.000000,44.000000,0.000000,0.000000,0.755337,1.011359,0.122126,0.316092,0.334052,736.000000,719.000000,17.000000,44.000000,0.000000,0.000000:
0000
0000
0000
0000
,
0000
0000
0000
0000
,
0000
0000
0000
0000
,
0000
0000
0000
0000
,
0000
0000
0000
0000
,
0000
0000
0000
0000
,
0000
0000
0000
0000
,
0000
0000
0000
0000
,
0000
0000
0000
0000
,
0000
0000
0001
0001
0001
0010
0000
0002
,
0000
0003
1000
0200
0000
0000
0300
0000
,
0000
1000
0010
0010
0010
1000
0010
0200
,
0000
0301
0010
0002
0000
0103
0000
0010
,
2000
0000
3100
0100
0100
0010
0000
0200
,
0000
0000
1300
0002
0003
0000
0001
2000
,
0000
3010
1000
0001
0100
0010
1000
0100
,
0010
0000
0000
0010
0000
0000
0001
0000
0000
0000
0000
0000
1000
0000
0010
0000
,
0100
0000
0001
0100
0001
0000
1000
0000
0010
0000
0000
0000
1000
0000
0100
1000
,
0100
0010
0001
0000
2020
3030
0202
0303
,
1000
0000
0010
1000
0010
0000
0100
0000
0001
0000
0000
0000
1000
0000
0001
0010
,
0001
0000
1000
0000
0100
0000
0010
0001
1000
0000
0010
0100
0001
0000
1000
0000
,
0010
0000
0100
0010
0100
0000
0001
0000
1000
0000
0000
0000
0001
0000
0010
0100
,
0010
0000
0001
0000
1000
0001
1000
0001
1000
0000
0001
0010
0001
0000
1000
0100
,
1000
0000
0100
0010
0100
0000
0010
0000
0001
0000
0000
0000
1000
0000
0010
0100
,
0010
0000
1000
0000
0001
1000
0100
0010
0001
0000
1000
0010
1000
0000
0001
0100
,
0001
0000
1000
1000
1000
0010
1000
0001
,
0010
0100
1000
0002
0100
0000
1003
0000
,
0010
1000
0001
0001
0001
0010
0100
0010
,
0001
0100
1000
0100
0001
1000
0010
0100
,
0010
0100
0001
0001
0001
0010
0001
1000
,
0100
0010
0001
1000
0010
1000
0010
0100
,
0001
0010
1000
0010
0001
0100
1000
0100
,
0001
0000
0000
0011
0000
0000
1001
0000
0000
0000
0000
0000
0000
0000
0000
0000
,
1100
0000
0010
0001
0000
1000
0100
0002
,
0000
0103
0010
0100
0010
0001
1000
0010
,
0100
0000
0001
0010
0001
0100
1000
0100
,
0001
0000
0010
0000
0100
0000
1000
0000
0001
0000
0000
0000
0001
0010
0100
1000
,
0010
0000
0100
0010
0000
1010
0000
0101
,
0000
0000
0001
0000
1000
0010
1000
0001
1000
0000
0001
0010
0001
1000
0200
0000
,
0000
0310
0001
1000
0001
0010
0100
0010
,
0100
0000
0001
0000
0100
0000
1000
0000
0001
0000
0000
0000
1000
0001
1000
0001
,
1000
0000
0010
0000
0100
0000
0010
1000
0001
0000
0010
0000
0200
0000
0300
0000
,
0010
0000
0001
0010
0001
0000
1000
0000
0100
0000
0000
0000
1000
0000
0010
1000
,
0010
0100
0001
0000
0220
0330
2020
3030
,
1000
0000
0100
1000
0100
0000
0010
0000
0001
0000
0000
0000
1000
0000
0001
0100
,
0001
0100
0010
1000
0001
0000
0000
0000
0020
0000
0000
0230
0000
0000
0320
0000
,
0031
0000
1000
0000
0010
0000
0100
0000
0010
1000
0001
0000
1000
0100
0010
0000
,
0001
0010
0100
1000
0001
0100
1000
0100
,
0001
0000
1000
0010
0000
0110
0000
0101
,
0000
0000
0001
0000
1000
0001
1000
0000
0100
0000
0010
0100
0010
0001
1000
0000
,
0001
0000
0100
0001
0100
0000
0010
0000
1000
0000
0000
0000
0100
0000
1000
0100
,
1000
0001
0010
0000
0220
0330
2200
3300
,
0010
0000
1000
0010
1000
0000
0001
0000
0100
0000
0000
0000
0010
0000
0100
0001
,
0100
0010
1000
0001
1000
0000
0001
0000
1000
0000
0100
0010
0001
1000
0001
1000
,
0002
0000
0013
2000
0000
3001
0100
0020
,
0000
0031
0100
2000
0000
0000
3100
0001
,
1000
0010
1000
0010
1000
0000
0001
0000
0010
0001
0010
0001
0010
0000
0100
0000
,
1000
0001
1000
0000
0100
0000
0010
0000
0001
1000
0001
0000
0100
0000
0010
0000
,
0200
0000
0000
0000
,
0000
0000
0000
0000
,
0300
0000
0000
0000
,
0000
0000
0000
0000
,
0000
0010
0000
0010
0000
1000
0000
0100
,
0000
0010
0000
0010
0000
0001
1000
0100
,
0100
0010
0000
0010
0000
0001
0000
1000
,
0002
0003
0000
0020
0030
0000
0200
0300
0000
2000
3000
0000
0000
0000
0000
0000
0001
0000
0000
0000
0000
0000
0000
0000
0010
0000
0000
0000
0100
0000
0000
0000
,
0000
0010
0001
1000
0000
0010
0100
0010
,
0100
0001
1000
0000
0001
0000
0010
0100
,
0000
0010
0001
0100
0000
1000
0100
0001
,
1000
0100
0010
0001
1000
0000
0010
0100
,
0000
0010
1000
0001
0000
0010
0100
0010
,
0100
1000
0001
0000
1000
0000
0010
0100
,
0000
0000
0010
0000
1000
0000
0001
0000
0010
0000
0100
0010
0100
0000
1000
0000
,
0001
0000
1000
0000
0001
0000
0000
0000
0100
0000
0000
0000
0010
0000
0000
0000
0200
0300
0000
0000
0200
0300
0000
0000
1001
0000
0000
0000
0000
0000
0000
0000
,
1000
0010
1000
0001
0010
1000
0010
0001
,
1000
0010
0100
0000
0001
1000
0001
0100
,
0010
0100
0001
0010
1000
0010
0001
1000
,
0100
0010
0001
1000
0010
0100
0001
1000
,
0001
0010
0001
1000
0010
0001
0010
1000
,
0001
0010
0100
0000
1000
0001
1000
0100
,
0010
0100
1000
0010
0001
0010
1000
0001
,
0100
0010
1000
0001
2001
0000
0000
0000
,
0000
0000
0000
0000
,
0000
0000
3200
0000
,
0000
0000
0000
0000
,
0000
0000
0320
0000
,
0000
0000
0000
0000
,
0000
0000
0000
0000
0031
1000
0001
1000
,
0010
0000
0100
0000
0010
0000
0100
0000
0001
0100
0001
0100
0010
1000
0010
1000
,
0001
1000
0001
1000
0001
1000
0100
0010
0001
0000
0000
0000
1000
0000
0100
0000
,
0000
1000
0010
0001
0000
0010
1000
0010
,
1000
0001
0010
0100
1000
0000
0001
0100
,
0001
0010
0100
0010
0100
0001
0100
1000
,
0001
0000
0000
0000
0001
0100
0010
1000
0010
0000
0010
0000
1000
0000
0001
0000
,
0010
0000
0100
0000
0000
0000
1000
0000
0000
0000
1000
0000
0001
0010
0100
0000
,
1000
0000
0001
1000
0001
0000
0100
0000
0000
0000
0100
0000
0001
0000
1000
0000
,
0100
0010
0001
1000
0010
0001
0010
1000
,
0001
0000
0010
0001
1000
0100
1000
0001
0100
0000
0000
0000
0010
0000
1000
0000
,
0000
0001
0100
2000
0000
3100
0010
0100
,
0010
1000
0001
0010
0100
0000
1000
0010
,
1000
0100
0001
0100
1000
0010
0100
0001
,
1000
0000
0000
0000
1000
0100
0010
0001
0100
0000
0000
0000
0100
0010
0100
0010
,
0100
0000
0101
0000
0000
0000
1010
0000
0000
0000
1000
0000
0001
0010
0001
1000
,
0001
0000
1000
0010
1000
0001
0200
0000
0000
0000
0310
0000
1000
0000
0001
0000
,
1000
0000
0100
0000
0010
0000
0100
0000
0010
0100
1000
0000
0100
0010
0001
0000
,
1000
0100
0010
0001
0010
0100
1000
0010
0100
0000
0000
0000
0001
0000
0100
0000
,
0010
0100
0001
1000
0000
0010
0000
0010
,
0100
0010
1000
0001
1000
0001
0010
0010
,
0100
1000
0001
0100
0000
0010
0000
0010
,
1000
0000
0001
0010
0100
0010
0100
0000
,
0010
0001
0010
0100
1000
0001
1000
0100
,
0010
0000
0100
0000
0001
0000
0100
0000
1000
0001
1000
0001
1000
0000
0010
0000
,
0100
0000
0010
1000
0001
0000
0010
0000
0200
0000
0300
0000
0000
0000
0000
0000
;

//---------------dance-single - ----------------
#NOTES:
     dance-single:
     :
     Medium:
     13:
     0.555214,0.686198,0.107759,0.215517,0.032328,541.000000,526.000000,15.000000,30.000000,0.000000,0.000000,0.555214,0.686198,0.107759,0.215517,0.032328,541.000000,526.000000,15.000000,30.000000,0.000000,0.000000:
0000
0000
0000
0000
,
0000
0000
0000
0000
,
0000
0000
0000
0000
,
0000
0000
0000
0000
,
0000
0000
0000
0000
,
0000
0000
0000
0000
,
0000
0000
0000
0000
,
0000
0000
0000
0000
,
0000
0000
0000
0000
,
0000
0000
1000
0010
1000
0001
0000
0020
,
0000
0000
0130
2000
0000
0000
0000
0000
,
3000
0001
0100
0001
0100
0001
1000
0010
,
0000
1000
0100
0010
0000
0001
0000
1000
,
0001
0000
0001
0010
0001
1000
0000
0020
,
0000
0000
0130
0002
0000
0000
1003
0100
,
0000
1000
0100
1000
0001
1000
0010
0100
,
0001
0000
0000
0001
0000
0000
1000
0000
0000
0000
0000
0000
0010
0000
1000
0000
,
0001
0000
0010
0100
0010
0000
0001
0000
,
1000
0010
0100
0000
0002
0000
2003
0000
,
3001
0000
0100
0010
0100
0000
0001
0000
,
1000
0100
0010
0000
0001
0100
1000
0100
,
0001
0000
1000
0010
1000
0000
0001
0010
,
0100
1000
0001
0000
0020
0000
0230
0000
,
1300
0000
0010
0100
0010
0000
1000
0000
,
0001
0100
0010
0000
1000
0010
1000
0001
,
0010
0000
0100
0010
0100
1000
0000
0001
,
0010
0000
0001
1000
0100
0000
1000
0000
,
0010
1000
0001
0100
0001
0000
1000
0100
,
0000
0010
0001
1000
0000
0001
0000
0100
,
0010
0000
0100
0010
0100
0001
0000
1000
,
0010
0000
1000
0001
0100
0000
0001
1000
,
0001
0000
1000
0001
1000
0100
0001
0100
,
1000
0000
0000
1000
0000
0000
0001
0000
0000
0000
0000
0000
0000
0000
0000
0000
,
1001
0000
0001
0010
0000
0001
0010
0100
,
0000
0010
0100
0000
1000
0001
1000
0000
,
0010
0000
1000
0000
0001
0100
0010
0000
,
0010
1000
0010
0000
0100
0000
0001
1000
,
0001
0000
1000
0100
0000
0110
0000
0011
,
0000
0010
0001
0000
1000
0000
0001
0100
,
0000
0100
0010
0000
1000
0100
0010
0000
,
0010
0001
0010
0000
0100
0000
1000
0000
,
0010
0100
0010
0100
0010
0100
0000
0000
,
1010
0000
0010
1000
0010
0000
1000
0000
,
0001
1000
0001
0000
0020
0000
0230
0000
,
1300
0000
0001
0010
0001
0000
1000
0000
,
0001
0000
0100
0000
0001
0000
0000
0000
1000
0000
0000
0001
0000
0000
1000
0000
,
0100
0000
0010
0000
0001
0010
0100
0000
,
1000
0100
0010
0000
0001
0100
0010
1000
,
0001
0000
1000
0001
0000
0100
0000
0010
,
0000
0010
1000
0010
0100
0000
0001
1000
,
0100
0000
0010
0001
0010
0000
0001
0000
,
1000
0001
1000
0000
0020
0000
0230
0000
,
0301
0000
1000
0010
1000
0000
0001
0000
,
1000
0000
0100
0000
1000
0000
0000
0000
0001
0000
0000
1000
0000
0000
0001
0000
,
0020
0000
0130
2000
0000
3100
0010
0002
,
0000
0103
0010
2000
0000
0000
3001
0000
,
0010
0001
1000
0100
0010
0100
1000
0001
,
0100
0010
1000
0001
0010
0100
0010
0001
,
0020
0000
0000
0000
,
0000
0000
0000
0000
,
0030
0000
0000
0000
,
0000
0000
0000
0000
,
0010
0100
0010
0001
,
0100
0000
0010
0000
0100
0000
0010
1000
,
0010
1000
0100
0010
,
0002
0003
0000
0020
0030
0000
0200
0300
0000
2000
3000
0000
0000
0000
0000
0000
0100
0000
0000
0000
0000
0000
0000
0000
1000
0000
0000
0000
0001
0000
0000
0000
,
0000
0001
0100
0000
0010
0000
1000
0010
,
1000
0010
0100
0000
0010
0000
0100
0001
,
0000
0001
1000
0000
0100
0010
0100
0000
,
0010
0001
0010
0100
1000
0000
0100
1000
,
0000
1000
0001
0000
0010
0000
0001
0010
,
0001
0010
0100
0000
1000
0000
0010
1000
,
0000
1000
0001
0200
0000
0320
0000
2030
,
0000
0000
0000
0000
3002
0000
0000
0000
0000
0000
0000
0000
0003
0000
0000
0000
2000
3000
0000
0000
0002
0003
0000
0000
1001
0000
0000
0000
0000
0000
0000
0000
,
0001
0010
0001
0000
1000
0010
1000
0001
,
1000
0100
0010
0000
0001
0000
0101
0000
,
1000
0010
1000
0000
0001
0010
0001
1000
,
0001
0100
0010
0000
1000
0000
1100
0000
,
0100
1000
0001
0000
0010
0100
0010
0001
,
1000
0010
0100
0000
0001
0000
0101
0000
,
0100
0001
1000
0000
0010
1000
0001
0000
,
1000
0100
0010
0001
2000
0000
0000
0000
,
0000
0000
0000
0000
,
0000
0000
3200
0000
,
0000
0000
0000
0000
,
0000
0000
0320
0000
,
0000
0000
0000
0000
,
0000
0000
0031
0010
,
0100
0000
1000
0000
0001
1000
0001
1000
,
0100
0001
0100
1000
0001
0000
0100
0010
,
0000
0100
0010
1000
0000
0010
1000
0001
,
1000
0001
0010
0000
0100
0000
1000
0000
,
0001
0010
0001
0000
1000
0010
1000
0001
,
0100
0000
0100
0010
1000
0000
0001
0010
,
0000
0001
0000
1000
0000
1000
0001
0000
,
0010
0000
0100
0010
0000
0010
0100
0000
,
1000
0010
1000
0000
0001
0010
0001
1000
,
0010
0000
0100
0000
1001
0000
1000
0010
,
0000
1000
0010
0100
0000
0010
0100
0000
,
0001
1000
0001
0000
0010
0000
0001
0000
,
1000
0100
0010
0000
0010
0001
0010
0000
,
0100
0000
0000
0000
1000
0000
0010
0000
0100
0000
0000
0000
0001
1000
0001
1000
,
0001
0010
0000
0110
0000
0100
1000
0000
,
0001
0000
1000
0100
0000
0100
0010
0000
,
0001
0100
0010
0000
0010
1000
0010
0001
,
0010
1000
0100
0010
0001
0000
0010
0000
,
0100
1000
0000
0010
0000
1010
0000
1000
,
0001
0000
0010
0000
0001
0000
1000
0001
,
1000
0100
0010
0001
0000
0101
0000
0100
,
0010
0000
0100
0001
1000
0001
1000
0000
,
0100
0010
0000
0100
0000
0011
0000
0001
,
1000
0000
1010
0000
0110
0000
0100
0010
,
0100
0010
0100
0010
0000
0000
0000
0000
;

//---------------dance-single - ----------------
#NOTES:
     dance-single:
     :
     Easy:
     10:
     0.366379,0.524156,0.143678,0.093391,0.000000,357.000000,337.000000,20.000000,13.000000,0.000000,0.000000,0.366379,0.524156,0.143678,0.093391,0.000000,357.000000,337.000000,20.000000,13.000000,0.000000,0.000000:
0000
0000
0000
0000
,
0000
0000
0000
0000
,
0000
0000
0000
0000
,
0000
0000
0000
0000
,
0000
0000
0000
0000
,
0000
0000
0000
0000
,
0000
0000
0000
0000
,
0000
0000
0000
0000
,
0000
0000
0000
0000
,
1000
0000
0100
0100
,
0100
0000
0010
0000
,
0001
0000
1000
1000
,
2000
0000
3002
0000
,
0103
0000
0010
0010
,
0010
0000
1000
0000
,
0100
0010
0100
0010
,
0001
0000
0000
1000
0000
0000
0000
0000
,
0010
1000
0010
0100
,
0001
0001
0020
0230
,
0310
0001
0010
0100
,
1000
0000
0100
0000
0010
0000
0001
1000
,
0001
1000
0010
0100
,
0010
0100
0010
0000
2000
0000
3002
0000
,
0013
0100
1000
0001
,
1000
0010
0100
0001
,
1001
0000
1000
0001
,
1000
0100
0010
0000
,
0100
0000
0010
0010
,
0010
0100
1000
0001
,
0101
0000
0100
0010
,
0110
0000
0010
1000
,
1010
0010
1010
1000
,
1001
0000
0000
1001
0000
0000
0000
0000
,
1000
0000
0000
0100
0000
0000
1000
0000
,
0001
0010
0100
0000
,
1000
0010
0010
1000
,
0001
0100
0001
0000
1000
0000
0000
0000
,
0001
0000
0000
0010
0000
0010
0000
0100
,
0000
0000
0010
0000
0100
0000
0000
1000
,
0000
1000
0001
0000
0100
0000
0010
0000
,
1000
0001
1000
0000
0010
0000
0100
0000
,
0110
1010
0101
0000
,
0001
0010
0001
0000
,
1000
0001
1000
0000
0001
0000
0100
0000
,
0010
0010
1000
0000
,
0001
0010
0100
1000
,
0001
0000
0000
0011
0000
0000
0110
0000
,
0000
0100
1000
0010
,
1000
0000
0000
0010
0000
0010
0000
0100
,
0000
0001
1000
0001
,
1000
0010
1000
0000
,
0001
1000
0001
0000
1000
0000
0100
0000
,
0010
0010
0001
0000
,
1000
0010
0100
0000
,
0010
0000
0000
1000
0000
0000
0100
0000
,
0000
0010
0000
0000
0001
0000
0010
0000
,
0100
0010
0010
0100
,
0100
0000
1000
0000
1000
0000
0001
1000
,
0002
0000
0000
0000
,
0000
0000
0000
0000
,
0003
0000
0000
0000
,
0000
0000
0000
0000
,
1000
1000
0001
0001
,
1000
0010
0100
0000
,
0001
0001
1000
1000
,
1001
0000
1000
1000
,
0010
0000
1000
0010
,
1000
0001
0010
0010
,
0001
0000
0010
0001
,
1000
0100
0010
0010
,
0100
0000
1000
0001
,
0100
0010
0100
0100
,
0010
0000
1000
0010
,
0100
0000
0000
0000
0000
0000
0000
0000
0001
0000
0000
0000
0000
0000
0000
0000
2000
3000
0000
0000
0002
0003
0000
0000
2000
3000
0000
0000
0000
0000
0000
0000
,
0001
0010
0001
1000
,
0010
0100
0001
1000
,
0001
0100
1000
0100
,
0001
1000
1000
0001
,
1000
0010
1000
0001
,
0010
0100
1000
0001
,
1000
0100
0001
0100
,
0010
0001
2001
0000
,
0000
0000
0000
0000
,
0000
0000
3020
0000
,
0000
0000
0000
0000
,
0000
0000
0230
0000
,
0000
0000
0000
0000
,
0000
0000
0310
0000
,
1000
0000
0001
0001
,
1000
1000
1001
0000
,
0001
0000
0010
0001
,
1000
0000
0100
0000
,
1000
0010
1000
0001
,
1000
0000
0000
0000
0010
0000
0000
0100
,
0000
0100
0000
0010
0000
0000
1000
0000
,
0001
0000
0000
0010
0000
0000
0100
0000
,
1000
0000
0001
0000
1000
0001
1000
0000
,
0010
0000
0100
0000
1001
0000
0000
1000
,
0000
0001
1000
0010
,
0100
0000
0001
0010
,
0010
0000
0001
0000
1000
0100
1000
0000
,
0001
0000
0000
0000
1000
0000
0001
1000
,
0001
1000
0000
1000
0000
0000
0010
0000
,
0100
0000
0000
0001
0000
0001
1000
0000
,
0100
0000
0010
0000
0001
1000
0001
0000
,
0010
0100
0010
0000
0110
0000
0001
0000
,
0100
0010
1000
0001
,
0001
1000
1000
0100
,
0000
0010
0000
0010
0000
0001
0000
0000
,
1000
0000
0010
0010
,
0000
0100
0000
0010
0000
0100
0000
0000
,
0100
0001
1000
1100
,
0110
1001
0000
0000
;

//---------------dance-single - ----------------
#NOTES:
     dance-single:
     :
     Beginner:
     6:
     0.244253,0.403197,0.086207,0.000000,0.000000,238.000000,226.000000,12.000000,0.000000,0.000000,0.000000,0.244253,0.403197,0.086207,0.000000,0.000000,238.000000,226.000000,12.000000,0.000000,0.000000,0.000000:
// measure 0
0000
0000
0000
0000
,  // measure 1
0000
0000
0000
0000
,  // measure 2
0000
0000
0000
0000
,  // measure 3
0000
0000
0000
0000
,  // measure 4
0000
0000
0000
0000
,  // measure 5
0000
0000
0000
0000
,  // measure 6
0000
0000
0000
0000
,  // measure 7
0000
0000
0000
0000
,  // measure 8
0000
0000
0000
0000
,  // measure 9
1000
0000
0100
0000
,  // measure 10
0010
0000
0000
0000
,  // measure 11
0001
0000
1000
0000
,  // measure 12
0010
0000
0100
0100
,  // measure 13
0100
0000
0001
0000
,  // measure 14
1000
0000
0000
0000
,  // measure 15
0001
0000
0010
0000
,  // measure 16
0100
0000
0000
0100
0000
0000
0000
0000
,  // measure 17
1001
0000
0001
0000
,  // measure 18
0010
0010
0000
0000
,  // measure 19
0001
0000
1000
0000
,  // measure 20
0100
0100
0100
0000
,  // measure 21
1000
0000
0001
0000
,  // measure 22
0100
0100
0000
0000
,  // measure 23
0010
0000
1000
0000
,  // measure 24
0001
0000
1000
1000
,  // measure 25
1000
0000
0100
0000
,  // measure 26
0010
0000
0010
0000
,  // measure 27
0001
0000
0100
0000
,  // measure 28
0010
0000
1000
0000
,  // measure 29
1001
0000
0001
0000
,  // measure 30
1001
0000
1000
0000
,  // measure 31
0110
0000
0110
0000
,  // measure 32
0010
0000
0000
0010
0000
0000
0000
0000
,  // measure 33
1000
0000
0000
1000
0000
0000
1000
0000
,  // measure 34
0000
0001
0001
0000
,  // measure 35
0010
0000
0100
0000
,  // measure 36
0010
0010
0010
0000
,  // measure 37
0001
0000
1000
0000
,  // measure 38
0010
0000
0100
0100
,  // measure 39
0100
0000
0001
0000
,  // measure 40
1000
0001
1000
0000
,  // measure 41
0100
0100
0100
0000
,  // measure 42
0010
0010
0001
0000
,  // measure 43
0010
0001
0000
0000
,  // measure 44
1000
0000
0001
0000
,  // measure 45
0100
0000
0010
0010
,  // measure 46
0010
0000
1000
0000
,  // measure 47
0001
0000
0010
0000
,  // measure 48
0100
0000
0010
0000
,  // measure 49
0001
0000
1000
0000
,  // measure 50
0010
0010
1000
0000
,  // measure 51
0010
1000
0000
0000
,  // measure 52
0001
0000
1000
0000
,  // measure 53
0100
0100
0100
0000
,  // measure 54
0010
0000
0000
0010
0000
0000
0010
0000
,  // measure 55
0000
0001
0001
0000
,  // measure 56
1000
0000
0010
0000
,  // measure 57
0100
0000
0001
1000
,  // measure 58
0001
0000
0000
0000
,  // measure 59
0000
0000
0000
0000
,  // measure 60
0000
0000
0000
0000
,  // measure 61
0000
0000
0000
0000
,  // measure 62
1000
0000
1000
0000
,  // measure 63
0001
0000
0001
0000
,  // measure 64
0010
0000
0010
0000
,  // measure 65
0100
0000
1001
0000
,  // measure 66
1000
0000
0010
0010
,  // measure 67
0010
0000
1000
0000
,  // measure 68
0001
0000
0010
0010
,  // measure 69
0010
0000
0100
0000
,  // measure 70
1000
0000
0001
0001
,  // measure 71
0001
0000
0100
0000
,  // measure 72
0001
0000
1000
1000
,  // measure 73
1000
0000
0000
1001
,  // measure 74
0001
0000
0100
0001
,  // measure 75
0100
0000
0010
0000
,  // measure 76
1000
0000
0010
1000
,  // measure 77
0010
0000
1000
0000
,  // measure 78
0001
0000
1000
0001
,  // measure 79
1000
0000
0100
0000
,  // measure 80
0010
0000
0001
1000
,  // measure 81
0001
0000
1001
0000
,  // measure 82
0000
0000
0000
0000
,  // measure 83
0000
0000
0100
0000
,  // measure 84
0000
0000
0000
0000
,  // measure 85
0000
0000
0010
0000
,  // measure 86
0000
0000
0000
0000
,  // measure 87
0000
0000
1000
0000
,  // measure 88
0001
0000
1000
0001
,  // measure 89
1000
0001
1000
0000
,  // measure 90
0100
0000
0010
0010
,  // measure 91
0010
0000
0001
0000
,  // measure 92
0100
0000
0010
0010
,  // measure 93
0010
0000
1000
0000
,  // measure 94
0001
0000
1000
1000
,  // measure 95
1000
0000
0100
0000
,  // measure 96
0010
0000
0001
1000
,  // measure 97
0001
0000
0000
0000
1001
0000
0000
0001
,  // measure 98
0000
0001
0000
1000
,  // measure 99
1000
0000
0010
0000
,  // measure 100
1000
0000
0100
0010
,  // measure 101
0100
0000
0010
0000
,  // measure 102
0000
0010
0000
0010
0000
0000
0000
0000
,  // measure 103
0001
0000
1000
0000
,  // measure 104
0010
0000
0100
0010
,  // measure 105
0100
0010
0100
0001
,  // measure 106
0000
1000
0000
0100
,  // measure 107
0000
0010
0010
0010
,  // measure 108
0000
0001
0000
1000
,  // measure 109
0000
0010
1000
0010
,  // measure 110
0000
0100
0000
0010
,  // measure 111
0100
0010
0000
1001
,  // measure 112
1001
1001
0000
0000
;
