#VERSION:0.83;
#TITLE:Oort Cloud;
#SUBTITLE:;
#ARTIST:vective underground;
#TITLETRANSLIT:;
#SUBTITLETRANSLIT:;
#ARTISTTRANSLIT:;
#GENRE:;
#ORIGIN:;
#CREDIT:;
#BANNER:Oort Cloud.png;
#BACKGROUND:Oort Cloud-bg.png;
#PREVIEWVID:;
#JACKET:Oort Cloud-jacket.png;
#CDIMAGE:;
#DISCIMAGE:;
#LYRICSPATH:;
#CDTITLE:;
#MUSIC:Oort Cloud.ogg;
#OFFSET:-0.061474;
#SAMPLESTART:65.060135;
#SAMPLELENGTH:22.541435;
#SELECTABLE:YES;
#DISPLAYBPM:181.000000;
#BPMS:0.000=181.000,
332.000=362.000,
396.000=724.000;
#STOPS:;
#DELAYS:;
#WARPS:;
#TIMESIGNATURES:0.000=4=4;
#TICKCOUNTS:0.000=4;
#COMBOS:0.000=1;
#SPEEDS:0.000=1.000=0.000=0;
#SCROLLS:0.000=1.000,
332.000=0.600,
349.000=0.700,
366.000=0.800,
387.000=0.900,
396.000=1.000;
#FAKES:;
#LABELS:0.000=Song Start;
#BGCHANGES:;
#KEYSOUNDS:;
#ATTACKS:
;

//---------------dance-single - ----------------
#NOTEDATA:;
#CHARTNAME:;
#STEPSTYPE:dance-single;
#DESCRIPTION:;
#CHARTSTYLE:;
#DIFFICULTY:Hard;
#METER:17;
#RADARVALUES:0.824114,1.235839,0.317478,0.054203,0.627212,745.000000,704.000000,41.000000,7.000000,0.000000,0.000000,0.000000,0.000000,0.000000,0.824114,1.235839,0.317478,0.054203,0.627212,745.000000,704.000000,41.000000,7.000000,0.000000,0.000000,0.000000,0.000000,0.000000;
#CREDIT:;
#DISPLAYBPM:181.000000;
#NOTES:
0000
0000
0000
0000
,
0000
0000
0000
0000
,
0000
0000
0000
0000
,
0000
0000
0000
0000
,
1000
0000
1000
0000
0001
0100
1000
0000
,
0100
0000
0100
0000
0001
0010
1000
0000
,
0010
0000
0010
0000
0100
1000
0001
0000
,
1000
0000
0010
0000
1000
0001
0000
1000
0000
0001
0000
0011
0000
0000
0001
0000
,
1000
0100
0010
1000
0001
0100
1000
0001
,
0100
0010
0001
1000
0100
0001
1000
0010
,
0100
0001
0010
1000
0001
0100
1000
0001
,
0100
1000
0100
0001
0010
1000
0010
0110
,
0001
0010
1000
0001
0100
1000
0100
0010
,
0001
0100
1000
0001
0010
1000
0010
0100
,
0001
0010
1000
0001
0100
1000
0010
0001
,
0010
0000
0100
0000
0010
0100
0001
0000
0010
0100
0001
0000
0200
0000
0000
0000
,
1300
0100
0101
0000
1000
0010
0011
0000
,
1000
0010
0011
0000
1000
0100
0110
0000
,
0001
0010
1010
0000
0001
0100
1100
0000
,
0001
0100
1100
0000
0001
0010
0110
1000
,
0001
0010
0011
0001
0100
0010
0110
0010
,
1000
0100
1100
1000
0001
0010
0110
0100
,
1000
0010
0011
0010
1000
0100
0101
0100
,
0010
0000
0010
0000
0100
0010
0000
0010
0000
0010
0000
0110
0000
0000
1001
0000
,
1000
0100
1000
0100
0010
0000
0000
0000
0001
0100
0001
0100
0010
0000
0000
0000
,
1000
0100
0010
0100
1000
0000
0000
0000
0001
0100
0010
0100
0001
0000
0000
0000
,
1000
0100
0010
0100
0001
0000
0000
0000
1000
0010
0100
0010
0001
0000
0000
0000
,
1000
0010
0100
0010
0001
0000
0000
0000
1000
0100
0010
0100
0001
0000
0000
0000
,
1000
0100
0001
0100
1000
0000
1000
0000
0001
0100
1000
0100
0001
0000
0001
0000
,
1000
0010
0001
0010
1000
0000
1000
0000
0001
0010
1000
0010
0001
0000
0001
0000
,
1000
0100
0010
0001
0100
0010
1000
0100
0010
0001
0100
0010
1000
0100
0010
0001
,
1000
0010
1000
0010
1000
0010
1000
0010
0100
0001
0000
1001
0000
0000
0110
0100
,
1000
0000
0000
0000
,
0000
0000
0000
0000
,
0100
0101
0000
0000
0000
0000
0000
0000
,
0000
0000
0010
0000
,
0001
1000
1100
0000
0000
0000
0000
0000
,
0000
0000
0000
0000
,
0000
0000
0010
0110
0000
0000
0000
0000
,
0000
0001
0000
0000
,
1000
0000
0000
0000
0000
0000
0001
1000
0001
0000
0010
0000
0000
0100
0000
0000
,
1000
0000
0000
0010
0000
0000
0100
0000
0000
0001
0000
0000
0010
0000
0000
0100
,
0000
0000
1000
0001
1000
0000
0010
0000
0100
0001
0100
0000
0100
0000
0000
0010
,
0000
0000
1000
0000
0000
0100
0000
0000
0010
0000
0000
0001
0000
0000
0100
0000
,
0000
0010
0000
0000
1000
0100
1000
0000
0010
0000
0100
0000
0001
1000
0001
0000
,
0001
0100
0000
0100
0010
0000
0010
1000
0000
1000
0100
0000
0100
0010
0000
0010
,
0001
0000
0001
0100
0000
0100
0010
0000
1000
0000
0010
0100
0010
0100
0010
0000
,
1000
0100
0010
0000
0001
0000
1000
0010
0100
0000
0001
0000
0010
0100
1000
0000
,
0001
0100
0001
0100
0001
0000
1000
0001
1000
0000
0000
0110
0000
0000
0100
0000
,
1001
0000
0000
0000
1000
0100
1000
0000
0010
0000
0100
0001
0100
0000
1000
0000
,
0100
0001
1000
0000
0100
0000
0010
0100
1000
0000
0001
0000
0010
0000
1000
0000
,
0001
0000
0100
0000
1000
0000
0010
0100
0010
0000
0001
0000
0010
0100
0010
0000
,
1000
0000
0100
0010
0100
0000
0001
0000
0100
0010
0001
0000
1000
0000
1000
0000
,
0010
0000
0100
0001
1000
0000
0100
0010
0000
0001
1000
0000
0010
0100
0000
0001
,
1000
0000
0100
0010
0000
1000
0001
0000
0100
0010
0000
0001
1000
0000
0010
0000
,
0001
0000
0001
0000
1000
0000
0100
0000
0011
0000
0000
0100
0000
0000
1010
0000
,
0000
0001
0000
0000
1100
0000
0000
0010
0000
0000
0101
0000
0000
1000
0000
0000
,
0001
0000
0100
0000
1000
0100
0001
0000
0001
0000
0010
0000
0001
0100
0001
0000
,
1000
0000
0010
0000
1000
0100
2000
0000
0010
0000
3001
0000
1000
0000
0100
0000
,
0000
0000
0100
0000
0001
0000
1000
0000
0001
0000
0100
0000
0000
0000
0100
1000
,
0000
0000
1000
0000
1000
0010
0000
0000
0010
0000
0020
0001
0000
0000
0100
0000
,
1030
0000
0001
0000
0010
0000
0010
0000
0100
0000
0100
1000
0001
0000
0100
0000
,
0000
1000
0000
0000
0100
0000
0000
0001
0100
0000
0010
0000
0000
0001
0000
0000
,
0010
0000
0000
1000
0000
0000
0001
0000
0010
0000
1000
0000
0001
0000
0100
0000
,
1000
0000
0100
1000
0100
0000
0001
0000
0100
0001
0100
0000
1000
0000
0100
2000
,
0100
0000
3100
0000
0001
0000
2000
0000
0002
0000
0000
0000
3003
0001
1000
0000
,
0000
0000
0000
0000
0000
0000
0000
0100
,
0000
0100
0000
0100
0000
0100
0000
0000
,
0000
0000
1000
0100
0010
0000
0100
1000
0001
0000
0010
0000
0001
0100
0010
0000
,
0110
0000
0000
0000
1000
0000
0001
0000
1000
0010
0100
0010
0100
0000
0100
0000
,
0101
0000
0100
0001
1000
0000
1000
0100
0001
0000
1000
0000
0001
0100
1000
0000
,
0001
0000
1000
0010
0001
0000
1000
0000
0001
0010
1000
0000
0001
0000
0100
0000
,
0010
0000
0010
0000
1000
0000
0001
0000
1000
0010
1000
0010
0100
0000
0001
0010
,
0001
0010
0100
0000
1000
0100
0001
0100
1000
0000
0001
0010
1000
0010
0001
0000
,
0100
0000
0010
0000
0001
0010
1000
0000
0100
0000
0100
1000
0000
1000
0001
0000
,
0001
0100
0000
0100
0001
0000
0001
0010
0000
0010
0100
0000
0100
1000
0000
1000
,
0001
0000
0100
0000
1000
0000
0001
0000
1000
0000
0100
0000
0010
1000
0000
0100
,
0010
0000
0001
0100
0000
0010
1000
0000
0001
0010
0000
0100
1000
0000
0001
1000
,
0001
0000
0010
0000
1000
0010
0001
0000
1000
0001
1000
0001
1000
0000
0010
0000
,
0001
1000
0000
0100
0000
0001
1000
0000
0010
0000
0001
1000
0000
0100
0000
0001
,
1000
0001
0100
1000
0001
0010
1000
0001
,
1010
0000
0000
0110
0000
0000
0011
0000
0000
1001
0000
0000
0110
0000
0000
1100
,
0000
0000
0101
0000
0000
1001
0000
0000
0100
0000
0010
0000
1001
0000
0000
0000
,
1000
0001
0100
0001
,
1000
0100
1000
0001
,
0100
0001
1000
0100
,
1000
0001
0100
1000
,
0100
0001
1000
0010
,
1000
0001
0010
0001
,
1000
0010
1000
0001
,
0010
0000
0001
0000
1000
0000
0000
0110
,
0000
0001
1000
0001
,
1000
0001
1000
0000
0001
1000
0001
0000
,
1000
0001
1000
0001
1000
0000
0001
0000
,
1000
0001
1000
0000
0001
0000
1000
0001
,
1000
0000
0001
0010
0000
0100
1000
0100
,
0010
0100
0010
0100
0010
0100
0010
0100
,
0010
0100
0010
0100
0010
0100
0010
0100
,
0010
0100
0010
0100
0010
0100
1000
0100
,
2000
0000
0000
3000
;

//---------------dance-single - ----------------
#NOTEDATA:;
#CHARTNAME:;
#STEPSTYPE:dance-single;
#DESCRIPTION:;
#CHARTSTYLE:;
#DIFFICULTY:Medium;
#METER:14;
#RADARVALUES:0.643805,0.829313,0.240044,0.100664,0.240044,582.000000,551.000000,31.000000,13.000000,0.000000,0.000000,0.000000,0.000000,0.000000,0.643805,0.829313,0.240044,0.100664,0.240044,582.000000,551.000000,31.000000,13.000000,0.000000,0.000000,0.000000,0.000000,0.000000;
#CREDIT:;
#DISPLAYBPM:181.000000;
#NOTES:
0000
0000
0000
0000
,
0000
0000
0000
0000
,
0000
0000
0000
0000
,
0000
0000
0000
0000
,
1000
0000
1000
0000
0010
0010
0100
0000
,
0001
0000
0001
0000
0010
0010
0100
0000
,
1000
0000
1000
0000
0001
0001
0100
0000
,
0010
0000
1000
0000
0010
1000
0000
0010
0000
1000
0000
1001
0000
0000
0001
0000
,
0100
0010
1000
0000
0100
0010
0001
0000
,
0100
0001
0010
0000
0100
1000
0010
0000
,
0001
0010
1000
0000
0001
0010
1000
0000
,
0001
0100
1000
0000
0001
0100
1000
0100
,
0010
1000
0010
0001
0010
1000
0100
1000
,
0010
1000
0100
0001
0100
1000
0100
0010
,
0001
0100
1000
0100
0001
0010
1000
0010
,
0001
0000
0001
0000
1000
0001
1000
0000
0001
1000
0001
0000
0200
0000
0000
0000
,
0310
0000
1010
1000
0100
0000
0011
0001
,
0100
0000
1001
0001
0010
0000
0110
0100
,
1000
0000
0101
0100
1000
0000
1100
0100
,
0001
0000
0011
0010
1000
0000
1010
0001
,
1000
0000
0011
0010
0100
0000
1010
0010
,
0100
0000
0011
0001
0100
0000
1010
1000
,
0100
0000
1001
0000
0010
0100
1001
0000
,
0001
0000
0100
0000
0001
0100
0000
0010
0000
0100
0000
0110
0000
0000
0001
0000
,
0001
0100
1000
0000
0100
1000
0010
0000
,
1000
0010
0001
0000
0010
0001
0100
0000
,
0010
1000
0100
0000
1000
0100
0001
0000
,
0100
0001
0010
0000
0001
0010
1000
0001
,
0100
0010
1000
0100
0010
0001
0100
0010
,
1000
0100
0010
0001
0100
1000
0100
0001
,
1000
0010
0001
0010
1000
0100
0001
1000
,
0010
0000
0010
0000
0010
0000
0010
0000
0010
0100
0000
0100
0000
0000
0100
0000
,
1001
0000
0000
0000
,
0000
0000
0000
0000
,
0100
1001
0000
0000
0000
0000
0000
0000
,
0000
0000
0010
0000
,
0010
0100
1001
0000
0000
0000
0000
0000
,
0000
0000
0000
0000
,
0000
0000
0010
1001
0000
0000
0000
0000
,
0000
1000
0000
0000
,
0001
0000
0000
0000
0000
0000
1000
0001
1000
0000
0010
0000
0000
1000
0000
0000
,
0010
0000
0000
1000
0000
0000
0001
0000
0000
1000
0000
0000
0001
0000
0000
0010
,
0000
0000
1000
0000
0010
0000
0001
0000
1000
0000
0001
0000
0010
0000
0000
0001
,
0000
0000
0010
0000
0000
0001
0000
0000
1000
0000
0000
0001
0000
0000
1000
0000
,
0000
0010
0000
0000
0001
0000
0010
0000
1000
0000
0001
0000
0010
0000
0100
0000
,
0000
1000
0000
0000
0100
0000
0000
0010
0000
0000
0100
0000
0000
0001
0000
0000
,
0100
0000
0000
0010
0000
0000
0100
0000
1000
0000
0001
0000
0100
0000
0001
0000
,
0010
0100
1000
0010
0100
0001
0010
0100
,
1000
0001
0100
0010
0001
0010
1000
0001
,
1001
0000
0000
0000
1000
0100
0000
0000
0010
0000
0100
1000
0000
0000
0001
0000
,
0000
0100
0001
0000
1000
0000
0001
0100
0000
0000
0001
0000
0010
0000
1000
0000
,
0010
0000
0100
0000
1000
0000
0001
0100
0000
0000
0010
0000
0100
0001
0000
0000
,
1000
0000
0001
0010
0000
0000
0100
0000
1000
0010
0000
0000
0100
0000
0001
0000
,
0001
0000
1000
0000
0100
0000
0010
0000
0100
1000
0000
0000
0010
0000
0100
0001
,
0000
0000
0010
0000
0100
0010
0000
0000
0001
0000
0100
0010
0000
0000
1000
0000
,
0010
0100
0010
0000
0100
0000
0001
0000
1000
0000
0000
0010
0000
0000
0001
0000
,
0000
0010
0000
0000
1000
0000
0000
0100
0000
0000
0001
0000
0000
1000
0000
0000
,
0010
0000
0100
0000
1000
0001
0100
0000
0100
0000
0010
0000
1000
0000
0010
0000
,
0100
0010
1000
0010
0200
0010
0301
1000
,
0001
0010
0001
1000
0100
0010
0001
0100
,
0010
0100
0001
0010
0200
0010
1300
0001
,
0100
0010
0100
1000
0100
0001
1000
0010
,
1000
0010
1000
0001
0010
1000
0020
0100
,
0031
1000
0100
0001
1000
0001
0100
1000
,
0100
0010
0001
0100
0010
1000
0100
0001
,
1000
0010
0001
0100
1000
0001
0010
1000
,
0002
0000
0000
0203
0000
0000
0000
0010
,
0000
0010
0000
0010
0000
0010
0000
0010
,
0310
0000
1000
0000
0001
0010
0001
0000
0000
0000
1000
0000
0100
0000
1000
0000
,
1000
0000
0000
0000
0001
0100
0001
0000
0000
0000
0010
0000
0110
0000
0000
0000
,
0110
0000
0100
0000
1001
0000
0000
0000
1000
0010
0000
0000
0100
0000
0100
0001
,
0000
0000
1000
0000
0000
0000
0100
0000
0010
0100
0010
0000
0000
0000
0100
0000
,
0010
0000
0010
0000
0001
0000
1000
0000
0010
0000
0000
0100
0000
0100
0001
0000
,
0000
1000
0000
1000
0100
0000
0000
0010
0000
0010
0001
0000
0000
1000
0000
1000
,
0010
0001
0010
0100
0001
0000
0100
0001
,
1000
0000
0001
0000
0100
0001
1000
0000
0000
0000
1000
0000
0100
0000
0001
0000
,
0100
0001
0100
1000
0001
0001
0000
0110
,
1000
0001
0000
0110
0100
0000
1001
0000
,
1000
0100
1000
0000
0001
0010
0001
0000
0100
0000
0010
0100
0010
0000
0000
0000
,
1010
0000
1000
0100
1000
0000
0000
0000
0001
0000
1001
0000
0000
0000
0100
0010
,
0100
0000
0000
1001
0001
1000
0010
0210
,
0020
0000
0000
0030
0000
0000
2000
0000
0000
3000
0000
0000
0002
0000
0000
0003
,
0000
0000
0020
0000
0000
0030
0000
0000
0000
0000
0301
0000
0010
0000
0100
0000
,
1000
0100
1000
0100
,
1000
0001
1000
0001
,
0100
0001
0100
0001
,
1000
0001
1000
0001
,
1000
0001
0100
0001
,
0100
0001
1000
0001
,
1000
0100
1000
0100
,
1000
0001
1000
0001
,
1000
0001
0100
0010
,
0100
0010
0100
0010
,
0100
0010
0100
0010
,
0100
0010
0100
0010
,
0100
0010
0100
0200
,
0000
0000
0000
0000
,
0000
0000
0000
0000
,
0000
0000
0000
0000
,
0020
0000
0000
0000
,
0000
0000
0000
0000
,
0000
0000
0000
0000
,
0330
0000
0000
0000
;

//---------------dance-single - ----------------
#NOTEDATA:;
#CHARTNAME:;
#STEPSTYPE:dance-single;
#DESCRIPTION:;
#CHARTSTYLE:;
#DIFFICULTY:Easy;
#METER:12;
#RADARVALUES:0.571902,0.689933,0.232301,0.092920,0.158739,517.000000,487.000000,30.000000,12.000000,0.000000,0.000000,0.000000,0.000000,0.000000,0.571902,0.689933,0.232301,0.092920,0.158739,517.000000,487.000000,30.000000,12.000000,0.000000,0.000000,0.000000,0.000000,0.000000;
#CREDIT:;
#DISPLAYBPM:181.000000;
#NOTES:
// measure 0
0000
0000
0000
0000
,  // measure 1
0000
0000
0000
0000
,  // measure 2
0000
0000
0000
0000
,  // measure 3
0000
0000
0000
0000
,  // measure 4
0001
0001
0100
0010
,  // measure 5
1000
1000
0100
0010
,  // measure 6
0001
0001
0100
0010
,  // measure 7
0100
0000
0001
0000
0100
0000
0000
0000
0100
0000
0000
1001
0000
0000
1000
0000
,  // measure 8
0010
0100
0001
0000
0010
0100
1000
0000
,  // measure 9
0010
1000
0001
0000
0010
0001
1000
0000
,  // measure 10
0010
0100
0001
0000
0010
0100
1000
0000
,  // measure 11
1000
0100
0001
0000
0001
0100
1000
0000
,  // measure 12
1000
0010
0100
1000
0100
0010
1000
0000
,  // measure 13
0001
0010
0100
0001
0100
0010
0001
0000
,  // measure 14
1000
0010
0001
0000
0001
0010
1000
0000
,  // measure 15
1000
1000
0001
0001
1000
1000
0020
0000
,  // measure 16
0130
0101
0010
1100
,  // measure 17
0010
1001
0100
0110
,  // measure 18
0001
1010
0001
0011
,  // measure 19
1000
1100
0001
0101
,  // measure 20
0001
1100
0010
0101
,  // measure 21
0010
1100
0010
0101
,  // measure 22
0010
1001
0100
1001
,  // measure 23
1000
0000
0010
0000
1000
0000
0000
0000
0001
0000
0000
0110
0000
0000
1000
0000
,  // measure 24
1000
0010
0001
0000
0010
1000
0100
0000
,  // measure 25
0001
0100
1000
0000
0100
1000
0010
0000
,  // measure 26
0100
0001
0010
0000
0001
0010
1000
0000
,  // measure 27
0010
0001
0100
0000
1000
0100
0001
1000
,  // measure 28
0010
0100
0001
0010
0100
1000
0010
0100
,  // measure 29
0001
0010
0100
1000
0010
0100
0001
1000
,  // measure 30
0001
0100
1000
0100
0001
0100
1000
0100
,  // measure 31
0001
0000
0001
0000
0001
0000
0001
0000
1000
0000
0000
0110
0000
0000
0010
0000
,  // measure 32
1001
0000
0000
0000
,  // measure 33
0000
0000
0000
0000
,  // measure 34
0010
0110
0000
0000
0000
0000
0000
0000
,  // measure 35
0000
0000
0001
0000
,  // measure 36
0001
1000
1001
0000
0000
0000
0000
0000
,  // measure 37
0000
0000
0000
0000
,  // measure 38
0000
0000
0100
0110
0000
0000
0000
0000
,  // measure 39
0000
0001
0000
0000
,  // measure 40
1000
0000
0000
0000
0000
0000
0001
1000
0001
0000
0100
0000
0000
0001
0000
0000
,  // measure 41
0100
0000
0000
0001
0000
0000
1000
0000
0000
0001
0000
0000
1000
0000
0000
0100
,  // measure 42
0000
0000
0010
0000
0100
0000
1000
0000
0001
0000
1000
0000
0100
0000
0000
1000
,  // measure 43
0000
0000
0100
0000
0000
1000
0000
0000
0001
0000
0000
1000
0000
0000
0001
0000
,  // measure 44
0000
0100
0000
0000
0010
0000
0100
0000
0001
0000
1000
0000
0100
0000
0010
0000
,  // measure 45
0000
0001
0000
0000
0010
0000
0000
0100
0000
0000
0010
0000
0000
1000
0000
0000
,  // measure 46
0010
0000
0000
0100
0000
0000
0010
0000
0001
0000
1000
0000
0010
0000
1000
0000
,  // measure 47
0100
0010
0001
0100
0010
1000
0100
0010
,  // measure 48
0001
1000
0010
0100
0010
0100
0001
0000
,  // measure 49
1001
0000
1000
0000
0000
0010
0000
0000
0100
0000
0000
0001
0000
0000
1000
0000
,  // measure 50
0000
0010
0000
0000
0001
0000
0000
0010
0000
0000
1000
0000
0100
0000
0010
0000
,  // measure 51
0100
0000
0010
0000
0001
0000
0000
0010
0000
0000
0100
0000
0000
1000
0000
0000
,  // measure 52
0001
0000
0000
0100
0000
0000
0010
0000
0000
0100
0000
0000
0010
0000
1000
0000
,  // measure 53
1000
0000
0001
0000
0010
0000
0100
0000
0000
0001
0000
0000
0100
0000
0000
1000
,  // measure 54
0000
0000
0001
0000
0000
0100
0000
0000
1000
0000
0000
0100
0000
0000
0001
0000
,  // measure 55
0010
0000
0010
0000
0100
0000
1000
0000
0001
0000
0000
0100
0000
0000
1000
0000
,  // measure 56
0000
0100
0000
0000
0001
0000
0000
1000
0000
0000
0100
0000
0000
0010
0000
0000
,  // measure 57
0100
0000
0010
0000
0001
1000
0001
0000
0001
0000
0100
0000
0010
0000
0100
0000
,  // measure 58
0001
0100
0010
0100
0020
0100
0000
1030
,  // measure 59
0100
1000
0001
1000
0010
0100
0010
1000
,  // measure 60
0001
1000
0100
0010
0200
0010
0000
1300
,  // measure 61
0010
0100
0010
0001
0010
1000
0001
0100
,  // measure 62
0001
0100
0001
1000
0100
0001
0200
0010
,  // measure 63
0000
1300
0010
1000
0001
1000
0010
0100
,  // measure 64
0010
0100
0001
0010
0100
1000
0010
1000
,  // measure 65
0001
0100
0010
0100
0010
1000
0100
0010
,  // measure 66
0002
0000
0000
0023
0000
0000
0000
0100
,  // measure 67
0000
0100
0000
0100
0000
0100
0000
0100
,  // measure 68
0130
1000
0000
0100
1000
0001
0010
0001
,  // measure 69
0001
0000
1000
1000
0000
0100
0110
0000
,  // measure 70
0100
0000
0010
0000
0001
0000
0000
0000
0000
0100
0000
0000
0010
0000
0000
1000
,  // measure 71
0000
0000
0001
0000
0000
0000
0010
0000
0000
0100
0000
0000
0010
0000
0100
0000
,  // measure 72
0010
0000
0100
0000
1000
0000
0001
0000
0100
0000
0000
0010
0000
0000
1000
0000
,  // measure 73
0000
0001
0000
0000
0010
0000
0000
0100
0000
0000
1000
0000
0000
0001
0000
0000
,  // measure 74
0100
0010
0100
0001
1000
0000
0010
1000
,  // measure 75
0001
0000
1000
0000
0010
1000
0001
0000
0000
0000
0001
0000
0010
0000
0100
0000
,  // measure 76
0010
0100
0010
0001
1000
1000
0000
0110
,  // measure 77
0000
1000
0000
0110
0010
0000
1001
0000
,  // measure 78
0001
0001
1000
1000
0010
0100
0100
0000
,  // measure 79
0101
0001
0001
0000
1000
1001
0000
0010
,  // measure 80
0010
0000
0000
1001
1000
0001
0100
0120
,  // measure 81
0200
0000
0000
0300
0000
0000
0002
0000
0000
0003
0000
0000
2000
0000
0000
3000
,  // measure 82
0000
0000
0200
0000
0000
0300
0000
0000
0000
0000
1030
0000
0100
0000
0010
0000
,  // measure 83
0001
0010
0001
0010
,  // measure 84
0001
1000
0001
1000
,  // measure 85
0010
1000
0010
1000
,  // measure 86
0001
1000
0001
1000
,  // measure 87
0001
1000
0010
1000
,  // measure 88
0010
1000
0001
1000
,  // measure 89
0001
0010
0001
0010
,  // measure 90
0001
1000
0001
1000
,  // measure 91
0001
1000
0001
0001
,  // measure 92
0001
0000
0001
0001
,  // measure 93
0001
0000
0001
0001
,  // measure 94
0001
0000
0001
0001
,  // measure 95
0001
0000
0001
2000
,  // measure 96
0000
0000
0000
0000
,  // measure 97
0000
0000
0000
0000
,  // measure 98
0000
0000
0000
0000
,  // measure 99
3000
0000
0000
0000
;
