#TITLE:I Don't Wanna Wait;
#SUBTITLE:;
#ARTIST:Clyde F.;
#TITLETRANSLIT:;
#SUBTITLETRANSLIT:;
#ARTISTTRANSLIT:;
#CREDIT:;
#BANNER:I Don't Wanna Wait.png;
#BACKGROUND:I Don't Wanna Wait-bg.png;
#LYRICSPATH:;
#CDTITLE:;
#MUSIC:I Don't Wanna Wait.ogg;
#OFFSET:0.000;
#SAMPLESTART:16.282;
#SAMPLELENGTH:12.000;
#SELECTABLE:YES;
#BPMS:0.000=118.000;
#STOPS:;
#BGCHANGES:;

//---------------dance-single - ----------------
#NOTES:
     dance-single:
     :
     Challenge:
     13:
     0.603,0.559,0.049,0.049,0.767: // measure 1
0000
0000
0000
0000
,  // measure 2
0000
0000
0000
0000
,  // measure 3
0000
0000
0000
0000
,  // measure 4
0000
0000
0000
0000
,  // measure 5
1000
0000
0001
0000
1000
0100
0000
1000
0001
0000
1000
0010
1000
0000
0000
1000
,  // measure 6
0100
0000
0010
0000
0100
0001
0000
0100
0010
0000
0100
1000
0000
0100
0010
0000
,  // measure 7
0001
0000
1000
0000
0001
1000
0000
0001
0100
0000
0001
1000
0001
0000
0000
0001
,  // measure 8
0010
0000
1000
0000
0010
0100
0000
0010
0001
0000
0010
0100
0000
1000
0001
0000
,  // measure 9
0100
0010
0100
0010
1000
0000
1000
0001
0000
0001
1000
0000
0100
0000
0010
0000
,  // measure 10
0001
0000
0000
0001
0000
0000
0001
0000
1000
0000
0010
0000
0100
0001
1000
0000
,  // measure 11
0100
0000
0010
0100
0010
0000
0001
1000
0000
1000
0001
0000
0100
0000
0010
0000
,  // measure 12
1000
0000
0000
0000
0000
0000
0000
0000
0000
0000
0000
0000
0000
0000
0000
0000
0000
0000
0000
0000
0000
0000
0000
0000
0001
0000
0000
0000
0000
0000
0000
0000
0000
0000
0000
0000
1000
0000
0000
0000
0000
0000
0000
0000
0000
0000
0000
0000
0001
0000
0000
0000
0000
0000
0000
0000
0000
0000
0000
0000
0000
0000
0000
0000
0000
0000
0000
0000
0000
0000
0000
0000
0001
0000
0000
0000
0000
0000
0000
0000
0000
0000
0000
0000
0000
0000
0000
0000
0000
0000
0000
0000
0000
0000
0000
0000
0010
0000
0000
0000
0000
0000
0000
0000
0100
0000
0000
0000
0000
0000
0000
0000
0010
0000
0000
0000
0000
0000
0000
0000
0200
0000
0000
0000
0000
0000
0000
0000
0000
0000
0000
0000
0000
0000
0000
0000
0000
0000
0000
0000
0000
0000
0000
0000
1000
0000
0000
0000
0000
0000
0000
0000
0000
0000
0000
0000
0000
0000
0000
0000
0000
0000
0000
0000
0000
0000
0000
0000
0000
0000
0000
0000
0000
0000
0000
0000
0000
0000
0000
0000
0000
0000
0000
0000
0000
0000
0300
0000
0000
0000
0000
0000
,  // measure 13
0010
0001
0010
0001
1000
0000
0001
1000
0010
0000
1000
0100
0000
0010
0100
0000
,  // measure 14
1000
0000
0000
1000
0000
0000
1000
0000
0001
0000
0100
0000
0010
1000
0001
0000
,  // measure 15
0010
0000
0001
0010
0001
0000
1000
0100
0000
0100
1000
0000
0001
0000
0100
0000
,  // measure 16
0010
0000
1000
0000
0100
0010
0000
0010
0001
0000
0001
0100
0000
0100
0010
0000
,  // measure 17
1000
0000
1000
0200
0000
0300
0000
0020
0000
1000
0000
0031
0000
0000
0000
0000
,  // measure 18
0100
0000
0000
0100
0000
0000
0010
0000
1000
0000
0001
0000
0010
0100
1000
0000
,  // measure 19
0001
0000
0001
0100
0001
0000
1000
0100
0000
0100
1000
0000
0001
0000
0010
0000
,  // measure 20
0100
0000
0000
0000
0000
0000
0100
0000
0000
1000
0000
0000
0100
0000
0000
0000
0000
0000
0100
0000
0000
0000
0000
0000
0010
0000
0001
0000
0010
0000
0001
0000
0000
0000
0000
0000
0100
0000
0000
0000
0000
0000
0010
0000
0000
0000
0000
0000
,  // measure 21
1010
0000
0000
0000
1001
0000
0000
0001
0100
0000
0010
0100
0000
1000
0100
0000
,  // measure 22
0010
0000
0000
0000
0010
0000
0000
0010
1000
0000
0100
0000
0010
0001
1000
0000
,  // measure 23
0010
0000
0000
0010
0100
0000
0000
0100
0010
0100
0000
0000
0100
0000
0001
0000
,  // measure 24
1000
0000
0000
0000
0000
0000
1000
0000
0000
0100
0000
0000
1000
0000
0000
0000
0000
0000
1000
0000
0000
0000
0000
0000
0010
0000
1000
0000
0010
0000
1000
0000
0000
0000
0000
0000
0001
0000
0000
0000
0000
0000
1000
0000
0000
0000
0000
0000
,  // measure 25
0100
0000
0010
0000
0001
1000
0000
0001
0010
0000
0100
0010
0000
0001
0010
0000
,  // measure 26
0100
0000
1000
0000
0010
0100
0000
0001
1000
0000
0001
0100
0000
0001
1000
0000
,  // measure 27
0010
0000
0100
0000
0010
0100
0000
0001
0010
0000
0100
0010
0000
0001
0010
0000
,  // measure 28
0100
0000
0010
0000
0001
1000
0000
0010
0100
0000
0010
0001
0000
0010
0100
0000
,  // measure 29
0001
0000
0000
0100
0000
0000
1000
0000
0000
0100
0000
0000
0010
0000
0000
0000
1000
0000
0000
0000
0100
0000
0000
0001
,  // measure 30
0000
0000
0100
0000
0000
0000
0000
1000
0000
0000
0001
0000
0000
0000
0200
0000
0000
0000
0000
0000
0000
0310
0000
0000
,  // measure 31
1000
0000
0000
0000
1000
0000
0000
0100
0000
0000
0010
0000
0100
0010
0000
0001
,  // measure 32
1000
0000
1000
0001
0000
0001
0100
0000
0010
0000
0000
0010
0000
0000
0010
0000
,  // measure 33
1000
0100
0010
0100
1000
0000
0001
0100
0000
0100
0001
0000
1000
0000
0100
0000
,  // measure 34
0010
0000
0000
0000
0001
0100
0000
0100
0010
0000
1000
0000
0100
0010
0100
0000
,  // measure 35
1000
0010
0100
0010
1000
0000
0001
0000
0010
0000
0100
0010
0000
0100
0010
0000
,  // measure 36
0001
0000
0100
0000
0010
0000
1000
0000
1001
0000
1000
0001
0000
0001
0010
0000
,  // measure 37
0100
1000
0010
1000
0100
0000
0000
0000
0110
0000
0010
0001
0000
1000
0010
0000
,  // measure 38
0100
0000
0001
0000
1000
0100
0000
0100
0010
0000
0001
0000
1000
0010
0100
0000
,  // measure 39
0001
0010
0100
0010
0001
0000
1000
0010
1000
0000
0010
1000
0000
0010
1000
0000
,  // measure 40
0001
0000
0012
0000
0000
0000
0013
0100
0001
0000
0001
0100
0000
0100
1000
0000
,  // measure 41
0010
0100
1000
0100
0010
0000
1000
0001
0000
0001
0010
0000
0100
0000
1000
0000
,  // measure 42
0010
0000
0010
0100
0000
0100
0001
0000
0001
1000
0000
1000
0100
0000
0001
0000
,  // measure 43
0100
0000
0100
1000
0000
1000
0001
0000
0001
0100
0000
0100
0010
0000
1000
0000
,  // measure 44
0001
0000
0000
0000
0000
0000
0001
0000
0000
0010
0000
0000
0000
0000
0000
0010
0000
0000
0100
0000
0000
0000
0000
0000
0100
0000
0000
1000
0000
0000
0000
0000
0000
1000
0000
0000
0001
0000
0100
0000
0001
0000
0100
0000
0000
0000
0000
0000
,  // measure 45
0010
0100
1000
0100
0010
0000
0010
1000
0000
1000
0100
0000
0001
0000
0100
0000
,  // measure 46
1000
0000
1000
0010
0000
0010
0100
0000
0100
0001
0000
0001
0010
0000
0100
0000
,  // measure 47
1000
0000
0100
0010
0000
0010
1000
0000
1000
0010
0000
0010
0001
0000
1000
0000
,  // measure 48
0010
0000
0000
0000
0000
0000
0010
0000
0000
0100
0000
0000
0000
0000
0000
0100
0000
0000
1000
0000
0000
0000
0000
0000
1000
0000
0000
0100
0000
0000
0000
0000
0000
0100
0000
0000
0010
0000
1000
0000
0001
0000
1000
0000
0000
0000
0000
0000
,  // measure 49
0010
0000
0000
0000
;

//---------------dance-single - ----------------
#NOTES:
     dance-single:
     :
     Hard:
     12:
     0.504,0.536,0.175,0.029,0.432: // measure 1
0000
0000
0000
0000
,  // measure 2
0000
0000
0000
0000
,  // measure 3
0000
0000
0000
0000
,  // measure 4
0000
0000
0000
0000
,  // measure 5
1000
0000
0000
0000
0100
0000
0000
0001
0100
0000
0100
0010
0100
0000
0000
0000
,  // measure 6
1000
0000
0000
0000
0010
0000
0000
0001
0010
0000
0010
0000
0000
0010
0000
0000
,  // measure 7
1000
0000
0000
0000
0100
0000
0000
0001
0100
0000
0100
0010
0100
0000
0000
1000
,  // measure 8
0010
0000
0100
0000
0000
0100
0000
0000
0001
0000
1000
0000
1000
0000
0100
0000
,  // measure 9
0010
0100
0010
0100
1000
0000
0000
0000
0010
0000
0100
0000
0001
0000
1000
0000
,  // measure 10
0001
0000
0000
0001
0000
0000
0010
0000
0100
0000
0000
0100
0000
0000
1000
0000
,  // measure 11
0001
0000
1000
0010
1000
0000
0001
0010
0000
0010
0001
0000
1000
0000
0010
0000
,  // measure 12
0100
0000
0100
0001
1000
0100
1001
0000
,  // measure 13
0001
1000
0001
1000
0100
0000
0000
0000
0010
0000
0001
0100
0000
0010
0100
0000
,  // measure 14
0001
0000
0000
0001
0000
0000
0000
0000
1000
0000
0100
0000
0010
0001
1000
0000
,  // measure 15
0010
0000
0000
0010
0000
0000
0000
0000
0100
0000
0001
0000
1000
0000
0100
0000
,  // measure 16
0010
0001
1000
1000
0010
0100
1001
0000
,  // measure 17
1000
0000
0100
0000
0001
0001
0100
0000
,  // measure 18
1000
0000
0000
1000
0000
0000
0001
0000
0100
0000
0000
0100
0000
0000
0010
0000
,  // measure 19
1000
0100
0010
0000
0010
0100
1000
0000
,  // measure 20
0001
0001
0100
0010
1000
0100
1001
0000
,  // measure 21
0011
0000
0000
0000
1001
0000
0000
0000
1000
0000
0010
0100
0000
0001
1000
0000
,  // measure 22
1100
0000
0000
0000
0110
0000
0000
0001
0000
0000
0001
0000
0000
1000
0000
0000
,  // measure 23
1010
0000
0000
0000
1001
0000
0000
0001
0000
0001
0000
0000
0011
0000
0000
0000
,  // measure 24
0010
0100
1000
1000
0001
0100
1001
0000
,  // measure 25
1000
0000
0010
0000
0100
0000
0010
1000
0000
0010
1000
0000
0001
0000
0000
0000
,  // measure 26
0001
0000
0010
0000
0100
0000
1001
0000
1001
0000
0000
1000
0000
0000
0100
0000
,  // measure 27
0010
0000
0001
0000
1000
0000
0010
0100
0000
0010
0100
0000
0001
0000
0000
0000
,  // measure 28
1000
0000
0100
0000
0010
0000
0001
1000
0000
0001
1000
0000
0010
0000
0000
0000
,  // measure 29
1000
0010
1000
0100
0001
0100
1000
0010
,  // measure 30
0100
0000
0001
0000
0010
0000
0100
0000
1000
0000
0000
1000
0000
0000
0100
0000
,  // measure 31
0010
0000
0000
0000
0010
0000
0001
0100
0000
1000
0100
0000
0010
0000
1000
0000
,  // measure 32
0001
0000
0000
0001
0000
0000
0010
0000
0000
0100
0000
0000
1000
0000
0000
0000
,  // measure 33
0001
0100
0001
1000
0001
0000
0000
0000
0100
0000
0010
0000
1000
0000
0100
0000
,  // measure 34
0010
0000
0000
0000
0010
0001
0000
0001
2000
0000
3000
0000
0010
0000
0100
0000
,  // measure 35
0001
0010
0001
1000
0001
0000
0000
0000
0100
0000
0000
0100
0000
0000
0100
0000
,  // measure 36
0010
0000
0000
0000
0010
0000
0100
0000
1001
0000
1000
0000
0000
0100
0000
0000
,  // measure 37
1000
0100
0010
0100
1000
0000
0000
0000
1001
0000
0001
0100
0000
0010
0100
0000
,  // measure 38
0001
0000
0000
0000
1000
0100
0000
0100
0020
0000
0030
0000
0001
0000
0100
0000
,  // measure 39
0010
0100
1000
0100
0010
0000
0000
0000
1000
0000
0000
0110
0000
0000
1001
0000
,  // measure 40
0010
0000
0002
0000
0000
0000
1003
0010
1000
0000
0000
0100
0000
0000
0010
0000
,  // measure 41
0010
0001
1000
0001
0010
0000
0100
1000
0000
0001
0100
0000
0010
0000
0100
0000
,  // measure 42
0001
0000
0001
0000
0001
0000
0010
0100
0000
0010
0100
0000
1000
0100
0010
0000
,  // measure 43
0001
0000
0001
0000
0001
0000
0100
0010
0000
1000
0100
0000
0010
0000
0001
0000
,  // measure 44
0100
0000
0000
0000
0000
0000
0100
0000
0000
0000
0000
0000
0100
0000
0000
0000
0000
0000
0010
0000
0000
1000
0000
0000
0000
0000
0000
0010
0000
0000
1000
0000
0000
0000
0000
0000
1000
0000
0001
0000
1000
0000
0001
0000
0000
0000
0000
0000
,  // measure 45
0010
0100
0001
0100
0010
0000
0000
0000
0110
0000
0001
1000
0000
0010
0100
0000
,  // measure 46
0001
0000
0001
0000
0001
0000
1000
0010
0000
1000
0010
0000
0100
0001
1000
0000
,  // measure 47
0100
0000
0100
0000
0100
0000
0010
0001
0000
1000
0010
0000
0100
0000
0001
0000
,  // measure 48
1000
0000
0000
0100
0000
0000
0010
0000
0000
0100
0000
0000
1000
0000
0000
0000
0000
0000
0001
0000
0000
1000
0000
0000
0000
0000
0000
0010
0000
0000
0100
0000
0000
0000
0000
0000
0001
0000
1000
0000
0001
0000
1000
0000
0000
0000
0000
0000
,  // measure 49
0010
0000
0000
0000
;

//---------------dance-single - ----------------
#NOTES:
     dance-single:
     :
     Medium:
     10:
     0.372,0.398,0.097,0.058,0.194:
0000
0000
0000
0000
,
0000
0000
0000
0000
,
0000
0000
0000
0000
,
0000
0000
0000
0000
,
1000
0100
0001
0100
,
1000
0000
0000
0000
0100
0000
0000
0000
0010
0000
0000
0010
0000
0000
0010
0000
,
0001
0100
1000
0100
,
0001
0000
0000
0000
0100
0000
0000
0000
0010
0000
0000
0010
0000
0000
1000
0000
,
0001
0000
0001
0000
0010
0000
0000
0000
0100
0000
0000
0100
0000
0000
0100
0000
,
1000
0000
0000
1000
0000
0000
1000
0000
0010
0000
0000
0010
0000
0000
0100
0000
,
0001
0010
0001
0000
1000
0010
0100
0001
,
1000
1000
1000
0100
0010
0100
1000
0000
,
1000
0000
1000
0000
0010
0000
0000
0000
0100
0000
0000
0100
0000
0000
0100
0000
,
0001
0000
0000
0001
0000
0000
0001
0000
0010
0000
0000
0010
0000
0000
0100
0000
,
1000
0010
1000
0000
0001
0010
0100
1000
,
0010
0010
0010
1000
0001
0010
0100
0000
,
1000
0000
0010
0000
0001
0010
1000
0000
,
0001
0000
0001
0000
0010
0001
0100
0001
,
1000
0000
0000
1000
0000
0000
0000
0000
0100
0000
0000
0100
0000
0000
0100
0000
,
0000
0100
0000
0010
0001
0100
0010
0000
,
1010
0000
1001
0000
0001
0010
0110
0000
,
1100
0000
1001
0000
0001
0100
0010
1000
,
0100
0000
0000
0100
0000
0000
0000
0000
0010
0000
0000
0010
0000
0000
0001
0000
,
0100
0000
0100
1000
1000
0100
0001
0000
,
1000
0000
1100
0000
0010
0010
0001
0000
,
0100
0000
0010
0000
1000
1000
0100
0100
,
0000
0020
0000
0001
0100
0100
1030
0000
,
0010
0000
0000
0010
0000
0000
0001
0000
0000
0001
0000
0000
0001
0000
0000
0000
,
1000
0000
0010
0000
0100
0000
0001
0000
1000
0000
0000
1000
0000
0000
1000
0000
,
0000
0000
0001
0000
0000
0010
0000
0000
0100
0000
0000
0100
0000
0000
1000
0000
,
0010
0000
0000
0000
0010
0000
0000
1000
0000
0000
1000
0000
0000
0100
0000
0000
,
0110
0000
0000
0010
0000
0000
0101
0000
0000
1000
0000
0000
1010
0000
0000
0000
,
1000
0100
0010
0000
0001
0100
0010
0100
,
0001
0000
0000
0000
0001
1000
0000
0200
0000
0000
0300
0000
0000
0000
0000
0000
,
0010
0100
1000
0000
0010
1000
0001
1000
,
0010
0000
0010
0100
0101
0000
0000
0000
,
0001
0010
0100
0000
1000
0100
0010
0100
,
1000
0000
0000
0000
0010
0100
0000
0002
0000
0003
0000
0000
0000
0000
0000
0000
,
1000
0100
0010
0000
0001
0100
1000
0100
,
0001
2000
0000
0100
3010
0000
0000
0000
,
1000
0000
0100
0000
0010
0000
0001
0000
0000
1000
0000
0000
0010
0000
0100
0000
,
0001
0000
0000
0010
0000
0000
0100
0000
0000
1000
0000
0000
0010
0000
0100
0000
,
1000
0000
0000
0100
0000
0000
0010
0000
0000
1000
0000
0000
0001
0000
0010
0000
,
0100
0000
0000
0001
0000
0000
1000
0000
0000
0010
0000
0000
0100
0000
1000
0000
,
0010
0000
0100
0000
1000
0000
0001
0000
0000
0010
0000
0000
0100
0000
0001
0000
,
1000
0000
0000
0100
0000
0000
0010
0000
0000
1000
0000
0000
0001
0000
0100
0000
,
0010
0000
0000
0001
0000
0000
1000
0000
0000
0010
0000
0000
0100
0000
1000
0000
,
0001
0000
0000
0000
0010
1000
0000
2000
0000
0000
0000
3001
0010
0000
0100
0000
,
2000
3000
0000
0000
;

//---------------dance-single - ----------------
#NOTES:
     dance-single:
     :
     Beginner:
     3:
     0.101,0.186,0.049,0.000,0.000:
0000
0000
0000
0000
,
0000
0000
0000
0000
,
0000
0000
0000
0000
,
0000
0000
0000
0000
,
0000
0000
0000
0000
,
0000
0000
0000
0000
,
0000
0000
0000
0000
,
0000
0000
0000
0000
,
1000
1000
0000
0000
,
0000
0000
0000
0000
,
0000
0000
0000
0000
,
0000
0000
0000
0000
,
1000
1000
0000
0000
,
0000
0000
0000
0000
,
0000
0000
0000
0000
,
0000
0000
0000
0000
,
0001
0000
0001
0000
,
0000
0000
0000
0000
,
0100
0000
0000
0000
,
0010
0000
0010
0000
,
1001
0000
1000
0000
,
0100
0000
0010
0000
,
0001
0000
0001
0000
,
0100
0000
0100
0000
,
0010
0000
1000
0000
,
1000
0000
0100
0000
,
0010
0000
0001
0000
,
0001
0000
0100
0100
,
0100
0000
0010
0000
,
1000
0000
0100
0000
,
0010
0000
0001
0000
,
1000
1000
1000
1000
,
1001
0000
0000
0000
,
0000
0001
0001
0000
,
0100
0100
0000
0000
,
0000
0000
1001
0000
,
1000
1000
0000
0000
,
0000
0010
0010
0000
,
0100
0100
0000
0000
,
0000
0001
1001
0000
,
1000
0000
0100
0000
,
0001
0000
0100
0000
,
1000
0000
0100
0000
,
0001
0000
0100
0000
,
1000
0000
0010
0000
,
0001
0000
0010
0000
,
1000
0000
0010
0000
,
0001
0000
0010
1000
,
1001
0000
0000
0000
;

//---------------dance-single - ----------------
#NOTES:
     dance-single:
     :
     Easy:
     5:
     0.194,0.373,0.068,0.087,0.005:
0000
0000
0000
0000
,
0000
0000
0000
0000
,
0000
0000
0000
0000
,
0000
0000
0000
0000
,
0000
0000
0000
0000
,
0000
0000
0000
0000
,
0000
0000
0000
0000
,
0000
0000
0000
0000
,
1000
1000
0000
0000
,
0100
0000
0010
0000
,
0001
1000
0001
0000
,
0100
0000
0010
0100
,
0001
0001
0010
0000
,
0010
0000
0001
0000
,
1000
0010
1000
0000
,
0001
0000
0010
0100
,
1000
0000
1000
0000
,
0001
0000
0001
0000
,
0100
0000
0100
0000
,
0010
0000
0010
0010
,
1010
1000
2002
3003
,
0011
0001
2002
3003
,
1100
1000
2002
3003
,
0001
0000
0000
0100
0100
0000
0010
0000
,
1000
0000
1000
0100
,
0010
0000
0010
0100
,
0001
0000
0001
0100
,
0010
0000
0010
0001
,
1000
0010
0001
0010
,
1000
0100
0020
0000
,
0030
0000
0001
0100
,
0020
0000
0000
0030
0000
0000
0200
0000
0000
0300
0000
0000
0010
0000
0000
0000
,
1000
1000
0000
0100
,
0010
0001
0001
0000
,
0100
0100
0000
0000
,
0010
0000
1000
1000
0100
0000
0000
0000
,
0010
0010
0001
0100
,
0001
0010
0100
0000
,
1000
1000
0000
0000
,
0000
0010
0000
0010
0100
0000
0000
0000
,
0001
0010
0100
0010
,
0001
1000
0010
0100
,
0001
0010
0100
0010
,
0001
0100
0010
1000
,
0001
0010
1000
0010
,
0001
1000
0010
0100
,
0001
0010
1000
0010
,
0001
0000
0000
0000
1000
0000
0000
1000
0000
0000
0000
0000
0010
0000
0000
0000
,
1001
0000
0000
0000
;

//---------------dance-single - Copied from----------------
#NOTES:
     dance-single:
     Copied from:
     Edit:
     12:
     0.472,0.466,0.175,0.029,0.398: // measure 1
0000
0000
0000
0000
,  // measure 2
0000
0000
0000
0000
,  // measure 3
0000
0000
0000
0000
,  // measure 4
0000
0000
0000
0000
,  // measure 5
1000
0000
0000
0000
0100
0000
0000
0001
0100
0000
0100
0000
0100
0000
0000
0000
,  // measure 6
1000
0000
0000
0000
0010
0000
0000
0001
0010
0000
0010
0000
0000
0010
0000
0000
,  // measure 7
1000
0000
0000
0000
0100
0000
0000
0001
0100
0000
0100
0000
0100
0000
0000
1000
,  // measure 8
0010
0000
0100
0000
0000
0100
0000
0000
0001
0000
1000
0000
1000
0000
0100
0000
,  // measure 9
0010
0100
0010
0100
1000
0000
0000
0000
0010
0000
0100
0000
0001
0000
1000
0000
,  // measure 10
0001
0000
0000
0001
0000
0000
0010
0000
0100
0000
0000
0100
0000
0000
1000
0000
,  // measure 11
0001
0000
1000
0010
1000
0000
0001
0010
0000
0010
0001
0000
1000
0000
0010
0000
,  // measure 12
0100
0000
0100
0001
1000
0100
1001
0000
,  // measure 13
0001
1000
0001
1000
0100
0000
0000
0000
0010
0000
0001
0100
0000
0010
0100
0000
,  // measure 14
0001
0000
0000
0001
0000
0000
0000
0000
1000
0000
0100
0000
0010
0001
1000
0000
,  // measure 15
0010
0000
0000
0010
0000
0000
0000
0000
0100
0000
0001
0000
1000
0000
0100
0000
,  // measure 16
0010
0001
1000
1000
0010
0100
1001
0000
,  // measure 17
1000
0000
0100
0000
0001
0001
0100
0000
,  // measure 18
1000
0000
0000
1000
0000
0000
0001
0000
0100
0000
0000
0100
0000
0000
0010
0000
,  // measure 19
1000
0100
0010
0000
0010
0100
1000
0000
,  // measure 20
0001
0001
0100
0010
1000
0100
1001
0000
,  // measure 21
0011
0000
0000
0000
1001
0000
0000
0000
1000
0000
0010
0100
0000
0001
1000
0000
,  // measure 22
1100
0000
0000
0000
0110
0000
0000
0001
0000
0000
0001
0000
0000
1000
0000
0000
,  // measure 23
1010
0000
0000
0000
1001
0000
0000
0001
0000
0001
0000
0000
0011
0000
0000
0000
,  // measure 24
0010
0100
1000
1000
0001
0100
1001
0000
,  // measure 25
1000
0000
0010
0000
0100
0000
0010
1000
0000
0010
1000
0000
0001
0000
0000
0000
,  // measure 26
0001
0000
0010
0000
0100
0000
1001
0000
1001
0000
0000
1000
0000
0000
0100
0000
,  // measure 27
0010
0000
0001
0000
1000
0000
0010
0100
0000
0010
0100
0000
0001
0000
0000
0000
,  // measure 28
1000
0000
0100
0000
0010
0000
0001
1000
0000
0001
1000
0000
0010
0000
0000
0000
,  // measure 29
1000
0010
1000
0100
0001
0100
1000
0010
,  // measure 30
0100
0000
0001
0000
0010
0000
0100
0000
1000
0000
0000
1000
0000
0000
0100
0000
,  // measure 31
0010
0000
0000
0000
0010
0000
0001
0100
0000
1000
0100
0000
0010
0000
1000
0000
,  // measure 32
0001
0000
0000
0001
0000
0000
0010
0000
0000
0100
0000
0000
1000
0000
0000
0000
,  // measure 33
0001
0100
0001
1000
0001
0000
0000
0000
0100
0000
0010
0000
1000
0000
0100
0000
,  // measure 34
0010
0000
0000
0000
0010
0001
0000
0001
2000
0000
3000
0000
0010
0000
0100
0000
,  // measure 35
0001
0010
0001
1000
0001
0000
0000
0000
0100
0000
0000
0100
0000
0000
0100
0000
,  // measure 36
0010
0000
0000
0000
0010
0000
0100
0000
1001
0000
1000
0000
0000
0100
0000
0000
,  // measure 37
1000
0100
0010
0100
1000
0000
0000
0000
1001
0000
0001
0100
0000
0010
0100
0000
,  // measure 38
0001
0000
0000
0000
1000
0100
0000
0100
0020
0000
0030
0000
0001
0000
0100
0000
,  // measure 39
0010
0100
1000
0100
0010
0000
0000
0000
1000
0000
0000
0110
0000
0000
1001
0000
,  // measure 40
0010
0000
0002
0000
0000
0000
1003
0010
1000
0000
0000
0100
0000
0000
0010
0000
,  // measure 41
0010
0001
1000
0001
0010
0000
0100
0000
0000
1000
0000
0000
0010
0000
0100
0000
,  // measure 42
0001
0000
0000
0010
0000
0000
0001
0000
0100
0000
0010
0000
1000
0100
0010
0000
,  // measure 43
0001
0000
0000
0001
0000
0000
0100
0000
0000
0010
0000
0000
0001
0000
0010
0000
,  // measure 44
0100
0000
0000
0000
0000
0000
0000
0000
0000
1000
0000
0000
0000
0000
0000
0000
0000
0000
0100
0000
0000
0000
0000
0000
0000
0000
0000
0001
0000
0000
0000
0000
0000
0000
0000
0000
1000
0000
0001
0000
1000
0000
0001
0000
0000
0000
0000
0000
,  // measure 45
0010
0100
0001
0100
0010
0000
0000
0000
0110
0000
0001
1000
0000
0010
0100
0000
,  // measure 46
0001
0000
0000
0001
0000
0000
0000
0000
1000
0000
0010
0000
0100
0001
1000
0000
,  // measure 47
0100
0000
0000
0010
0000
0000
0001
0000
0000
1000
0000
0000
0010
0000
0100
0000
,  // measure 48
0001
0000
0000
0000
0000
0000
0000
0000
0000
0010
0000
0000
0000
0000
0000
0000
0000
0000
0100
0000
0000
0000
0000
0000
0000
0000
0000
1000
0000
0000
0000
0000
0000
0000
0000
0000
0001
0000
1000
0000
0001
0000
1000
0000
0000
0000
0000
0000
,  // measure 49
0010
0000
0000
0000
;
