#VERSION:0.83;
#TITLE:High Barrage;
#SUBTITLE:;
#ARTIST:SM-MEGAtive;
#TITLETRANSLIT:;
#SUBTITLETRANSLIT:;
#ARTISTTRANSLIT:;
#GENRE:;
#ORIGIN:;
#CREDIT:;
#BANNER:High Barrage.png;
#BACKGROUND:High Barrage-bg.png;
#PREVIEWVID:;
#JACKET:High barrage-jacket.png;
#CDIMAGE:;
#DISCIMAGE:;
#LYRICSPATH:;
#CDTITLE:cdtitle.png;
#MUSIC:High Barrage.ogg;
#OFFSET:0.000000;
#SAMPLESTART:96.623001;
#SAMPLELENGTH:12.468000;
#SELECTABLE:YES;
#BPMS:0.000=154.000;
#STOPS:;
#DELAYS:;
#WARPS:;
#TIMESIGNATURES:0.000=4=4;
#TICKCOUNTS:0.000=4;
#COMBOS:0.000=1;
#SPEEDS:0.000=1.000=0.000=0;
#SCROLLS:0.000=1.000;
#FAKES:;
#LABELS:0.000=Song Start;
#BGCHANGES:;
#KEYSOUNDS:;
#ATTACKS:
;

//---------------dance-single - MEGAtive----------------
#NOTEDATA:;
#CHARTNAME:;
#STEPSTYPE:dance-single;
#DESCRIPTION:MEGAtive;
#CHARTSTYLE:;
#DIFFICULTY:Hard;
#METER:12;
#RADARVALUES:0.487098,0.519957,0.090925,0.006495,0.009742,525.000000,511.000000,14.000000,1.000000,0.000000,0.000000,0.000000,0.000000,0.000000,0.487098,0.519957,0.090925,0.006495,0.009742,525.000000,511.000000,14.000000,1.000000,0.000000,0.000000,0.000000,0.000000,0.000000;
#CREDIT:;
#NOTES:
// measure 0
0000
0000
0000
0000
,  // measure 1
0000
0000
0000
0000
,  // measure 2
0000
0000
0000
0000
,  // measure 3
0000
0000
0000
0000
,  // measure 4
0000
0000
0000
0000
,  // measure 5
0000
0000
0000
0000
,  // measure 6
0000
0000
0000
0000
,  // measure 7
0000
0000
0000
0000
,  // measure 8
0000
0000
0000
0000
,  // measure 9
0000
0000
0000
0000
,  // measure 10
0000
0000
0000
0000
,  // measure 11
0000
0000
0000
0000
,  // measure 12
1000
0100
1000
0000
0100
0010
0100
1000
,  // measure 13
0001
0100
0001
1000
0010
0100
0001
0000
,  // measure 14
1000
0010
1000
0000
0010
0100
0010
1000
,  // measure 15
0001
0010
0001
1000
0100
0010
0001
0000
,  // measure 16
1000
0010
0100
0000
0001
0010
0001
1000
,  // measure 17
0100
0010
0100
0000
0010
0001
0100
0000
,  // measure 18
0010
1000
0010
0000
0100
0001
1000
0010
,  // measure 19
0100
0100
0000
0010
1000
0001
1000
0000
,  // measure 20
0001
0010
0100
0010
0100
1000
0001
0000
,  // measure 21
1000
0010
0100
0010
0100
0001
0010
0001
,  // measure 22
1000
0100
0010
0100
0010
0001
1000
0000
,  // measure 23
0001
0100
0010
0100
0010
1000
0100
1000
,  // measure 24
0001
0010
0100
0010
0100
1000
0001
0000
,  // measure 25
1000
0010
0100
0010
0100
0001
0010
0001
,  // measure 26
1000
0100
0010
0100
0010
0001
1000
0000
,  // measure 27
0001
0100
0010
0100
0010
1000
0100
1000
,  // measure 28
0001
0000
0001
0000
0100
0000
1000
0100
,  // measure 29
0001
0000
0001
0000
0001
0000
0010
0100
,  // measure 30
1000
0000
1000
0000
0010
0000
0001
0010
,  // measure 31
1000
0000
1000
0000
1000
0000
0100
0010
,  // measure 32
0100
1000
0100
0000
0010
0001
0100
0000
,  // measure 33
0010
1000
0100
0000
0010
0001
0100
0000
,  // measure 34
0010
1000
0001
1000
0100
0010
0100
1000
,  // measure 35
0001
0000
0000
1000
,  // measure 36
0001
0100
0001
0100
0010
0100
1000
0100
,  // measure 37
0010
0100
0001
1000
0001
1000
0100
0000
,  // measure 38
1000
0100
1000
0100
0010
0100
0001
0100
,  // measure 39
0010
0100
1000
0001
1000
0001
0100
0000
,  // measure 40
0001
0010
0001
0010
0100
0010
1000
0010
,  // measure 41
0100
0010
0001
1000
0001
1000
0010
0000
,  // measure 42
1000
0010
1000
0010
0100
0010
0001
0010
,  // measure 43
0100
0010
1000
0001
1000
0001
0010
0000
,  // measure 44
0001
0010
0000
0010
0000
0010
0000
0010
,  // measure 45
0000
0100
0000
0100
0000
0100
0000
0100
,  // measure 46
1000
0010
0000
0010
0000
0010
0000
0010
,  // measure 47
0000
0100
0000
0100
0000
0100
0000
0100
,  // measure 48
0001
0010
0000
0010
0000
0010
0000
0010
,  // measure 49
0001
0100
0000
0100
0000
0100
0000
0100
,  // measure 50
0010
1000
0000
1000
0000
1000
0000
1000
,  // measure 51
0100
0010
0000
0010
0000
0010
0100
0000
,  // measure 52
1000
0100
1000
0000
0001
0100
0001
0000
,  // measure 53
1000
0010
1000
0000
0001
0010
0001
0000
,  // measure 54
1000
0100
1000
0000
0001
0100
0001
0000
,  // measure 55
1000
0010
1000
0000
0001
0010
0001
0000
,  // measure 56
1000
0100
0010
0000
0001
0100
0010
0000
,  // measure 57
1000
0001
0010
0000
0100
1000
0010
0000
,  // measure 58
0110
0100
0101
0001
,  // measure 59
1001
1100
1001
0101
,  // measure 60
1001
0000
0000
0000
,  // measure 61
0000
0000
0000
1001
,  // measure 62
0001
0010
0001
1000
0100
0010
0100
0000
,  // measure 63
1000
0010
1000
0001
0100
0010
0100
0000
,  // measure 64
0001
0010
0001
1000
0100
0010
0100
0000
,  // measure 65
1000
0010
1000
0001
0100
0010
0100
0010
,  // measure 66
1000
0010
1000
0001
0100
0010
0100
0000
,  // measure 67
0001
0010
0001
1000
0100
0010
0100
0000
,  // measure 68
1000
0010
1000
0001
0100
0010
0100
0000
,  // measure 69
0001
0010
0001
1000
0100
0010
0100
0000
,  // measure 70
1000
0000
1000
0001
0100
0010
0100
0000
,  // measure 71
0001
0010
0001
1000
0100
0010
0100
0000
,  // measure 72
1000
0010
1000
0001
0100
0010
0100
0000
,  // measure 73
0001
0010
0001
1000
0100
0010
0100
0010
,  // measure 74
0001
0010
0001
1000
0100
0010
0100
0000
,  // measure 75
1000
0010
1000
0001
0100
0010
0100
0000
,  // measure 76
0001
0010
0001
1000
0100
0010
0100
0000
,  // measure 77
1000
0010
1000
0001
0100
0010
0100
0000
,  // measure 78
0001
0000
0001
0000
0010
0000
1000
0010
,  // measure 79
0001
0000
0001
0000
1000
0010
0001
0010
,  // measure 80
1000
0000
1000
0000
0010
0000
0001
0010
,  // measure 81
1000
0000
1000
0000
0001
0100
1000
0100
,  // measure 82
0001
0010
0001
0000
1000
0100
1000
0000
,  // measure 83
0001
0100
0001
0000
1000
0010
1000
0000
,  // measure 84
0001
0010
0100
0010
0001
0100
0010
1000
,  // measure 85
0001
0101
0000
1001
0000
2100
0000
0000
,  // measure 86
3001
0010
0100
0000
1000
0010
0100
0000
,  // measure 87
0001
1000
0010
1000
0001
0010
0100
0000
,  // measure 88
1000
0100
0010
0000
0001
0100
0010
0000
,  // measure 89
1000
0001
0010
0100
0010
0001
1000
0000
,  // measure 90
0001
0100
0010
0000
1000
0100
0010
0000
,  // measure 91
0001
1000
0100
1000
0001
0100
0010
0000
,  // measure 92
1000
0010
0100
0000
0001
0010
0100
0000
,  // measure 93
1100
0000
0000
1000
0000
0000
0101
0000
0000
0001
0000
0000
0100
0000
0010
0000
,  // measure 94
0000
0000
0000
1001
0000
0000
0000
0000
0000
0000
0000
0000
0000
0000
0000
0000
;

//---------------dance-single - MEGAtive----------------
#NOTEDATA:;
#CHARTNAME:;
#STEPSTYPE:dance-single;
#DESCRIPTION:MEGAtive;
#CHARTSTYLE:;
#DIFFICULTY:Challenge;
#METER:16;
#RADARVALUES:0.764512,0.799978,0.097420,0.110409,0.698174,824.000000,809.000000,15.000000,17.000000,0.000000,0.000000,0.000000,0.000000,0.000000,0.764512,0.799978,0.097420,0.110409,0.698174,824.000000,809.000000,15.000000,17.000000,0.000000,0.000000,0.000000,0.000000,0.000000;
#CREDIT:;
#NOTES:
0000
0000
0000
0000
,
0000
0000
0000
0000
,
0000
0000
0000
0000
,
0000
0000
0000
0000
,
1000
0000
0100
0000
1000
0000
0001
0000
0100
0000
0000
0100
0000
0000
0100
0000
,
0001
0000
0100
0000
0001
0000
1000
0000
0100
0000
0000
0100
0000
0000
0100
0000
,
1000
0000
0100
0000
1000
0000
0001
0000
0010
0000
0000
0010
0000
0000
0010
0100
,
0010
0000
0000
0010
0001
0000
0001
0000
0100
0000
0010
0000
0100
0000
0001
1000
,
0001
0010
0100
0010
0001
0100
0010
0100
,
0010
1000
0100
1000
0010
0100
0010
1000
,
1010
0000
1001
0000
0011
0000
0110
0110
,
0000
0002
0000
0000
0000
0000
1000
0000
,
1003
0100
0000
0010
0000
0100
1000
0000
0010
0000
0100
0001
0100
0000
0001
0000
,
1000
0010
0000
0100
0000
0010
1000
0001
0000
0001
0010
0000
0100
0010
0100
0000
,
1000
0100
0000
0010
0000
0100
1000
0000
0010
0000
0100
0001
0100
0000
0001
0000
,
1000
0010
0000
0100
0000
0010
1000
0001
0000
0001
0010
0000
0100
0010
0001
0000
,
0001
0100
0000
0010
0000
0100
0001
0000
0010
0000
0100
1000
0100
0000
1000
0000
,
0001
0010
0000
0100
0000
0010
0001
1000
0000
1000
0010
0000
0100
0010
0100
0000
,
0001
0100
0000
0010
0000
0100
0001
0000
0010
0100
0010
0100
1000
0100
1000
0001
,
0100
0000
0101
0000
0000
0000
0001
0010
0100
0000
0110
0000
0010
0000
0001
0000
,
1000
0010
1000
0010
0000
0000
0010
0100
0001
0010
0001
0010
0000
0000
0010
0100
,
1000
0010
1000
0010
0000
0010
0100
0001
1000
0001
1000
0100
0010
0000
0010
0000
,
0100
1000
0100
1000
0000
0000
0001
1000
0010
0100
0010
0100
0000
0000
0010
0100
,
0001
0010
0001
0010
0000
0010
0100
1000
0010
0100
0010
1000
0010
0000
0100
0000
,
0001
0010
0001
0010
0000
0000
0010
0100
1000
0010
1000
0010
0000
0000
0010
0100
,
0001
0010
0001
0010
0000
0010
0100
1000
0001
1000
0001
0100
0010
0000
0010
0000
,
0100
0001
0100
0001
0000
0000
1000
0001
0010
0100
0010
0100
0000
0000
0010
0100
,
1000
0010
1000
0010
0000
0010
0100
0001
0010
0100
0010
0001
0010
0000
0100
0000
,
1000
0000
0010
0000
0001
0000
0010
0000
1000
0000
0010
0100
0010
0000
0100
0000
,
0001
0000
0010
0000
1000
0000
0010
0000
0001
0000
0100
0010
0100
0000
0001
0000
,
1000
0000
0100
0000
0001
0000
0100
0000
1000
0000
0100
0010
0100
0000
1000
0000
,
0001
0000
0100
0000
1000
0000
0100
0000
0001
0000
0100
0010
0100
0000
0010
0000
,
1000
0100
0001
1000
0010
0100
1000
0010
,
0001
1000
0100
0010
1000
0100
0001
0100
,
1000
0100
1000
0000
0001
0100
0001
0000
1000
0010
0100
0010
0100
0001
0010
0100
,
1000
0200
0000
0000
0000
0000
1000
0000
,
1300
0001
0100
1000
0001
0010
1000
0001
,
0010
0100
0001
1000
0010
0100
1000
0000
,
0001
1000
0010
0001
1000
0100
0001
1000
,
0100
0010
1000
0001
0100
0010
0001
1000
,
0001
1000
0100
0001
1000
0010
0001
1000
,
0010
0100
1000
0001
0010
0100
0001
0000
,
1000
0001
0010
1000
0001
0100
1000
0001
,
0100
0010
0001
1000
0100
0010
1000
0001
,
2000
0100
0000
0100
0000
0100
0000
0100
,
3002
0100
0000
0100
0000
0100
0000
0100
,
2003
0010
0000
0010
0000
0010
0000
0010
,
3002
0010
0000
0010
0000
0010
0000
0010
,
2003
0100
0000
0100
3002
0100
0000
0100
,
2003
0010
0000
0010
3002
0010
0000
0010
,
2003
0100
0000
0100
3002
0100
0000
0100
,
2003
0010
0000
0010
3002
0010
0010
0000
,
1003
0100
1000
0000
0001
0100
0001
0000
1000
0100
1000
0000
0001
0100
0001
0000
,
1000
0010
1000
0000
0001
0010
0001
0000
1000
0010
1000
0000
0001
0010
0001
0000
,
1000
0100
1000
0000
0001
0100
0001
0000
1000
0100
1000
0000
0001
0100
0001
0000
,
1000
0010
1000
0000
0001
0010
0001
0000
1000
0010
1000
0000
0001
0010
0001
0000
,
1000
0100
0010
0000
0001
0100
0010
0000
0100
0001
0010
0000
0100
1000
0010
0000
,
0100
0001
1000
0000
0100
0010
0001
0000
1000
0010
0100
0000
0001
0010
0100
0000
,
1000
0000
0000
0000
0001
0100
1000
0100
0001
0000
0000
0000
1000
0100
0001
0100
,
1000
0000
0001
0100
1000
0000
1000
0100
0001
0000
1000
0100
0001
0000
0001
0100
,
1000
0000
0000
0000
,
0000
2000
0000
0000
0000
0000
0001
0000
,
3001
0000
1000
0100
1000
0100
0000
0010
0000
0000
0100
1000
0100
0000
1000
0000
,
0001
0000
1000
0010
1000
0010
0000
0100
0000
0000
0010
1000
0001
0000
0001
0000
,
1000
0000
0001
0010
0001
0010
0000
0100
0000
0000
0010
0001
0010
0000
0001
0000
,
1000
0000
0001
0100
0001
0100
0000
0010
0000
0000
0100
0001
1000
0000
0100
0000
,
1000
0000
0100
0010
0100
0010
0000
0001
0000
0000
0100
0010
0100
0000
0010
0000
,
1000
0000
0010
0100
0010
0100
0000
0001
0000
0000
0010
0100
1000
0000
0001
0000
,
1000
0000
0100
0010
0100
0010
0000
0001
0000
0000
0100
0010
0100
0000
0010
0000
,
1000
0000
0010
0100
0010
0100
0000
0001
0000
0000
0010
0100
1000
0000
0001
0000
,
0100
0000
0001
0000
0101
0000
0000
0100
0000
0000
0010
1000
0010
0000
1000
0000
,
0001
0000
1000
0100
1000
0100
0000
0010
0000
0000
0100
1000
0001
0000
0001
0000
,
1000
0000
0001
0100
0001
0100
0000
0010
0000
0000
0100
0001
0100
0000
0001
0000
,
1000
0000
0001
0010
0001
0010
0000
0100
0000
0000
0010
0001
1000
0000
0010
0000
,
1000
0000
0010
0100
0010
0100
0000
0001
0000
0000
0010
0100
0010
0000
0100
0000
,
1000
0000
0100
0010
0100
0010
0000
0001
0000
0000
0100
0010
1000
0000
0001
0000
,
1000
0000
0010
0100
0010
0100
0000
0001
0000
0000
0010
0100
0010
0000
0100
0000
,
1000
0000
0100
0010
0100
0010
0000
0001
0000
0000
0100
0010
1000
0000
0001
0000
,
1000
0000
0100
0000
0001
0000
0100
0000
1000
0000
0100
0000
0010
0000
0000
0010
,
0100
0000
1000
0000
0010
0000
0001
0000
0010
0000
1000
0000
0001
0010
0000
0010
,
0001
1000
0100
0001
0100
1000
0001
0001
,
1000
0000
0010
0000
0001
0000
0010
0000
1000
0000
0001
0010
0100
0000
0100
0000
,
1000
0000
0010
0000
0001
0000
0010
0000
1000
0000
0100
0000
0001
0000
0100
0010
,
0100
0000
1000
0000
0001
0000
0100
0000
0010
0100
0010
0000
1000
0001
1000
0000
,
0001
0010
0100
0000
1000
0010
0100
0000
0010
1000
0100
0000
0010
0001
0100
0000
,
0010
0000
1000
0100
0001
0000
0001
0100
1000
0000
1000
0010
0100
0001
0010
0100
,
1000
0100
1000
0100
0001
0100
0010
0100
,
1000
0100
1000
0100
0001
0100
0010
0001
,
1000
0010
1000
0010
0001
0010
0100
0010
,
1000
0010
1000
0010
0001
0010
0100
0001
,
1000
0100
1000
0100
0001
0100
0010
0100
,
1000
0100
1000
0100
0001
0100
0010
0001
,
1000
0010
1000
0010
0001
0010
0100
0010
,
0110
0000
0000
0101
0000
0000
1001
0000
0000
1100
0000
0000
0110
0000
0110
0000
,
0000
0000
0000
2002
0000
0000
0000
0000
0000
0000
0000
0000
3003
0000
0000
0000
;
