#TITLE:Fallen Angel;
#SUBTITLE:(DJ Excuses Hardcore Bootleg);
#ARTIST:TIX;
#TITLETRANSLIT:;
#SUBTITLETRANSLIT:;
#ARTISTTRANSLIT:;
#GENRE:;
#CREDIT:Telperion;
#BANNER:Fallen Angel (DJ Excuses Hardcore Bootleg).png;
#BACKGROUND:Fallen Angel (DJ Excuses Hardcore Bootleg)-bg.png;
#LYRICSPATH:;
#CDTITLE:;
#MUSIC:Fallen Angel (DJ Excuses Hardcore Bootleg).ogg;
#OFFSET:-0.366000;
#SAMPLESTART:57.348000;
#SAMPLELENGTH:29.268000;
#SELECTABLE:YES;
#BPMS:0.000000=164.000000
;
#STOPS:
;
#BGCHANGES:;
#KEYSOUNDS:;
#ATTACKS:;

//---------------dance-single - Telperion----------------
#NOTES:
     dance-single:
     Telperion:
     Beginner:
     2:
     0.093073,0.155389,0.000000,0.014977,0.000000,87.000000,87.000000,0.000000,2.000000,0.000000,0.000000,0.093073,0.155389,0.000000,0.014977,0.000000,87.000000,87.000000,0.000000,2.000000,0.000000,0.000000:
0000
0000
0000
0000
,
0000
0000
0000
0000
,
0000
0000
0000
0000
,
1000
0000
0000
0000
,
0001
0000
0000
0000
,
0100
0000
0000
0000
,
0010
0000
0000
0000
,
0001
0000
0000
0000
,
1000
0000
0000
0000
,
0100
0000
0000
0000
,
0010
0000
0000
0000
,
0001
0000
0000
0000
,
0001
0000
0000
0000
,
1000
0000
0000
0000
,
1000
0000
0000
0000
,
0010
0000
0000
0000
,
0000
0000
0000
0000
,
0010
0000
0000
0000
,
0000
0000
0000
0000
,
1000
0000
0000
1000
,
0000
0000
0000
0000
,
0001
0000
0000
0001
,
0000
0000
0000
0000
,
0010
0000
0000
0010
,
0000
0000
0000
0000
,
0100
0000
0000
0100
,
0000
0000
0000
0000
,
1000
0000
0000
0000
,
0100
0000
0000
0000
,
0001
0000
0000
0000
,
0010
0000
0000
0000
,
0001
0000
0000
0000
,
0100
0000
0000
0000
,
1000
0000
0000
0000
,
0010
0000
0000
0000
,
0100
0000
0100
0000
,
0100
0000
0000
0000
,
0010
0000
0010
0000
,
0010
0000
0000
0000
,
2000
0000
0000
3000
,
0000
0000
0000
0000
,
0001
0000
1000
0000
,
0001
0000
1000
0000
,
0001
0000
0000
0000
,
0000
0000
0000
0000
,
1000
0000
0001
0000
,
1000
0000
0001
0000
,
1000
0000
0000
0000
,
0100
0000
0000
0000
,
0010
0000
0000
0000
,
0001
0000
0000
0000
,
1000
0000
0000
0000
,
0010
0000
0000
0000
,
0100
0000
0000
0000
,
1000
0000
0000
0000
,
0001
0000
0000
0000
,
0010
0000
0000
0000
,
0100
0000
0000
0000
,
0001
0000
0000
0000
,
1000
0000
0000
0000
,
0000
0000
1000
0000
,
0001
0000
0000
0000
,
0000
0000
0001
0000
,
1000
0000
0000
0000
,
0000
0000
1000
0000
,
0001
0000
0000
0000
,
0000
0000
0001
0000
,
0100
0000
0100
0000
,
0100
0000
0000
0000
,
0010
0000
0010
0000
,
0010
0000
0000
0000
,
0002
0000
0000
0003
,
0000
0000
0000
0000
,
1000
0000
0001
0000
,
1000
0000
0001
0000
,
1000
0000
0000
0000
,
0000
0000
0000
0000
,
0001
0000
1000
0000
,
0001
0000
1000
0000
,
0001
0000
0000
0000
,
0100
0000
0000
0000
,
0010
0000
0000
0000
,
1000
0000
0000
0000
,
0001
0000
0000
0000
;

//---------------dance-single - Telperion----------------
#NOTES:
     dance-single:
     Telperion:
     Easy:
     6:
     0.251404,0.325755,0.000000,0.014977,0.000000,235.000000,235.000000,0.000000,2.000000,0.000000,0.000000,0.251404,0.325755,0.000000,0.014977,0.000000,235.000000,235.000000,0.000000,2.000000,0.000000,0.000000:
0000
0000
0000
0000
,
0000
0000
0000
0000
,
0000
0000
0000
0000
,
1000
0100
0000
0100
,
0001
0010
0000
0010
,
1000
0010
0000
0010
,
0001
0100
0010
1000
,
0001
0010
0000
0010
,
1000
0100
0000
0100
,
0001
0100
0000
0100
,
1000
0010
0100
0001
,
1000
0000
0001
0100
,
0001
0000
1000
0100
,
1000
0000
0001
0100
,
0001
1000
0100
0010
,
0001
0000
1000
0010
,
1000
0000
0001
0010
,
0001
0000
1000
0010
,
1000
0000
0001
0010
,
0100
1000
0000
1000
,
0000
0001
0000
0001
,
0100
0001
0000
0001
,
0000
1000
0000
1000
,
0010
0100
0000
0100
,
0000
0001
0000
0001
,
0010
0100
0000
0100
,
0000
1000
0001
1000
,
0010
0000
0000
0100
0000
0000
0000
0000
,
0100
0000
0000
0001
0000
0000
0000
0000
,
0001
0000
0000
0010
0000
0000
0000
0000
,
0010
0000
0000
0100
0000
0000
0000
0000
,
1000
0000
0000
0001
0000
0000
0000
0000
,
0001
0000
0000
0100
0000
0000
0000
0000
,
0100
0000
0000
0010
0000
0000
0000
0000
,
0010
0000
0000
1000
0000
0000
0000
0000
,
0001
0100
0001
0000
,
1000
0010
1000
0000
,
0001
0010
0001
0000
,
1000
0100
1000
0000
,
0010
0100
0001
0100
,
0010
1000
0001
0000
,
0010
0100
0000
0000
0010
0100
0000
0000
,
1000
0000
1000
0001
,
0010
0100
1000
0100
,
0010
0001
1000
0000
,
0010
0100
0010
0000
,
1000
0001
1000
0001
,
0010
0000
0010
0100
,
1000
0000
0001
1000
,
0010
0000
0010
0100
,
0001
1000
0000
1000
,
0100
0000
0000
0010
0000
0000
0010
0000
,
0001
0000
0000
1000
0000
0000
0001
0000
,
0100
0000
0000
0010
0000
0000
0010
0000
,
1000
0001
0010
0100
,
1000
0000
0000
0010
0000
0000
0100
0000
,
0001
0000
0000
0010
0000
0000
0100
0000
,
1000
0000
0000
0001
0000
0000
0100
0000
,
0010
0000
0000
0200
0000
0000
0000
0000
,
0301
0000
0000
0000
,
1000
0000
0000
0000
,
0100
0000
0000
0000
,
0010
0000
0000
0000
,
1000
0000
0000
0000
,
0001
0000
0000
0000
,
0100
0000
0000
0000
,
0010
0000
0000
0000
,
0100
0000
0001
0000
,
1000
0000
0100
0000
,
0010
0001
0010
0001
,
1000
0010
0100
0000
,
0001
0000
0000
1000
0000
1000
0100
0000
,
1000
0000
0000
0001
0000
0001
0100
0000
,
0010
0100
0000
0000
0010
0100
0000
0000
,
0001
0000
1000
0100
,
0010
0000
0000
0001
0000
0001
1000
0000
,
0010
0000
0000
1000
0000
1000
0001
0000
,
0010
0100
1000
0001
,
0100
0000
0010
1000
,
0010
0000
0100
0001
,
0010
0000
0100
1000
,
0010
0000
1000
0100
,
0010
0001
1000
0010
,
0100
0000
0100
0000
,
0001
0000
0001
1000
,
0100
0000
0100
0000
,
0010
0000
0000
0020
,
0030
0000
0000
0000
;

//---------------dance-single - Telperion----------------
#NOTES:
     dance-single:
     Telperion:
     Medium:
     11:
     0.462155,0.488632,0.127306,0.112329,0.029954,432.000000,415.000000,17.000000,15.000000,0.000000,0.000000,0.462155,0.488632,0.127306,0.112329,0.029954,432.000000,415.000000,17.000000,15.000000,0.000000,0.000000:
0000
0000
0000
0000
,
0000
0000
0000
0000
,
0000
0000
0000
0000
,
1000
0000
0001
0100
0000
0000
0001
0010
,
0001
0000
1000
0100
0000
0000
1000
0001
,
1000
0000
0010
0100
0000
0000
0001
1000
,
0001
0010
0100
1000
,
0001
0000
0100
0100
0000
0000
0010
0000
,
1000
0000
0100
0100
0000
0000
0010
0000
,
0002
0000
0000
1003
0000
0001
0100
0000
,
0010
1000
0000
2000
0000
0000
3100
0000
,
0010
0001
0010
0001
,
1000
0010
0100
0100
,
0010
1000
0010
1000
,
0001
0010
0100
0100
,
1000
0000
0001
0000
0100
0001
1000
0000
,
0100
0000
0010
0000
0001
0010
0100
1000
,
0001
0000
0100
0000
0010
1000
0100
0000
,
0010
0000
0100
1000
0001
0100
0010
0000
,
2000
3001
0000
1100
,
0000
0000
1001
0000
0000
1000
0100
0010
,
0002
1003
0000
0101
,
0000
0000
1001
0000
0010
1000
0100
0010
,
0002
0103
0000
0110
,
0000
0000
0101
0000
0000
0001
1000
0010
,
2000
3100
0000
0110
,
0000
1100
0001
1000
,
0010
0000
0100
0001
0000
0001
0000
0000
,
0100
0000
0010
1000
0000
1000
0001
0000
,
0010
0000
0100
1000
0000
1000
0000
0000
,
0100
0000
0010
0001
0000
0001
1000
0000
,
0010
0000
0100
0001
0000
0001
0100
0000
,
0010
0000
1000
0001
0000
1000
0010
0000
,
0100
0000
0001
1000
0000
1000
0100
0000
,
0010
0000
0001
1000
0000
0001
0010
0000
,
0100
0000
0000
0000
1000
0000
0000
0000
0001
0100
0000
0000
0010
0000
0000
0000
,
1000
0000
0000
1000
0001
0000
0000
0000
0010
0000
0000
0000
0100
0000
1000
0000
,
0001
0000
0100
0000
0010
1000
0001
0000
,
0010
0110
2002
3003
,
1000
0001
0100
0000
0010
0000
0101
0000
,
1000
0000
0001
0000
0010
0000
0000
0000
0100
0000
0000
0000
1000
0000
0000
1000
,
0001
0100
0001
0000
0010
0000
1100
0000
,
0001
0000
0000
0000
0100
0000
0000
0001
1000
0000
0000
0000
1000
0000
0100
0000
,
0010
0100
1000
0000
0001
0000
1100
0000
,
0001
0000
1000
0000
0010
0000
0000
0000
0100
0000
0000
0000
0001
0000
0000
0001
,
1000
0100
1000
0000
0010
0000
0101
0000
,
1000
0000
0000
0000
0100
0000
0000
1000
0001
0000
0000
0000
0100
0000
0010
0000
,
1000
0010
0100
0000
0001
1000
0100
0000
,
1000
0001
0100
0000
0001
1000
0100
0010
,
0001
1000
0010
0000
1000
0001
0010
0000
,
0001
1000
0010
0000
0100
0001
0100
0010
,
1000
0000
0100
0001
0000
0100
1000
0000
,
0010
0000
1000
0100
0000
0010
0100
1000
,
0001
0000
0100
1000
0000
0100
0001
0000
,
0010
0000
0100
1000
0001
1000
0010
0000
,
0100
0000
1000
0100
0000
0001
0010
0000
,
0100
0000
0001
0100
0000
1000
0010
0000
,
0100
0000
0001
0001
0000
0100
0010
1000
,
0100
0010
0000
0020
0000
0000
0000
0000
,
0130
1000
0100
2000
,
3000
0000
0001
0000
0100
0001
0100
0000
,
0010
1000
0010
2000
,
3000
0000
0001
0000
0010
0100
1000
0000
,
0001
0100
0001
0200
,
0300
0000
0010
0000
1000
0100
1000
0000
,
0001
0010
0001
0020
,
0030
0000
0100
0000
1000
0010
1000
0000
,
0001
0000
0101
0000
1000
0001
1000
0000
,
0100
0000
0000
0000
1100
0000
0000
0000
0001
1000
0000
0000
0100
0000
0010
0000
,
0001
0000
0000
0000
0011
0000
0000
0000
1000
0001
0000
0000
0100
0000
0010
0000
,
1000
0000
0001
0010
0200
0000
0000
0000
,
1300
0000
0001
0100
0000
1000
0100
0001
,
0010
0000
0001
0100
0000
1000
0100
0010
,
1000
0001
0000
0010
0100
1000
0000
0001
,
0100
0000
0010
1000
0100
0010
0001
1000
,
0010
0000
1000
0100
0000
0001
0100
1000
,
0010
0000
1000
0100
0000
0001
0100
0010
,
0001
1000
0000
0010
0100
0001
0000
1000
,
0100
0010
0001
1000
0010
0100
0001
0000
,
0010
0000
0100
1000
0001
1000
0100
0000
,
0010
0000
0100
1000
0001
1000
0100
0010
,
0001
0000
0100
0001
1000
0001
0100
0000
,
0010
1000
0001
0100
0010
0000
1000
0001
,
0010
0000
0100
0000
0000
0010
0100
0000
,
1000
0000
0001
0000
0000
1000
0001
1000
,
0010
0000
0100
0000
0000
0010
0100
0000
,
0001
0000
1000
0000
0000
0001
0020
0000
,
0030
0000
0000
0000
;

//---------------dance-single - Telperion----------------
#NOTES:
     dance-single:
     Telperion:
     Hard:
     12:
     0.559507,0.618490,0.187215,0.329499,0.142284,523.000000,498.000000,25.000000,44.000000,0.000000,0.000000,0.559507,0.618490,0.187215,0.329499,0.142284,523.000000,498.000000,25.000000,44.000000,0.000000,0.000000:
0000
0000
0000
0000
,
0000
0000
0000
0000
,
0000
0000
0000
0000
0000
0010
0001
1000
,
0020
0000
0130
0001
0010
0000
0001
1000
,
0020
0000
0130
0001
0000
0001
1000
0100
,
0020
0000
0130
1000
0010
0000
1000
0001
,
0010
0000
0100
0000
1000
0000
0010
0000
0000
0100
0000
0100
0001
0000
0000
0000
,
2000
0000
0100
3100
0000
1000
0100
0010
,
0002
0000
0100
0103
0000
0001
1000
0001
,
0020
0000
0000
0130
0000
1000
0001
1000
,
0010
0100
0000
0220
0000
0000
0330
0000
,
1000
0000
0001
0000
0100
0001
0100
0000
,
0010
0000
1000
0000
0100
1000
0100
0000
,
0010
0000
0001
0000
1000
0000
0001
1000
,
0010
0000
0100
0000
0001
0000
1000
0100
,
0010
0000
1100
0000
0001
1000
0010
0000
,
0100
0000
0101
0000
1000
0001
0010
0000
,
0100
0000
1001
0000
1000
0001
0100
0000
,
0010
0000
1001
0000
1000
0001
1000
0001
,
0020
0000
0130
1000
0001
0000
2010
0000
,
3001
0000
1200
0000
0310
0001
1000
0010
,
0100
0102
1003
0021
,
0130
0000
1000
0000
0001
0000
0100
0000
0000
0001
0000
1000
0001
0000
0010
0000
,
0200
0000
0310
0001
1000
0000
0012
0000
,
1003
0000
0201
0000
0310
1000
0001
0010
,
0100
2100
3001
1020
,
0130
0000
0001
0000
1000
0000
0100
0000
0000
0010
0000
0010
0001
0000
1000
0000
,
0010
0000
0200
0001
0000
0310
0000
1000
,
0001
0000
2000
0100
0000
3001
0010
0000
,
0001
0000
0200
0010
0000
0301
0100
0000
,
0010
0000
2000
0100
0000
3001
0010
0100
,
1000
0000
0020
1000
0000
0130
0000
0001
,
1000
0000
0002
0010
0000
1003
0010
0000
,
1000
0000
0200
0010
0000
1300
0100
0000
,
0010
0000
0002
0100
0000
1003
0010
0100
,
0001
0000
0000
0000
1000
0000
0001
0000
0010
0100
0000
0000
1000
0000
0000
0000
,
0001
0000
0000
1000
0001
0000
1000
0000
0010
0100
0000
0000
0001
0000
0000
0000
,
1000
0000
0000
0001
1000
0000
0001
0000
0010
0100
0000
0000
1000
0000
0000
0000
,
0001
1001
0220
0330
,
0001
0000
0100
0000
0010
0000
1000
0001
0000
0000
0001
0000
0010
0000
0000
0000
,
0100
1000
0010
0000
0100
0010
1000
0000
,
0100
0002
0000
1003
0010
0002
0000
1003
,
0100
0000
0000
0000
0010
0000
0100
0000
1000
0001
0000
0001
0100
0000
0010
0000
,
1000
0000
0000
0000
0010
0000
0100
0001
0000
0000
0001
0000
1000
0000
0000
0000
,
0100
0010
0001
0000
1000
0001
0200
0000
,
2300
3002
0023
0230
,
0302
0000
0000
0000
0013
0000
0100
0000
1000
0001
0000
0001
0100
0000
0010
0000
,
1000
0000
0001
0100
0001
0010
0001
1000
,
0001
0000
0010
0100
1000
1000
0001
0100
,
0010
0000
1000
0100
1000
0010
1000
0001
,
1000
0000
0010
0100
0001
0010
0100
1000
,
0010
0000
0100
0101
0000
1000
0001
0000
,
0010
0000
0100
1100
0000
0001
1000
0100
,
0010
0000
0001
0011
0000
1000
0001
1000
,
0010
0000
0110
0000
0001
1000
1010
0000
,
0001
0010
0100
0002
0000
1003
0010
0001
,
1000
0010
0100
2000
0000
3001
0010
1000
,
0001
0100
0000
1010
0000
0101
0000
1000
,
0001
0000
0010
0000
0100
0000
1000
0001
0000
0001
0100
0000
0010
0000
0000
0000
,
1000
0000
0000
0001
0000
0000
1000
0000
0000
0001
0000
0000
0010
0000
0000
0000
,
0100
0000
0100
0000
1000
0001
2000
0000
,
3100
0000
0000
0010
0000
0000
0100
0000
0000
0010
0000
0000
0001
0000
0000
0000
,
0100
0000
0100
0000
0010
1000
0020
0000
,
0130
0000
0000
0001
0000
0000
0100
0000
0000
0001
0000
0000
1000
0000
0000
0000
,
0100
0010
0002
2003
,
3010
0000
0000
0100
0000
0000
0010
0000
0000
0100
0000
0000
0001
0000
0000
0000
,
0010
0000
0100
0000
1000
1000
0002
0000
,
0103
0000
0110
0000
1000
0010
0100
0000
,
0001
0000
1100
0000
0001
0000
0010
0100
,
1000
0000
0000
0000
0101
0000
0000
0000
1000
0100
0000
0000
0010
0000
0001
0000
,
1000
0010
0200
0000
,
0301
1000
0100
0010
0000
1000
0010
0001
,
1000
0100
0010
0001
0000
0010
1000
0010
,
0001
1000
0010
0100
0000
1000
0100
0001
,
1000
0010
0100
0001
0000
0001
0010
0100
,
1000
0001
0100
0010
0000
0001
0010
1000
,
0001
0100
0010
1000
0000
0010
0001
0010
,
1000
0001
0010
0100
0000
1000
0100
0010
,
1000
0010
0001
1000
0000
1000
0010
0000
,
0100
0001
1000
0010
0001
0010
0100
0001
,
1000
0000
0100
0000
0001
0000
0100
0000
0010
0000
0001
0000
1000
0000
0001
0100
,
0001
0000
0010
0000
1000
0000
0010
0000
0100
0000
1000
0000
0001
0000
1000
0100
,
1000
0010
0001
0010
1000
0100
0010
0001
,
1000
0000
0000
0010
0000
0000
1000
0000
0000
0010
0000
0000
0100
0000
0000
0000
,
0001
0000
0000
1000
0000
0000
0001
0000
0000
0000
0100
0000
0010
0000
1000
0000
,
0001
0000
0000
0010
0000
0000
0001
0000
0000
0010
0000
0000
0100
0000
0000
0000
,
1000
0000
0000
0001
0000
0000
0100
0000
0000
0001
0000
0000
1000
0000
0001
0100
;

//---------------dance-single - Telperion----------------
#NOTES:
     dance-single:
     Telperion:
     Challenge:
     14:
     0.656859,0.716146,0.157261,0.254613,0.292056,614.000000,593.000000,21.000000,34.000000,0.000000,0.000000,0.656859,0.716146,0.157261,0.254613,0.292056,614.000000,593.000000,21.000000,34.000000,0.000000,0.000000:
// measure 0
0000
0000
0000
0000
,  // measure 1
0000
0000
0000
0000
,  // measure 2
0000
0000
0000
0000
0000
0010
1000
0100
,  // measure 3
0020
0000
0031
1000
0010
0000
1000
0001
,  // measure 4
0020
0000
0130
1000
0000
1000
0001
0100
,  // measure 5
0020
0000
1030
0001
0010
0000
0001
1000
,  // measure 6
0010
0000
0100
0000
0001
0000
0000
0000
1000
0100
0000
1000
0001
0000
0100
0000
,  // measure 7
0020
0000
1000
1030
0000
0001
1000
0100
,  // measure 8
0020
0000
0001
0031
0000
0010
0100
1000
,  // measure 9
0020
0000
0000
0130
0000
0001
1000
0100
,  // measure 10
0010
0001
0000
0002
0000
1003
0001
0100
,  // measure 11
0010
0000
1000
0000
0010
1000
0010
0000
,  // measure 12
0100
0000
0001
0000
0010
0001
0010
0000
,  // measure 13
0100
0000
1000
0000
0100
0000
1000
0001
,  // measure 14
0200
0000
0000
0000
0320
0000
0000
0000
1030
0001
0000
1000
0100
0000
0010
0000
,  // measure 15
0001
0000
1100
0000
0001
1000
1100
0000
,  // measure 16
0001
0000
0101
0000
1000
0001
0101
0000
,  // measure 17
1000
0000
1010
0000
0001
0010
0100
1000
,  // measure 18
0001
0000
0011
0000
0100
0001
1000
0000
,  // measure 19
0100
0000
0210
0000
1300
0001
0200
0000
,  // measure 20
0310
1000
0002
0000
0103
1000
0100
0001
,  // measure 21
0010
0000
0210
0000
1300
0001
0020
0000
,  // measure 22
0031
0000
1000
0000
0100
0000
1000
0000
0001
0100
0000
0001
0100
0000
0010
0000
,  // measure 23
1000
0000
2100
0000
3001
0100
0020
0000
,  // measure 24
1030
0001
0020
0000
0130
0001
0100
1000
,  // measure 25
0001
0000
0021
0000
0130
1000
0020
0000
,  // measure 26
1030
0000
0001
0000
0100
0000
0001
0000
1000
0100
0000
1000
0100
0000
0010
0000
,  // measure 27
0001
0000
0200
0010
0000
0301
0000
1000
,  // measure 28
0001
0000
0020
0100
0000
0031
0010
0100
,  // measure 29
1000
0000
0020
0100
0000
1030
0001
0000
,  // measure 30
1000
0000
0200
0010
0000
1300
0001
0000
,  // measure 31
0100
0000
0020
1000
0000
0130
0000
0001
,  // measure 32
1000
0000
0200
0010
0000
1300
0010
0100
,  // measure 33
0001
0000
2000
0100
0000
3001
0010
0000
,  // measure 34
0100
0000
2000
0010
0000
3100
0010
0000
,  // measure 35
0001
0100
0001
1000
0100
0001
0100
0010
,  // measure 36
0001
1000
0001
0100
0010
0001
0010
1000
,  // measure 37
0001
0010
0100
1000
0010
1000
0001
0010
,  // measure 38
0100
0110
2002
3003
,  // measure 39
0011
0000
0000
0000
1000
0000
0001
0100
0001
0000
1000
0000
0010
0000
0100
0001
,  // measure 40
0000
0000
1000
0000
0100
0000
0010
0001
0010
0000
0100
0000
1000
0000
0000
0000
,  // measure 41
0001
0000
0200
0000
0000
0000
0301
1000
0001
0000
0200
0000
0000
0000
0301
1000
,  // measure 42
0001
0000
0010
0000
0100
0000
1000
0000
0001
0100
0000
0100
0010
0000
1000
0000
,  // measure 43
0001
0000
0000
0000
0010
0000
0001
0100
0001
0000
1000
0000
0010
0000
0100
0001
,  // measure 44
0000
0000
1000
0000
0100
0000
0010
0001
0010
0000
0000
0000
0100
0000
1000
0001
,  // measure 45
1000
0000
0010
0000
0100
0000
0010
1000
0000
0000
0100
0000
0010
0000
0001
0010
,  // measure 46
0000
0000
0100
0000
1000
0000
0001
0000
1000
0100
0000
0100
0010
0000
0001
0000
,  // measure 47
1000
0000
0010
0000
0100
0000
0010
1000
0010
0000
0100
0000
0010
0000
1000
0000
,  // measure 48
0001
0000
0010
0001
0010
0000
0100
0000
1000
0000
1000
0000
0001
0000
0100
0000
,  // measure 49
0010
0000
1000
0000
0010
0000
0100
0000
0010
1000
0010
0000
0100
0000
0001
1000
,  // measure 50
0001
0010
0100
0010
0001
0100
0010
0000
,  // measure 51
1000
0000
0001
0100
0001
0000
0010
0000
0000
0000
0100
0000
1100
0000
0000
0000
,  // measure 52
0001
0000
1000
0100
1000
0000
0010
0000
0000
0000
0001
0000
0010
0000
0100
0000
,  // measure 53
0001
0000
1000
0010
1000
0000
0100
0000
0000
0000
0010
0000
0011
0000
0000
0000
,  // measure 54
1000
0000
0010
0000
0100
0000
1000
0100
0000
0100
0001
0000
0010
0000
0000
0000
,  // measure 55
0100
0000
1000
0010
1000
0000
0001
0000
0000
0000
0100
0000
0101
0000
0000
0000
,  // measure 56
1000
0000
0001
0100
0001
0000
0010
0100
0000
0000
1000
0000
1100
0000
0000
0000
,  // measure 57
0001
0001
0100
1010
0000
1000
0010
1000
,  // measure 58
0100
0000
0100
0000
0010
0000
0001
1000
0000
0001
1000
0000
0010
0000
0000
0000
,  // measure 59
0100
0000
0000
0001
0000
0000
0100
0000
0000
0001
0000
0000
0010
0000
0000
0000
,  // measure 60
0100
0000
0000
1000
0000
0000
0001
0000
0100
0000
0001
0000
1000
0100
1000
0100
,  // measure 61
0010
0000
0000
0001
0000
0000
0010
0000
0000
0001
0000
0000
1000
0000
0000
0000
,  // measure 62
0010
0000
0000
0010
0000
0000
0100
0000
0001
0000
1000
0000
0001
0100
0001
0100
,  // measure 63
0010
0000
0000
1000
0000
0000
0010
0000
0000
1000
0000
0000
0001
0000
0000
0000
,  // measure 64
0010
0000
0000
0100
0000
0000
1000
0000
0001
0100
0001
0000
1000
0100
1000
0100
,  // measure 65
0010
0000
0000
0001
0000
0000
1000
0000
0000
0001
0000
0000
0100
0000
0000
0000
,  // measure 66
0001
0000
0000
1000
0000
0000
0100
0000
0010
0000
0001
0000
1000
0010
1000
0010
,  // measure 67
0100
0000
0100
0001
0100
0000
0010
1000
,  // measure 68
0010
0000
1000
0100
1000
0000
0001
0010
,  // measure 69
0100
1000
0001
0100
0010
0001
0010
1000
,  // measure 70
0001
0010
0100
1000
0020
0000
0000
0000
,  // measure 71
0130
0000
0001
1000
0000
0001
0100
0000
0010
0000
1000
0000
0001
0100
0001
0000
,  // measure 72
0010
0000
0100
1000
0000
0001
1000
0000
0100
0000
0010
0000
0001
0100
0001
0000
,  // measure 73
1000
0000
0200
0000
0000
0000
1300
0001
1000
0000
0200
0000
0000
0000
1300
0001
,  // measure 74
1000
0000
0010
0000
0100
0000
0001
0000
1000
0010
1000
0000
0001
0000
0010
0000
,  // measure 75
0100
0000
1000
0001
0000
1000
0100
0000
0010
0000
0001
0000
1000
0100
1000
0000
,  // measure 76
0010
0000
0100
0001
0000
1000
0001
0000
0100
0000
0010
0000
1000
0100
1000
0000
,  // measure 77
0001
0011
0000
1000
0010
0110
0000
0001
,  // measure 78
1000
0000
1100
0000
0001
0000
0100
0000
0010
1000
0010
0000
0100
0000
0001
0000
,  // measure 79
1000
0000
0100
0000
0001
0000
0100
0000
0010
0000
0100
0000
1000
0000
0001
0100
,  // measure 80
0001
0000
0010
0000
1000
0000
0010
0000
0100
0000
0010
0000
0001
0000
1000
0100
,  // measure 81
1000
0000
0010
0000
0001
0000
0010
0000
0100
0000
0010
0000
1000
0000
0001
0010
,  // measure 82
0001
0100
1000
0100
0010
1000
0001
0010
,  // measure 83
0100
0000
1000
0100
1000
1000
0001
0000
,  // measure 84
0100
0000
0001
1000
0001
0001
0100
0000
,  // measure 85
0010
0000
1000
0001
1000
1000
0010
0000
,  // measure 86
0100
0000
0000
0000
0001
0000
0010
0000
0001
0000
0001
0000
1000
0000
0100
0010
;
