#VERSION:0.83;
#TITLE:Cloudtripping;
#SUBTITLE:;
#ARTIST:dj VERTICAI;
#TITLETRANSLIT:;
#SUBTITLETRANSLIT:;
#ARTISTTRANSLIT:;
#GENRE:;
#ORIGIN:;
#CREDIT:;
#BANNER:Cloudtripping.png;
#BACKGROUND:Cloudtripping-bg.png;
#PREVIEWVID:;
#JACKET:Cloudtripping-jacket.png;
#CDIMAGE:;
#DISCIMAGE:;
#LYRICSPATH:;
#CDTITLE:;
#MUSIC:Cloudtripping.ogg;
#OFFSET:-0.026000;
#SAMPLESTART:101.015099;
#SAMPLELENGTH:15.000000;
#SELECTABLE:YES;
#DISPLAYBPM:90.000000:180.000000;
#BPMS:0.000=180.000,
520.000=90.000,
543.000=360.000,
543.500=180.000,
543.750=90.000,
544.000=360.000,
544.500=180.000,
544.750=90.000,
545.000=180.000,
673.000=90.000;
#STOPS:673.000=0.667;
#DELAYS:;
#WARPS:;
#TIMESIGNATURES:0.000=4=4;
#TICKCOUNTS:0.000=4;
#COMBOS:0.000=1;
#SPEEDS:0.000=1.000=0.000=0;
#SCROLLS:0.000=1.000;
#FAKES:;
#LABELS:0.000=Song Start;
#BGCHANGES:;
#KEYSOUNDS:;
#ATTACKS:
;

//---------------dance-single - ----------------
#NOTEDATA:;
#CHARTNAME:;
#STEPSTYPE:dance-single;
#DESCRIPTION:;
#CHARTSTYLE:;
#DIFFICULTY:Hard;
#METER:14;
#RADARVALUES:0.595343,0.764770,0.342526,0.603498,0.348642,1022.000000,938.000000,84.000000,148.000000,0.000000,0.000000,0.000000,0.000000,0.000000,0.595343,0.764770,0.342526,0.603498,0.348642,1022.000000,938.000000,84.000000,148.000000,0.000000,0.000000,0.000000,0.000000,0.000000;
#CREDIT:;
#NOTES:
// measure 0
0000
0000
0000
0000
,  // measure 1
0000
0000
0000
0000
,  // measure 2
0000
0000
0000
0000
,  // measure 3
0000
0000
0000
0000
,  // measure 4
2000
0000
0000
0000
0000
0000
3001
0000
0100
0000
0010
0000
,  // measure 5
0200
0302
0023
0230
,  // measure 6
2300
0000
0000
0000
0000
0000
0000
0000
0000
3000
0010
0100
,  // measure 7
0002
0000
0020
0033
,  // measure 8
2002
0000
0000
3003
,  // measure 9
0102
1003
2100
3001
,  // measure 10
0220
0000
0000
0330
,  // measure 11
0011
0011
1010
1010
,  // measure 12
2002
3003
0101
1100
,  // measure 13
1010
0011
0110
1001
,  // measure 14
2200
0000
0000
3300
,  // measure 15
0022
0000
0000
0033
,  // measure 16
1000
0000
0000
1000
0000
0000
0100
0000
0000
0100
0000
0000
1000
0000
0000
1000
,  // measure 17
0000
0000
0100
0000
0000
0100
0000
0000
0010
0000
0000
0010
0000
0000
0010
0000
,  // measure 18
0001
0000
0000
0001
0000
0000
0100
0000
0000
0100
0000
0000
0001
0000
0000
0001
,  // measure 19
0000
0000
0100
0000
0000
0100
0000
0000
0010
0100
0000
0010
0000
0010
1000
0000
,  // measure 20
0001
0000
0000
0001
0000
0000
0010
0000
0000
0010
0000
0000
0001
0000
0000
0001
,  // measure 21
0000
0000
0010
0000
0000
0010
0000
0000
0100
0000
0000
0100
0000
0000
0100
0000
,  // measure 22
1000
0000
0000
1000
0000
0000
0010
0000
0000
0010
0000
0000
1000
0000
0000
1000
,  // measure 23
0000
0000
0010
0000
0000
0010
0000
0000
0100
0000
0001
0000
1000
0000
0100
0000
,  // measure 24
0020
0000
0000
0001
0000
0000
0100
0000
0000
0100
0000
0000
1000
0000
0000
1000
,  // measure 25
0000
0000
0100
0000
0000
0100
0000
0000
0001
0000
0000
0031
0000
0000
0001
0000
,  // measure 26
0200
0000
0000
0001
0000
0000
0010
0000
0000
0010
0000
0000
1000
0000
0000
1000
,  // measure 27
0000
0000
0010
0000
0000
0010
0000
0000
0001
0000
0000
0301
0000
0000
0001
0000
,  // measure 28
1000
0100
0010
0100
0001
0100
0010
0100
,  // measure 29
1000
0000
0001
0000
0100
0000
0010
0000
0100
0000
0000
0101
0000
0000
0011
0000
,  // measure 30
0000
1100
0000
0000
1010
0000
0000
0110
0000
0000
1001
0000
1000
0000
0001
0000
,  // measure 31
0100
0000
0100
0000
0001
1000
0001
0000
0020
0000
0000
0000
0130
0000
0000
0000
,  // measure 32
1000
0001
1000
0001
0200
0000
0310
0200
,  // measure 33
0000
0000
0000
0000
0301
0000
0000
0000
0001
0000
1000
0000
0000
0100
0000
0000
,  // measure 34
0020
0000
0130
0020
0000
0130
1000
0002
,  // measure 35
0000
0100
0203
0000
0010
0000
0310
0000
,  // measure 36
0010
1000
0001
1000
0200
0000
0310
0200
,  // measure 37
0000
0000
0000
0000
1300
0000
0000
0000
1000
0000
0000
0001
0000
0000
0010
0000
,  // measure 38
0002
0000
0103
0002
0000
0103
0010
2000
,  // measure 39
0000
3010
0020
0000
1000
0000
0130
0000
,  // measure 40
0100
0001
1000
0001
0020
0000
0031
0020
,  // measure 41
0000
0000
0130
0020
0000
0000
0031
0000
,  // measure 42
1000
0000
0100
0020
0000
1000
0000
0031
,  // measure 43
0000
0000
0001
0000
0010
0000
0100
0000
1000
0000
0000
0001
0000
0000
1000
0000
,  // measure 44
0020
0000
0000
0000
0030
0000
1000
0001
0200
0000
0000
0000
0000
0000
0000
0000
,  // measure 45
0301
0102
1003
2010
,  // measure 46
3001
1000
0001
0020
0000
0230
0000
0320
,  // measure 47
0000
0031
2000
0000
0000
0000
3001
0000
,  // measure 48
1000
0100
0010
0100
0010
0001
1000
0010
,  // measure 49
0100
0001
0100
0001
0010
0100
1000
0001
,  // measure 50
0100
0001
1000
0001
0010
0100
0010
0001
,  // measure 51
1000
0100
1000
0001
0010
0010
0100
0100
,  // measure 52
1000
0001
1000
0100
0010
0100
1000
0001
,  // measure 53
0100
0000
1000
0000
0100
0000
0001
0000
0010
0000
0001
0000
0000
1001
0000
0000
,  // measure 54
1000
0010
0100
0001
0010
0001
0100
0010
,  // measure 55
1000
0100
1000
0001
0010
0100
0010
0100
,  // measure 56
1000
0001
1000
0100
1000
0001
0010
0002
,  // measure 57
0000
1003
1100
0101
,  // measure 58
0001
0100
0010
0100
0001
1000
0010
2000
,  // measure 59
0000
0000
0000
0000
3001
0000
0100
0000
0001
0000
0000
1000
0000
0000
0001
0000
,  // measure 60
0020
0000
0000
0000
0030
0000
0001
1000
0200
0000
0000
0000
0000
0000
0000
0000
,  // measure 61
0300
1100
1001
0011
,  // measure 62
0110
0100
1000
0100
0010
0001
0100
0020
,  // measure 63
0000
1000
2000
0000
3030
0000
1000
0001
,  // measure 64
0100
0000
0000
0100
0000
0000
0001
0000
0010
0000
0000
0000
0001
0000
1000
0000
,  // measure 65
0100
0000
0000
0100
0000
0000
1000
0000
0010
0000
0000
0000
0100
0000
0001
0000
,  // measure 66
0001
0000
0000
1000
0000
0000
0001
0000
0010
0000
0000
0000
0100
0000
0010
0000
,  // measure 67
0000
0000
0100
0000
2000
0000
0000
0000
3000
0000
0000
0000
1000
0100
1000
0100
,  // measure 68
0020
0000
0000
0000
0030
0000
0001
1000
0200
0000
0000
0000
0000
0000
0000
0000
,  // measure 69
2300
3002
0203
0320
,  // measure 70
1030
0001
1000
0010
0100
0001
1000
0001
,  // measure 71
0010
0100
1000
0001
1000
0100
0010
0001
,  // measure 72
0200
0000
0000
0000
0300
0000
0001
0100
0020
0000
0000
0000
1000
0000
2000
0000
,  // measure 73
0000
3030
0110
1001
,  // measure 74
1100
0000
0101
0101
0000
0011
0000
1010
,  // measure 75
0000
1001
2002
0000
3003
0000
0001
0100
,  // measure 76
0001
1000
0100
0001
0100
1000
0001
0100
,  // measure 77
2000
3200
0320
0230
,  // measure 78
0310
1000
0001
0010
1000
0010
0001
2000
,  // measure 79
0000
0000
0100
0000
3100
0000
0000
0000
1000
0000
0000
0001
0000
0000
0100
0000
,  // measure 80
0001
0000
1000
0000
0010
0000
0100
0000
0100
0001
0000
0001
1000
0000
1000
0100
,  // measure 81
0020
0130
0011
1100
,  // measure 82
1000
0001
0010
0001
1000
0010
1000
0002
,  // measure 83
0000
0103
1010
0110
,  // measure 84
1001
0000
1001
0000
1001
0001
0100
0020
,  // measure 85
0000
1030
0001
0000
0101
0000
1100
0000
,  // measure 86
0110
0100
1000
0100
0010
0001
0000
2002
,  // measure 87
3003
0000
0001
0000
1000
0100
0000
0100
0001
0000
0000
0000
0200
0000
0000
0000
,  // measure 88
1300
0001
1000
0020
0000
0130
0001
0100
,  // measure 89
0020
0130
0101
1010
,  // measure 90
0012
0000
0000
0000
0003
0000
0010
0100
2000
0000
0000
0000
0100
0000
0000
0000
,  // measure 91
0001
0100
0010
0100
,  // measure 92
3020
0000
0000
0000
0030
0000
1000
0001
0200
0000
0000
0000
0001
0000
0000
0000
,  // measure 93
0010
0000
0000
0010
0000
0000
0020
0000
0000
0000
0330
0000
0001
0000
1000
0000
,  // measure 94
0100
0000
0100
1000
0000
1000
0001
0000
0001
1000
0000
1000
0100
0000
0010
0000
,  // measure 95
0001
0100
0010
0010
0100
0001
1000
0100
,  // measure 96
0010
0001
0010
0000
0100
0000
1000
0010
1000
0000
0010
0000
0100
0000
0001
0000
,  // measure 97
1000
0001
1000
0001
1000
0000
0010
0000
0100
0000
0001
0000
0010
0000
0100
0000
,  // measure 98
1000
0100
0010
0000
0001
0000
0001
0100
0010
0000
1000
0010
0100
0000
0001
0000
,  // measure 99
0100
0010
1000
0100
0010
1000
0010
0001
,  // measure 100
1000
0010
1000
0000
0001
0000
0100
0001
0100
0000
0010
0000
1000
0000
0001
0000
,  // measure 101
0010
0001
1000
0000
0100
0000
0001
0000
0100
0000
1000
0000
0010
0000
0100
0000
,  // measure 102
0002
0000
0000
0000
0100
0000
0000
0000
1000
0000
0000
1000
0000
0000
1000
0000
,  // measure 103
0203
0000
0010
0000
0010
0000
0000
0000
0320
0000
0000
1000
0000
0000
0100
0000
,  // measure 104
2030
0000
0000
0000
0010
0000
0000
0000
0001
0000
0000
0010
0000
0000
0010
0000
,  // measure 105
3002
0000
0100
0000
0100
0000
0000
0000
0023
0000
0000
0001
0000
0000
0100
0000
,  // measure 106
0031
0000
0000
0001
0000
0000
1000
0000
0200
0000
0000
0000
1300
0000
0001
0000
,  // measure 107
0010
0000
0001
0000
1000
0100
1000
0000
0010
0000
1000
0000
0001
0100
0001
0000
,  // measure 108
1000
0000
0000
1000
0000
0000
0001
0000
0020
0000
0000
0000
0031
0000
1000
0000
,  // measure 109
0010
0000
0100
0000
0001
1000
0001
0000
0100
0000
0000
0000
0110
0000
0000
0000
,  // measure 110
1002
0000
0000
0000
0003
0000
1000
0001
0100
0000
0001
0000
0100
0000
0010
0000
,  // measure 111
0000
0010
1000
0000
1010
0000
0011
0000
,  // measure 112
0001
0010
0100
1000
0000
1100
0000
1001
,  // measure 113
0000
0001
0201
0000
0320
0000
2030
0000
,  // measure 114
0002
0000
0000
0000
,  // measure 115
0000
0000
0000
0000
,  // measure 116
3003
0000
0000
0000
,  // measure 117
0000
0000
0000
0000
,  // measure 118
1000
0000
1000
0100
0000
1000
0001
0000
1000
0010
0000
1000
,  // measure 119
0001
0000
0001
0100
0000
0001
1000
0000
0001
0010
0000
0010
,  // measure 120
0100
0000
0100
1000
0000
1000
0100
0000
0100
1000
0000
1000
,  // measure 121
0001
0000
0001
0100
0000
0100
0001
0000
0001
0100
0000
0100
,  // measure 122
0020
0100
0001
0100
,  // measure 123
2030
0100
3002
1000
,  // measure 124
0023
0100
1000
0100
,  // measure 125
0031
0000
0010
0000
0001
0000
2000
0000
0000
0000
3010
0000
,  // measure 126
0200
0010
1000
0010
,  // measure 127
0301
0000
1000
0000
0001
0000
0010
0000
0000
2010
0000
0000
,  // measure 128
3200
1000
0001
1000
,  // measure 129
0320
0001
1000
0001
,  // measure 130
0200
0000
0000
0000
,  // measure 131
0330
0000
0000
0000
,  // measure 132
0000
0000
2000
3002
,  // measure 133
0203
0000
0320
0230
0000
0000
0000
0302
2003
0000
3200
0000
0320
0000
0230
0000
,  // measure 134
2300
0000
0000
0000
3000
0000
0000
0000
1000
0000
0001
0000
0100
0000
0020
0000
0000
0000
0000
0000
0000
0000
0000
0000
0130
0000
0000
0001
0000
0000
1000
0000
,  // measure 135
0010
0000
1000
0000
0001
0000
0020
0000
0000
0000
0000
0000
0030
0000
0001
1000
0200
0000
0000
0000
0310
0000
0000
0000
1001
0000
0000
0000
0000
0000
0000
0000
,  // measure 136
0110
0000
0000
0000
1000
0000
0001
0000
0100
0001
0000
0100
0010
0000
1000
0000
,  // measure 137
0100
0020
0000
0000
0230
0000
2300
0000
,  // measure 138
3001
0000
0000
0000
0001
0100
0001
0100
0000
0000
1000
0100
1000
0100
0000
0000
,  // measure 139
0001
0100
0001
0100
0001
0000
1000
0000
0001
0000
0100
0000
0020
0000
0000
0000
,  // measure 140
2030
0000
0000
0000
3001
0000
0000
0010
0000
0000
1000
0000
0001
0000
0000
0100
,  // measure 141
0000
0000
1000
0000
0000
0000
1000
0001
0020
0000
0000
0000
0032
0000
0000
0000
,  // measure 142
2003
0000
3001
0010
1000
0010
0000
0010
,  // measure 143
0001
0100
2000
0000
3200
0000
0302
0000
,  // measure 144
2003
0000
0000
0000
3020
0000
0000
0000
0030
0000
1000
0001
0200
0000
0000
0000
,  // measure 145
0000
0000
0000
0000
0310
0000
1000
0000
0001
0000
1000
0100
0000
0100
0000
0010
,  // measure 146
0001
0000
0100
0000
0002
0000
0000
0000
0003
0000
0010
0100
2000
0000
0000
0000
,  // measure 147
0000
3000
2100
3002
,  // measure 148
0203
0000
0000
0000
0310
0000
0000
1010
0000
0000
1000
0000
0000
1010
0000
0000
,  // measure 149
0010
0000
0000
0110
0000
0000
0100
0000
0000
0110
0000
0000
0010
0000
0000
1001
,  // measure 150
0000
0000
0001
0000
0010
0000
0000
0011
0000
0000
0001
0000
0000
0011
0000
0000
,  // measure 151
0010
0000
0000
0110
0000
0000
0100
0000
0000
0110
0000
0000
0010
0001
0000
1000
,  // measure 152
0000
1000
0010
0000
0100
0000
0000
0101
0000
0000
0001
0000
0000
1001
0000
0000
,  // measure 153
1000
0000
0000
1100
0000
0000
0100
0000
0000
0110
0000
0000
0010
0000
0000
1001
,  // measure 154
0000
0000
1000
0000
0100
0000
0000
1100
0000
0000
1000
0000
0000
1001
0000
0000
,  // measure 155
0001
0000
0000
0101
0000
0000
0100
0000
0020
0000
0000
0000
0230
0000
0000
0000
,  // measure 156
0302
0000
0000
0000
2003
0000
0000
0100
0000
0000
3001
0000
0002
0100
0000
0000
,  // measure 157
1000
0000
0000
1000
0000
0000
0100
0000
0000
0100
0000
0000
0010
0000
0000
0013
,  // measure 158
0000
0000
0100
0000
2000
0000
0000
0001
0000
0000
0100
0000
0000
0100
0000
0000
,  // measure 159
0001
0000
0000
0001
0000
0000
0100
0000
0000
3100
0000
0000
0010
1000
0000
0001
,  // measure 160
0000
1000
0100
0000
1000
0000
0100
0000
0010
0000
0001
0000
0010
0000
0100
0000
,  // measure 161
1000
0001
0100
0010
1000
0010
0100
0001
,  // measure 162
1000
0010
0100
0001
0010
0100
1000
0100
,  // measure 163
0010
0001
0100
0010
1000
0010
0001
0100
,  // measure 164
1000
0002
0003
0000
0100
0100
0100
0100
,  // measure 165
0100
0100
0001
0001
1000
1000
0100
0100
,  // measure 166
0010
0010
0001
0010
0100
0100
1000
0010
,  // measure 167
0100
0000
0100
0000
0001
0100
0001
0000
1000
0100
1000
0000
1000
0100
1000
0001
,  // measure 168
0100
0001
1000
0010
0000
0000
0000
0000
0220
0000
0000
0000
0000
0000
0000
0000
,  // measure 169
0000
0000
0000
0000
,  // measure 170
0000
0000
0330
0000
;

//---------------dance-single - ----------------
#NOTEDATA:;
#CHARTNAME:;
#STEPSTYPE:dance-single;
#DESCRIPTION:;
#CHARTSTYLE:;
#DIFFICULTY:Medium;
#METER:11;
#RADARVALUES:0.409516,0.660483,0.130486,0.729906,0.124369,703.000000,671.000000,32.000000,179.000000,0.000000,0.000000,0.000000,0.000000,0.000000,0.409516,0.660483,0.130486,0.729906,0.124369,703.000000,671.000000,32.000000,179.000000,0.000000,0.000000,0.000000,0.000000,0.000000;
#CREDIT:;
#NOTES:
0000
0000
0000
0000
,
0000
0000
0000
0000
,
0000
0000
0000
0000
,
0000
0000
0000
0000
,
2000
0000
3002
0000
,
2003
3020
0230
0302
,
0203
0000
0000
0000
,
0320
0000
0000
0030
,
2002
0000
3003
0000
,
2000
3200
0302
0103
,
2200
0000
3300
0000
,
2000
3020
0032
0013
,
0220
0000
0330
0000
,
0102
1000
0010
1003
,
2200
0000
0000
3300
,
0022
0000
0000
0033
,
2002
0000
0000
0000
,
0000
0000
0000
3003
,
0001
0000
0000
0001
0000
0000
0200
0000
0000
0300
0000
0000
0001
0000
0000
0001
,
0000
0000
2000
0000
0000
3000
0000
0000
0010
0000
0000
0010
0000
0000
0010
0000
,
1000
0000
0000
1000
0000
0000
0200
0000
0000
0300
0000
0000
1000
0000
0000
1000
,
0000
0000
0002
0000
0000
0003
0000
0000
0010
0000
0000
0010
0000
0000
0010
0000
,
0001
0000
0000
0001
0000
0000
0200
0000
0000
0300
0000
0000
0001
0000
0000
0001
,
0000
0000
2000
0000
0000
3000
0000
0000
0010
0000
0100
0000
0010
0000
0100
0000
,
0001
0000
0000
0100
0000
0000
0020
0000
0000
0030
0000
0000
0100
0000
0000
0001
,
0000
0000
0020
0000
0000
0030
0000
0000
0001
0000
0000
1000
0000
0000
0001
0000
,
1000
0000
0000
0100
0000
0000
0020
0000
0000
0030
0000
0000
0100
0000
0000
1000
,
0000
0000
0020
0000
0000
0030
0000
0000
1000
0000
0000
0001
0000
0000
1000
0000
,
0002
0023
0230
0320
,
0032
0000
0000
0000
2003
0000
0000
0000
3010
0000
0000
0010
0000
0000
0010
0000
,
0000
0010
0000
0000
0010
0000
0000
0010
0000
0000
0010
0000
0100
0000
0010
0000
,
1000
0001
1000
0000
2000
0000
3100
0000
,
1000
0000
0001
0000
0100
0000
0010
0200
,
0000
0000
0000
0000
0000
0000
0000
0000
0300
0000
0010
0000
0000
1000
0000
0000
,
0001
0000
0010
0001
0000
0010
0100
1000
,
0000
0001
0002
0000
0000
0000
0003
0000
,
0001
0000
1000
0000
0100
0000
0010
0200
,
0000
0000
0000
0000
0000
0000
0000
0000
0310
0000
0000
0001
0000
0000
1000
0000
,
0010
0000
0100
0010
0000
0010
1000
0001
,
0000
1000
2000
0000
0000
0000
3000
0000
,
1000
0000
0001
0000
0010
0000
0100
0020
,
0000
0030
0001
0020
0000
0000
0130
0000
,
1000
0000
0001
2000
0000
3020
0000
0230
,
0000
0301
0001
0000
1000
0000
0100
0000
,
0020
0000
0030
0001
0200
0000
0000
0000
,
0000
0320
0130
0001
,
1000
0000
1000
0100
0000
1000
0000
0010
,
0000
1000
0002
0000
0000
0000
0003
0000
,
0001
0100
0010
0100
,
0001
0000
1000
0000
0001
0010
0010
0000
,
0001
1000
0010
1000
,
0001
0000
0010
0000
0100
1000
0000
0100
,
1000
0100
0010
0100
,
1000
0000
0000
0000
0001
0000
0000
0000
1000
0000
0010
0000
0000
0010
0000
0000
,
1000
0001
0100
0001
,
0100
0010
0100
0000
0001
1000
0001
0000
,
1000
0000
0010
0000
0100
0000
0100
0002
,
0000
0103
0010
1000
,
0100
0000
1000
0002
0000
0023
0000
0230
,
0000
0000
0000
0000
1300
0000
0000
0000
0001
0000
0000
0001
0000
0000
1000
0000
,
0020
0000
0030
0100
0002
0000
0000
0000
,
0003
0102
2003
3010
,
1001
0000
1000
0100
0000
1000
0000
0001
,
0000
0010
0020
0000
0000
0000
0030
0000
,
0001
0000
0000
1000
0000
0000
1000
0000
0100
0000
0000
0000
0010
0000
0000
0000
,
0001
0000
0000
1000
0000
0000
1000
0000
0010
0000
0000
0000
0100
0000
0000
0000
,
0001
0000
0000
1000
0000
0000
0001
0000
0100
0000
0000
0000
0100
0000
0010
0000
,
0000
0010
2000
0000
3000
0000
1000
0001
,
0020
0000
0030
0100
2000
0000
0000
0000
,
3000
0002
0203
0320
,
1030
0001
1000
0000
0010
0100
0010
0000
,
1000
0001
1000
0000
0100
0010
0100
0000
,
0220
0000
0000
0000
0030
0000
2300
0002
,
0000
0000
3000
0003
,
0101
0000
0100
0010
0000
0010
0000
1000
,
0000
0001
2002
0000
3003
0000
1000
0010
,
0100
0000
0001
0200
0000
0000
0300
0001
,
2000
3020
0032
0023
,
1030
0000
1000
0000
1000
0100
0010
0002
,
0000
0000
1000
0000
1003
0000
0000
0000
0001
0000
0000
0100
0000
0000
0010
0000
,
0100
0001
1000
0020
0000
0000
0030
1000
,
0200
0302
0023
2030
,
3002
0000
0003
0010
0010
0000
0001
0200
,
0000
0320
2030
3002
,
0023
0000
0000
0000
0030
0100
1000
0200
,
0000
2300
3002
0203
,
0310
0000
0010
1000
0000
0001
0000
2002
,
0000
0000
3003
2000
,
3100
1000
0100
0010
0000
0100
0010
0001
,
0020
0032
0203
0320
,
2030
0000
3000
0010
0002
0000
0000
0000
,
0000
0000
0000
0003
,
2000
0000
3000
0100
0002
0000
0000
0000
,
0100
0000
0000
1000
0000
0000
0020
0000
0000
0000
0000
0000
0033
0000
0000
0000
,
0001
0000
0000
0000
0100
0000
0000
0000
0010
0000
0000
0100
0000
0000
0001
0000
,
0000
0000
1000
0000
0010
0000
0000
0000
0100
0000
0000
0010
0000
0000
1000
0000
,
0001
0010
0100
0000
1000
0100
0010
0000
,
0000
0001
0001
0000
1000
0010
0100
0000
,
0001
0000
0000
0000
1000
0000
0000
0000
0001
0000
0000
0010
0000
0000
0100
0000
,
0000
0000
1000
0000
0001
0000
0000
0000
1000
0000
0000
0010
0000
0000
0100
0000
,
0001
0100
0010
0000
0100
0010
1000
0000
,
0000
1000
0001
0000
1000
0001
0010
0100
,
0020
0001
0100
0001
,
0230
0010
2300
0001
,
3020
0100
1000
0001
,
0230
0010
0302
1000
,
0013
0000
0000
0001
0000
0000
0010
0000
0100
0000
0000
0000
1000
0000
0200
0000
,
0000
2300
3002
0023
,
0031
0000
0000
1000
0000
0000
0010
0000
0100
0000
0000
0000
0010
0000
2000
0000
,
0000
3020
0230
0302
,
1003
0000
1000
0000
1000
0000
0000
0001
0000
0000
1000
0000
0100
0000
0010
0000
,
0000
0010
0100
0000
1100
0000
0101
0000
,
1001
0000
1000
0100
0000
0100
0000
0010
,
0000
0001
0002
0000
0023
0000
2030
0000
,
3200
0000
0000
0000
,
0000
0000
0000
0000
,
0300
0000
0000
0000
,
0000
0000
0000
0000
,
1000
1000
0100
1000
,
0001
0001
0100
0010
,
1000
0010
1000
0010
,
0100
0001
1000
0001
,
0020
0000
0000
0000
,
0032
0000
2003
0000
,
3200
0000
0000
0000
,
1300
0000
0001
0000
1000
0000
0020
0000
0000
0030
0100
0000
,
0002
0000
0000
0000
,
0013
0000
0001
0000
0010
0000
0200
0000
0000
0320
0000
0000
,
0032
0000
0000
0000
,
2000
0000
0000
3003
,
1001
0000
0000
0000
,
0000
0000
0000
0000
,
0000
0000
2000
3002
,
1003
0000
0010
2000
0000
0000
3000
0001
0200
0000
0302
0000
0023
0000
0032
0000
,
2003
0000
0000
0000
3000
0000
0000
0000
1000
0000
0001
0000
0100
0000
0020
0000
0000
0000
0000
0000
0030
0000
0000
0000
0100
0000
0000
0001
0000
0000
1000
0000
,
0010
1000
0100
0020
0000
0000
0030
0100
1000
0000
0001
0000
1001
0000
0000
0000
,
1001
0000
0001
0100
1000
0100
0010
1000
,
0001
0020
0000
0000
0130
0000
1001
0000
,
0110
0000
0001
0100
0001
1000
0010
1000
,
0100
1000
0100
0010
0001
0010
0200
0000
,
0320
0000
0000
0000
0031
0000
0000
1000
0000
0000
0100
0000
0100
0000
0000
1000
,
0000
0010
0000
0010
0100
0000
0002
0000
,
2003
0000
3001
0100
0001
0010
0000
0100
,
1000
0001
0020
0000
0032
0000
0203
0000
,
0302
0000
2003
0000
3000
0010
0002
0000
,
0000
0000
0000
0000
,
0003
0000
2000
0000
3000
0100
0002
0000
,
0000
0100
1000
0023
,
0230
0000
0000
0000
1300
0000
0000
1000
0000
0000
0200
0000
0000
0300
0000
0000
,
1000
0000
0000
1000
0000
0000
0020
0000
0000
0030
0000
0000
0100
0000
0000
0010
,
0000
0000
0100
0000
0001
0000
0000
0001
0000
0000
0200
0000
0000
0300
0000
0000
,
0001
0000
0000
0001
0000
0000
0020
0000
0000
0030
0000
0000
0100
0000
0000
0010
,
0000
0000
0001
0000
1000
0000
0000
0100
0000
0000
2200
0000
0000
3300
0000
0000
,
0100
0000
0000
1000
0000
0000
2200
0000
0000
3300
0000
0000
0100
0000
0000
1000
,
0000
0000
0001
0000
0100
0000
0000
0001
0000
0000
0202
0000
0000
0303
0000
0000
,
0001
0000
0000
0100
0000
0000
0202
0000
0000
0303
0000
0000
0100
0000
0010
0000
,
0100
0010
1000
0000
0101
0000
0001
0000
,
1100
0000
1000
0000
0101
0000
0001
1000
,
0001
0010
1100
0010
,
0101
0000
0010
0000
1100
0000
1000
0001
,
1000
0000
0001
0010
0100
0010
0001
1000
,
0010
0100
0010
1000
0001
0100
0010
0100
,
0001
1000
0100
0010
0100
1000
0001
0010
,
1000
0000
0010
0000
0001
0000
0100
0000
1000
0000
0100
0000
0010
0000
0000
0010
,
0000
0020
0030
0000
0001
1000
0001
1000
,
0001
1000
0010
0100
0010
0100
0001
1000
,
0001
1000
0100
0010
0001
1000
0010
0100
,
0001
1000
0001
0100
1000
0100
0010
0010
,
0010
0010
0000
0000
2002
0000
0000
0000
,
0000
0000
0000
0000
,
0000
0000
3003
0000
;

//---------------dance-single - ----------------
#NOTEDATA:;
#CHARTNAME:;
#STEPSTYPE:dance-single;
#DESCRIPTION:;
#CHARTSTYLE:;
#DIFFICULTY:Easy;
#METER:7;
#RADARVALUES:0.295341,0.556197,0.085631,0.456701,0.006117,507.000000,486.000000,21.000000,112.000000,0.000000,0.000000,0.000000,0.000000,0.000000,0.295341,0.556197,0.085631,0.456701,0.006117,507.000000,486.000000,21.000000,112.000000,0.000000,0.000000,0.000000,0.000000,0.000000;
#CREDIT:;
#DISPLAYBPM:90.000000:180.000000;
#NOTES:
0000
0000
0000
0000
,
0000
0000
0000
0000
,
0000
0000
0000
0000
,
0000
0000
0000
0000
,
1000
0000
0001
0000
,
1000
0010
0100
0001
,
0020
0000
0030
0000
,
0200
0000
0300
0000
,
1001
0000
0000
0000
,
0001
0001
1000
1000
,
0110
0000
0000
0000
,
1000
0100
0001
0100
,
1100
0000
0101
0000
,
1000
1000
0001
0001
,
2002
0000
0000
3003
,
0220
0000
0000
0330
,
1000
0100
0010
0010
,
0100
1000
0001
1000
,
0001
0100
0010
0010
,
0100
0001
1000
0001
,
1000
0010
0001
0001
,
0010
1000
0100
1000
,
0001
0010
1000
1000
,
0010
0001
2000
3002
,
0203
0000
0000
0000
,
0000
0000
0000
0300
,
0100
0001
1000
0001
,
0010
0001
1000
0001
,
0100
0010
1000
0100
,
0010
0000
0000
0000
0001
0000
0000
0000
1000
0000
0000
0001
0000
0000
1000
0000
,
0000
0001
0000
0000
1000
0000
0000
0001
0000
0000
1000
0000
0001
0000
1000
0000
,
0001
0001
0002
0103
,
0001
0010
0100
0010
,
0002
0003
1000
0001
,
1000
0010
0100
0010
,
1000
2000
0000
3000
,
0001
1000
0100
0010
,
0002
0003
0100
0010
,
1000
1000
0001
0100
,
0010
0200
0000
0300
,
0001
1000
0100
1000
,
0002
0003
0020
0030
,
0001
1000
0010
0100
,
0010
1000
0100
0010
,
0002
0003
2000
3000
,
0100
1000
0001
0100
,
0010
0020
0030
0100
,
0001
2000
0000
3000
,
2002
3003
0001
0100
,
0020
0030
0010
0100
,
0001
0001
1000
0100
,
0010
0200
0000
0300
,
2002
3003
1000
0100
,
1000
0020
0030
0100
,
0001
0100
1000
0100
,
0001
0020
0030
0100
,
1000
0100
1000
0001
,
0010
0001
1000
0001
,
0100
0001
1000
0010
,
0200
0300
0001
1000
,
0020
0030
0200
0000
,
0300
0100
0001
1000
,
0100
0200
0300
0010
,
0100
0020
0000
0030
,
0100
1000
0002
0003
,
0100
0001
2000
3000
,
0010
1000
0200
0300
,
1000
0002
0003
0001
,
0020
0030
0200
0000
,
0300
0100
0010
0001
,
1000
1000
0010
0010
,
0100
0100
0001
0001
,
2002
0000
0000
0000
3003
0000
0000
0220
,
0000
0330
1000
0001
,
0100
0000
0001
1000
0000
0100
0000
0100
,
0000
0010
0020
0000
0000
0000
0030
0000
,
0100
1000
0010
1000
,
0002
0203
0320
2030
,
3001
0010
0100
0010
,
0002
0000
0003
1000
,
0100
0010
0200
0300
,
1000
1000
0001
0001
,
0200
0300
0020
0030
,
0010
0100
0001
1000
,
2002
0000
3003
0001
,
0010
0001
1000
0100
,
1000
0010
0100
0010
,
0020
0000
0030
1000
,
0001
0100
0001
0010
,
1000
0010
0100
1000
,
0020
0030
0200
0000
,
0000
0000
0000
0300
,
0002
0003
2000
0000
,
0000
0000
3000
0001
,
0010
0001
0010
0001
,
1000
0100
1000
0100
,
1000
0010
0100
0010
,
1000
0001
0010
0001
,
1000
0010
1000
0010
,
0100
0001
0100
0001
,
0010
0001
1000
0001
,
0010
0100
1000
0100
,
0020
0000
0000
0030
,
0002
0003
2000
3000
,
0020
0000
0000
0030
,
0200
0300
0020
0030
,
1000
0001
0100
0010
,
2000
3000
1000
0001
,
1000
0100
0010
0001
,
2000
3000
1000
0010
,
0020
0030
0200
0300
,
0220
0000
0000
0330
,
0010
0000
1000
0001
0000
0010
0000
0010
,
0000
0100
0200
0000
0000
0000
0300
0000
,
2002
0000
0000
0000
,
0000
0000
0000
0000
,
3003
0000
0000
0000
,
0000
0000
0000
0000
,
2000
0000
3002
0000
,
0203
0000
0320
0000
,
2030
0000
0000
0000
,
3002
0000
0000
0003
,
0020
0000
0000
0000
,
0230
0000
2300
0000
,
3020
0000
0000
0000
,
0130
0001
2000
0000
,
3020
0000
0000
0000
,
1030
0001
0020
0000
,
0230
0000
0000
0000
,
2300
0000
0000
3000
,
1001
0000
0000
0000
,
0000
0000
0000
0000
,
0000
0000
2000
3002
,
1003
0100
2000
0000
3001
0100
0010
0100
,
0002
0000
0013
0100
0020
0000
0031
1000
,
0100
0010
0200
0000
1300
0001
2002
0000
,
3003
0010
1000
0100
,
0001
0020
0030
0100
,
0010
1000
1000
0001
,
0001
1000
0100
0010
,
0100
0100
1000
0001
,
0100
0010
1000
0001
,
0010
0100
1000
0001
,
1000
0010
0100
0001
,
0010
0200
0300
0020
,
0000
0000
0000
0000
,
0030
0002
0003
2000
,
0000
3000
1000
0001
,
0100
0020
0000
0000
,
0000
0000
0000
0000
,
0030
0010
0100
0001
,
0001
0100
0010
1000
,
0010
1000
0100
0010
,
0010
0100
1000
0001
,
1000
0001
0100
0010
,
1000
0100
0010
0002
,
0023
0230
0300
0020
,
0030
0001
1000
0010
,
1000
0010
0100
0001
,
0010
0100
1000
0010
,
0010
0100
0001
0010
,
0100
1000
0010
0100
,
0100
0001
1000
0010
,
1000
0001
0010
0100
,
0020
0030
2002
0000
,
0000
0000
0000
0000
,
3003
0101
1100
1010
,
0011
0000
0001
0100
0001
1000
0010
1000
,
0100
0010
0000
0000
2002
0000
0000
0000
,
0000
0000
0000
0000
,
0000
0000
3003
0000
;

//---------------dance-single - ----------------
#NOTEDATA:;
#CHARTNAME:;
#STEPSTYPE:dance-single;
#DESCRIPTION:;
#CHARTSTYLE:;
#DIFFICULTY:Beginner;
#METER:3;
#RADARVALUES:0.146797,0.309191,0.081554,0.008155,0.000000,252.000000,232.000000,20.000000,2.000000,0.000000,0.000000,0.000000,0.000000,0.000000,0.146797,0.309191,0.081554,0.008155,0.000000,252.000000,232.000000,20.000000,2.000000,0.000000,0.000000,0.000000,0.000000,0.000000;
#CREDIT:;
#DISPLAYBPM:90.000000:180.000000;
#NOTES:
0000
0000
0000
0000
,
0000
0000
0000
0000
,
0000
0000
0000
0000
,
0000
0000
0000
0000
,
1000
0000
0000
0000
,
0001
0000
0000
0000
,
0010
0000
0000
0000
,
0100
0000
0000
0000
,
1001
0000
0000
0000
,
0001
0000
1000
0000
,
1001
0000
0000
0000
,
0100
0000
0010
0000
,
0110
0000
0000
0000
,
1000
0000
0001
0000
,
0010
0000
0000
0000
,
0100
0000
0000
0000
,
1001
0000
0000
0000
,
0000
0000
0000
0000
,
0000
0000
0000
0000
,
0000
0000
0000
0000
,
0001
0000
1000
0000
,
1000
0000
0001
0000
,
0010
0000
0100
0000
,
0100
0000
0010
0000
,
0001
0000
0100
0000
,
0001
0000
0100
0001
,
1000
0000
0100
0000
,
1000
0000
0100
1000
,
0001
0000
1000
0000
,
1000
0000
1001
0000
,
0000
0000
0000
0000
,
0100
0000
0100
0000
,
1000
0000
0000
0000
,
0100
0000
0000
0000
,
0001
0000
0000
0000
,
0100
0000
0000
0000
,
1000
0000
0000
0000
,
0010
0000
0000
0000
,
0001
0000
0000
0000
,
0010
0000
0000
0000
,
1000
0000
0000
0000
,
0100
0000
0000
0000
,
0001
0000
0000
0000
,
0010
0000
0000
0000
,
0001
0000
0000
0000
,
0100
0000
0000
0000
,
1000
0000
0000
0000
,
0010
0000
0010
0000
,
1000
0000
0000
0000
,
0100
0000
0000
0000
,
0010
0000
0000
0000
,
0100
0000
0000
0000
,
0001
0000
0000
0000
,
0100
0000
0000
0000
,
0010
0000
0000
0000
,
0100
0000
0000
0000
,
1000
0000
0000
0000
,
0001
0000
0000
0000
,
0001
0000
0000
0000
,
1000
0000
0000
0000
,
0010
0000
0010
0000
,
0000
0000
0000
0000
,
0100
0000
0100
0000
,
0100
0000
0000
0000
,
0001
0000
0000
0000
,
0001
0000
0000
0000
,
1000
0000
0000
0000
,
1000
0000
0000
0000
,
0010
0000
1000
0000
,
0000
0000
0001
0000
,
0010
0000
0000
0000
,
0010
0000
0000
0000
,
0110
0000
0000
0000
,
1001
0000
0000
0000
,
1000
0000
0000
1000
0000
1000
0000
1000
,
0000
0001
0000
0000
,
1000
0000
0000
0000
,
0100
0000
1000
0000
,
0001
0000
0000
0000
,
0001
0000
0000
0000
,
0100
0000
0000
0000
,
0100
0000
0010
0000
,
1000
0000
0000
0000
,
0001
0000
0010
0000
,
0001
0000
0000
0000
,
1000
0000
0000
0000
,
0100
0000
0100
0000
,
0010
0000
0000
0000
,
0100
0000
0000
0000
,
1000
0000
0001
0000
,
1001
0000
0000
0000
,
0000
0000
0000
0000
,
0110
0000
0000
0000
,
0000
0000
0000
0000
,
0001
0000
0001
0000
,
1000
1000
1000
0000
,
0010
0000
0010
0000
,
0100
0100
0010
0000
,
1000
0000
1000
0000
,
0001
0001
0001
0000
,
0010
0000
0010
0000
,
0100
0100
0110
0000
,
0001
0000
0100
0000
,
0010
0100
0010
0000
,
1000
0000
0100
0000
,
0010
0010
0100
0000
,
1000
0000
1000
0000
,
1100
0000
0000
0000
,
0001
0000
0001
0000
,
0101
0000
0000
0000
,
0110
0000
0000
0000
,
1001
0000
0000
0000
,
1000
1000
0001
0001
,
0010
0010
0000
0000
,
1001
0000
0000
0000
,
0000
0000
0000
0000
,
0000
0000
0000
0000
,
0000
0000
0000
0000
,
0000
0000
0000
0000
,
0000
0000
0000
0000
,
0000
0000
0000
0000
,
0000
0000
0000
0000
,
0001
0000
0000
0000
,
0100
0000
0010
0000
,
1000
0000
0000
0000
,
0100
0000
0010
0000
,
0001
0000
0000
0000
,
0010
0000
0100
0000
,
1000
0000
0000
0000
,
0001
0000
0000
0000
,
1001
0000
0000
0000
,
0000
0000
0000
0000
,
0000
0000
1000
1000
,
0001
0000
0100
0000
,
0010
0000
1000
0000
,
0100
0000
0010
0100
,
0100
0000
1000
0000
,
0001
0001
0000
0100
,
0000
0010
0000
0000
,
0000
0010
0000
0000
,
0000
1000
0000
0001
,
0000
0001
0000
1000
,
0000
0100
0000
0000
,
0000
0100
0000
0000
,
0000
0010
0000
0110
,
0000
0000
0000
0000
,
0000
0001
0000
1001
,
0000
0000
0000
0000
,
0000
1000
0000
0000
,
0000
1000
0000
0010
,
0000
0100
0000
0000
,
0000
0100
0000
0001
,
0000
0010
0000
0000
,
0000
0010
0000
0001
,
0000
1000
0000
0000
,
0000
1000
0000
0001
,
0000
0100
0000
0100
,
0000
0001
0000
0001
,
0000
1000
0000
1000
,
0000
0100
0000
0100
,
0000
0010
0000
0010
,
0000
0001
0000
0001
,
0000
1000
0000
1000
,
0000
0010
0000
0010
,
0000
0000
0220
0000
,
0000
0330
0000
0000
,
0000
1000
0100
0001
,
0100
1000
0010
0001
,
0010
0000
1001
0000
;
