#TITLE:Chances are untrue;
#SUBTITLE:;
#ARTIST:SM-MEGAtive;
#TITLETRANSLIT:;
#SUBTITLETRANSLIT:;
#ARTISTTRANSLIT:;
#GENRE:;
#CREDIT:;
#BANNER:Chances are untrue.png;
#BACKGROUND:Chances are untrue-bg.png;
#LYRICSPATH:;
#CDTITLE:cdtitle.png;
#MUSIC:Chances are untrue.ogg;
#OFFSET:0.000000;
#SAMPLESTART:82.461998;
#SAMPLELENGTH:12.308000;
#SELECTABLE:YES;
#BPMS:0.000000=195.000000
;
#STOPS:
;
#BGCHANGES:;
#KEYSOUNDS:;
#ATTACKS:;

//---------------dance-single - MEGAtive----------------
#NOTES:
     dance-single:
     :
     Beginner:
     5:
     0.166574,0.233991,0.039392,0.157570,0.000000,148.000000,143.000000,5.000000,20.000000,0.000000,0.000000,0.166574,0.233991,0.039392,0.157570,0.000000,148.000000,143.000000,5.000000,20.000000,0.000000,0.000000:
0000
0000
0000
0000
,
0000
0000
0000
0000
,
0000
0000
0000
0000
,
0000
0000
0000
0000
,
0000
0000
0000
0000
,
0000
0010
0000
0010
,
0000
0010
0000
0010
,
0000
0100
0000
0100
,
0200
0000
0000
0000
,
0301
0000
0000
0000
,
0010
0000
0000
0000
,
0100
0000
0000
0000
,
2000
0000
0000
0000
,
3020
0000
0000
0000
,
0000
0000
0000
0030
,
0100
0000
0000
0000
,
0001
0000
0010
0000
,
0001
0000
0000
0000
,
1000
0000
0000
0000
,
0010
0000
0000
0000
,
0100
0000
0001
0000
,
0100
0000
0000
0000
,
0010
0000
1000
0000
,
0001
0000
0000
0000
,
1000
0000
0100
0000
,
0010
0000
0000
0000
,
0001
0000
0100
0000
,
0010
0000
0000
0000
,
1000
0000
0001
0000
,
0020
0000
0000
0000
,
0000
0000
0000
0000
,
0230
0000
0000
0000
,
0000
0000
0000
0000
,
1300
0000
0000
0000
,
1000
0000
0000
0000
,
0001
0000
0100
0000
,
0010
0000
0000
0000
,
1000
0000
0001
0000
,
0100
0000
0010
0000
,
2000
0000
0000
0000
,
0000
0000
0000
0000
,
3001
0000
0010
0000
,
0100
0000
1000
0000
,
0020
0000
0000
0000
,
0000
0000
0030
0000
,
1000
0000
0001
0000
,
0100
0000
0010
0000
,
2000
0000
0000
0000
,
0000
0000
3000
0000
,
0100
0000
0010
0000
,
0001
0000
1000
0000
,
0020
0000
0000
0000
,
0000
0000
0030
0000
,
2002
0000
0000
0000
,
3003
0000
0000
0000
,
2002
0000
0000
0000
,
3003
0000
0000
0000
,
2002
0000
0000
0000
,
3003
0000
0000
0000
,
2002
0000
0000
0000
,
3003
0000
0000
0000
,
1000
0000
0000
0000
,
1000
0000
0000
0000
,
0010
0000
0100
0000
,
0001
0000
0000
0000
,
2002
0000
0000
0000
,
3003
0000
0000
0000
,
1000
0100
0000
0010
,
0000
0100
0000
1000
,
0001
0100
0000
0010
,
0000
0100
0000
0001
,
1000
0100
0000
0010
,
0000
0100
0000
0010
,
0001
0100
0000
0010
,
0000
0100
0000
0010
,
0000
1000
0000
0100
,
0000
0010
0000
0001
,
1000
0010
0000
0100
,
0000
0001
0000
1000
,
0001
0010
0000
0100
,
0000
1000
0000
0001
,
1000
0010
0000
0100
,
0000
0001
0000
1000
,
0000
0001
0010
0001
,
0000
1000
0000
0001
,
0000
1000
0010
1000
,
0000
0001
0000
1000
,
0000
0001
0100
0001
,
0000
1000
0000
0001
,
0000
1000
0100
1000
,
0000
0001
0000
1000
,
0001
0000
0100
0000
,
0010
0000
1000
0000
,
0100
0000
0010
0000
,
0001
0000
0100
0000
,
0010
0000
1000
0000
,
0001
0000
0010
0000
,
0100
0000
1000
0000
,
0002
0000
0000
0000
,
0003
0000
0000
0000
;

//---------------dance-single - MEGAtive----------------
#NOTES:
     dance-single:
     :
     Easy:
     8:
     0.288127,0.389985,0.118177,0.149691,0.000000,256.000000,241.000000,15.000000,19.000000,0.000000,0.000000,0.288127,0.389985,0.118177,0.149691,0.000000,256.000000,241.000000,15.000000,19.000000,0.000000,0.000000:
0000
0000
0000
0000
,
0000
0000
0000
0000
,
0000
0000
0000
0000
,
0000
0000
0000
0000
,
0000
0000
0000
0000
,
1000
0100
0000
0100
,
0000
0100
0000
0100
,
1000
0010
0000
0010
,
0220
0000
0330
0000
,
0001
0000
0001
0000
,
1000
0000
1000
0000
,
0100
0010
0001
0010
,
0100
0000
0000
0000
,
2002
0000
0000
0000
,
0000
0000
3003
0000
,
1000
0000
0100
0000
0000
0010
0100
0000
,
1000
0001
0010
0100
,
1000
0000
0010
0000
0000
0100
0010
0000
,
1000
0001
0100
0010
,
1000
0000
0100
0000
0000
0010
0100
0000
,
1000
0001
0010
0100
,
1000
0000
0010
0000
0000
0100
0001
0000
,
1000
0000
0010
0000
0000
0100
0010
0000
,
1000
0000
0100
0000
0000
0010
0001
0000
,
1000
0000
0100
0010
0000
0100
1000
0000
,
0001
0000
0100
0000
0000
0010
1000
0000
,
0001
0000
0100
0000
0000
0010
0100
0000
,
0001
0000
0010
0000
0000
0100
1000
0000
,
0001
0000
0010
0100
0000
0010
0001
0000
,
2000
0000
0000
0000
,
0000
0000
0000
3020
,
0230
0000
0000
0000
,
0000
0000
0000
0302
,
1003
0000
1000
0000
,
0100
0000
0100
0000
,
0010
0001
1000
0001
,
0100
0000
0000
0000
,
0001
0100
1000
0000
,
1000
0100
0001
0000
,
0001
0000
0010
0000
1000
0000
0000
1000
,
0000
0010
0000
0000
0001
0000
0000
0000
,
1000
0010
0001
0000
,
0001
0010
1000
0000
,
1000
0000
0100
0000
0001
0000
0000
0001
,
0000
0100
0000
0000
1000
0000
0000
0000
,
1000
0010
0001
0000
,
0001
0010
1000
0000
,
1000
0000
0100
0000
0001
0000
0000
0001
,
0000
0100
0000
0000
1000
0000
0000
0000
,
0001
0100
1000
0000
,
1000
0100
0001
0000
,
0001
0000
0010
0000
1000
0000
0000
1000
,
0000
0010
0000
0010
0000
0000
0000
0000
,
2002
0000
0000
0000
,
3003
0000
0000
0000
,
0220
0000
0000
0000
,
0330
0000
0000
0000
,
2002
0000
0000
0000
,
3003
0000
0000
0000
,
0220
0000
0000
0000
,
0330
0000
0000
0000
,
1000
0000
1000
0000
,
0010
0000
0010
0000
,
0100
0000
0100
0000
,
0001
0000
0001
0000
,
2002
0000
0000
0000
,
0000
0000
3003
0000
,
1000
0100
0001
0000
,
0100
1000
0010
0000
,
0100
0001
0010
0000
,
1000
0010
0001
0000
,
1000
0010
0001
0000
,
0010
1000
0100
0000
,
0010
0001
0100
0000
,
1000
0100
0001
0000
,
0000
1000
0100
0000
,
0001
0100
1000
0000
,
0010
0100
0001
0000
,
1000
0100
0001
0000
,
0100
1000
0010
0000
,
0001
0010
1000
0000
,
0100
0001
0100
0000
,
1000
0010
0100
0000
,
0000
0001
0100
1000
,
0100
0001
0000
0001
,
1000
0100
0001
0100
,
1000
0000
1000
0000
,
0001
0010
1000
0010
,
0001
0000
0001
0000
,
1000
0010
0001
0010
,
1000
0000
1000
0000
,
1001
0000
0110
0000
,
1001
0000
0110
0000
,
0011
0000
1100
0000
,
0011
0000
1100
0000
,
1000
0100
0001
0000
,
0001
0100
1000
0000
,
0001
0100
1000
0100
,
0002
0000
0000
0000
,
0003
0000
0000
0000
;

//---------------dance-single - MEGAtive----------------
#NOTES:
     dance-single:
     :
     Medium:
     11:
     0.458077,0.545979,0.126056,0.267868,0.000000,407.000000,391.000000,16.000000,34.000000,0.000000,0.000000,0.458077,0.545979,0.126056,0.267868,0.000000,407.000000,391.000000,16.000000,34.000000,0.000000,0.000000:
0000
0000
0000
0000
,
0000
0000
0000
0000
,
0000
0000
0000
0000
,
0000
0000
0000
0000
,
0000
0000
0000
0000
,
1000
0100
0000
0100
,
0000
0010
0000
0010
,
0001
0100
0000
0100
,
0202
0000
0000
0303
,
0001
0100
1000
0100
,
0001
0010
1000
0010
,
0001
1000
0001
0000
0100
0010
0100
0000
,
0001
0000
0000
1100
,
1000
0000
0200
0000
0300
0002
0000
0003
,
0100
1000
0002
0000
0203
0000
0310
0000
,
0010
0000
1000
0001
0010
0000
1000
0000
,
0010
0001
2000
0000
3200
0000
0310
0000
,
0001
0000
1000
0001
0100
0000
1000
0000
,
0100
0001
2000
0000
3020
0000
0130
0000
,
0001
0000
1000
0001
0010
0000
1000
0000
,
0010
0001
2000
0000
3200
0000
1300
0000
,
1100
0000
1000
0010
0000
0010
0001
0000
,
0001
0010
0000
0010
1000
0001
1000
0000
,
0001
0000
0001
0010
0000
0010
1000
0000
,
1000
0010
0000
0010
0001
1000
0001
0000
,
1000
0000
0001
0100
0000
0100
1000
0000
,
1000
0100
0000
0100
0001
1000
0001
0000
,
0001
0000
1000
0100
0000
0100
0001
0000
,
0001
0100
0000
0100
1000
0001
1000
0000
,
0002
0000
0000
0000
,
0000
0000
0000
0203
,
0320
0000
0000
0000
,
0000
0000
0000
2030
,
3100
0001
0100
1000
,
0010
0001
0010
1000
,
0001
0100
0001
1000
0200
0000
0320
0000
,
0130
0000
0000
1100
,
1000
0000
0010
0000
1010
0000
1000
0001
,
0010
0100
0110
0000
,
0010
0001
1000
0000
0010
1000
0001
0000
,
1000
0100
0010
0000
0200
0000
0000
0000
,
1300
0000
0100
0000
1100
0000
1000
0001
,
0100
0010
0110
0000
,
0200
0000
0000
0000
0301
0010
0100
0000
,
1000
0010
0100
0010
2000
0000
0000
0000
,
3001
0000
0010
0000
0011
0000
0001
1000
,
0010
0100
0110
0000
,
0010
1000
0001
0000
0010
0001
1000
0000
,
0001
0100
0010
0000
0200
0000
0000
0000
,
0301
0000
0100
0000
0101
0000
0001
1000
,
0100
0010
0110
0000
,
0200
0000
0000
0000
1300
0010
0100
0001
,
0000
0001
0000
0001
0000
0000
0000
0000
,
2002
0000
0000
0000
,
3003
0000
0000
0000
,
2020
0000
0000
0000
,
3030
0000
0000
0000
,
0022
0000
0000
0000
,
0033
0000
0000
0000
,
0220
0000
0000
0000
,
0330
0000
0000
0000
,
1000
0010
0100
0001
,
1000
0100
0010
0001
,
1000
0010
1000
0000
0001
0010
0001
0000
,
0100
0010
1000
0000
0001
0010
0100
0000
,
2000
0000
0000
0000
,
0000
0000
0000
3001
,
0001
0000
1000
0010
0100
0000
0001
0000
,
1000
0000
0100
0010
0100
0010
0001
0000
,
1000
0000
0001
0010
0100
0000
1000
0000
,
0010
0000
0100
0001
0100
0001
0010
0000
,
0001
0000
1000
0100
0010
0000
0001
0000
,
1000
0000
0010
0100
0010
0100
0001
0000
,
1000
0000
0001
0100
1000
0000
0100
0000
,
0010
0000
1000
0000
0001
0010
0001
0000
,
0000
0000
0001
0100
0010
0000
1000
0000
,
0001
0000
0010
0100
0010
0100
1000
0000
,
0001
0000
1000
0100
0010
0000
0001
0000
,
0100
0000
0010
1000
0010
1000
0100
0000
,
1000
0000
0001
0010
0100
0000
1000
0000
,
0001
0000
0100
0010
0100
0010
1000
0000
,
0001
0000
1000
0010
0001
0000
0010
0000
,
0100
0000
0001
0000
1000
0100
1000
0000
,
0000
0000
0001
0010
0001
0000
0100
0000
,
0010
1000
0001
0000
0010
0100
1000
0000
,
0001
0000
0100
0010
0100
0000
0001
0000
,
0010
0100
1000
0000
0001
0100
0010
0000
,
1000
0000
0100
0010
0100
0000
1000
0000
,
0010
0100
0001
0000
0010
0100
1000
0000
,
0001
0000
0100
0010
0100
0000
0001
0000
,
0010
0100
1000
0000
0001
0100
0010
0000
,
1000
0000
1000
0000
0001
0000
0001
0010
,
0100
0000
0100
0000
1000
0010
0100
0010
,
1000
0000
1000
0000
0001
0000
0001
0100
,
0010
0000
0010
0000
1000
0001
0010
0001
,
0100
0000
0010
1000
0001
0000
0010
0100
,
1000
0000
0010
0100
0001
0000
1000
0100
,
0010
0000
0100
1000
0001
0000
0100
0010
,
2000
0000
0000
0002
,
3003
0000
0000
0000
;

//---------------dance-single - MEGAtive----------------
#NOTES:
     dance-single:
     :
     Hard:
     14:
     0.658416,0.701973,0.181205,0.386046,0.015757,585.000000,562.000000,23.000000,49.000000,0.000000,0.000000,0.658416,0.701973,0.181205,0.386046,0.015757,585.000000,562.000000,23.000000,49.000000,0.000000,0.000000:
// measure 0
0000
0000
0000
0000
,  // measure 1
0000
0000
0000
0000
,  // measure 2
0000
0000
0000
0000
,  // measure 3
0000
0000
0000
0000
,  // measure 4
0000
0000
0000
0000
,  // measure 5
0002
0010
0000
0010
,  // measure 6
0000
0000
0010
0000
0000
0010
0010
0000
,  // measure 7
2003
0010
0000
3010
,  // measure 8
2002
0000
0000
3003
,  // measure 9
1000
0100
0010
0100
1000
0100
0010
0100
,  // measure 10
1000
0010
0100
0010
1000
0010
0100
0010
,  // measure 11
1000
0001
0010
0100
0010
0001
0100
0010
,  // measure 12
1000
0000
0000
1010
,  // measure 13
1000
0000
0100
0001
0100
1000
0010
0000
,  // measure 14
0001
0010
0200
0000
0302
0000
1003
0000
,  // measure 15
1010
0000
0010
0001
0010
1000
0100
0010
,  // measure 16
0100
1000
0002
0000
0203
0000
0301
0000
,  // measure 17
0011
0000
0010
1000
0010
0001
0100
0010
,  // measure 18
1000
0010
0200
0000
0302
0000
1003
0000
,  // measure 19
1010
0000
0010
0001
0010
1000
0100
0010
,  // measure 20
0100
1000
0020
0000
0230
0000
0301
0000
,  // measure 21
1001
0000
1000
0100
0001
0100
1000
0000
,  // measure 22
1000
0100
0001
0100
1000
0010
0100
0001
,  // measure 23
1000
0000
0001
0100
1000
0100
0001
0000
,  // measure 24
0001
0100
1000
0100
0001
0010
0100
1000
,  // measure 25
0001
0000
0001
0010
1000
0010
0001
0000
,  // measure 26
0001
0010
1000
0010
0001
0100
0010
1000
,  // measure 27
0001
0000
1000
0010
0001
0010
1000
0000
,  // measure 28
1000
0010
0001
0010
1000
0100
0010
0001
,  // measure 29
1000
0000
0000
0000
1000
0000
1000
0000
0000
0000
0000
0010
0000
0000
0100
0000
,  // measure 30
0001
0000
0000
0000
0001
0000
0000
0000
0000
0010
0000
0000
0100
0000
0000
0000
,  // measure 31
0010
0000
0000
0000
0001
0000
0001
0000
0000
0000
0000
0100
0000
0000
0010
0000
,  // measure 32
1000
0000
0000
0000
1000
0000
0000
0000
0000
0100
0000
0000
0010
0000
0000
0000
,  // measure 33
0100
0000
1000
0001
0100
0000
0010
1000
,  // measure 34
0100
0000
0010
0001
0100
0000
0010
1000
,  // measure 35
0100
0001
0100
1000
0010
0100
0001
0010
,  // measure 36
0100
0000
0000
1100
,  // measure 37
1000
0000
0001
0010
1000
0010
0100
0010
,  // measure 38
0002
0000
0000
0100
0103
0010
2000
0000
,  // measure 39
3100
0001
0100
0000
1000
0010
0001
0010
,  // measure 40
1000
0001
1000
0100
0020
0000
0000
0000
,  // measure 41
0032
0000
0100
0100
0103
1000
0100
0010
,  // measure 42
0200
0000
0001
0001
0301
0010
0200
0000
,  // measure 43
2300
0000
0001
0000
3010
0100
0001
1000
,  // measure 44
0100
0001
0100
1000
0001
0100
0001
0100
,  // measure 45
0001
0000
1000
0010
0001
0010
0100
0010
,  // measure 46
2000
0000
0000
0100
3100
0010
0002
0000
,  // measure 47
0103
1000
0100
0000
0001
0010
1000
0010
,  // measure 48
0001
1000
0001
0100
0020
0000
0000
0000
,  // measure 49
2030
0000
0100
0100
3100
0001
0100
0010
,  // measure 50
0200
0000
1000
1000
1300
0010
0200
0000
,  // measure 51
0302
0000
1000
0000
0013
0100
1000
0001
,  // measure 52
0000
0101
0000
0101
0000
0000
0000
0000
,  // measure 53
2002
0000
0000
0003
,  // measure 54
3001
0010
0001
0010
1000
0010
0001
0000
,  // measure 55
2002
0000
0000
3000
,  // measure 56
1003
0010
0001
0010
1000
0010
1000
0000
,  // measure 57
2001
0001
0000
0000
0001
0000
0000
0000
,  // measure 58
3001
0010
0001
0010
1000
0010
0001
0000
,  // measure 59
2002
0000
0000
3000
,  // measure 60
1003
0010
0001
0010
1000
0010
0100
0001
,  // measure 61
1000
0100
1000
0000
0010
0100
0010
0000
,  // measure 62
1000
0100
1000
0000
0010
0100
0010
0000
,  // measure 63
0100
0001
1000
0001
0010
0100
0010
0100
,  // measure 64
1000
0010
0100
0010
0001
0010
0100
0010
,  // measure 65
2000
0000
0000
0000
,  // measure 66
0000
0000
0000
3002
,  // measure 67
0103
0010
1000
0100
0001
0200
0000
0320
,  // measure 68
0000
0031
1000
0010
0100
1000
0100
0001
,  // measure 69
0010
0100
0010
0001
0100
2000
0000
3200
,  // measure 70
0000
0310
1000
0001
0010
0100
0010
0001
,  // measure 71
0100
0010
1000
0100
0001
0200
0000
0320
,  // measure 72
0000
0031
1000
0010
0100
1000
0100
0001
,  // measure 73
0010
0100
0001
0100
0010
0100
1000
0001
,  // measure 74
0100
0010
0100
1000
0100
0010
1000
0001
,  // measure 75
0010
0000
0100
0001
0100
2000
0000
3020
,  // measure 76
0000
0130
1000
0100
0010
1000
0001
0010
,  // measure 77
0100
0010
0001
1000
0010
0002
0000
0023
,  // measure 78
0000
0130
0001
1000
0100
0010
0100
1000
,  // measure 79
0010
0100
0001
0010
1000
0020
0000
0032
,  // measure 80
0000
0103
0010
0001
0010
0100
0001
1000
,  // measure 81
0100
0010
0100
1000
0010
0100
0001
1000
,  // measure 82
0100
0010
0100
0001
0100
0010
0001
1000
,  // measure 83
0010
0000
1000
0010
0001
0010
1000
0010
,  // measure 84
0001
1000
0100
0001
0010
1000
0010
0000
,  // measure 85
0001
0010
1000
0010
0001
0010
1000
0001
,  // measure 86
0100
1000
0010
0001
0010
1000
0001
0000
,  // measure 87
0001
0100
1000
0100
0001
0100
1000
0001
,  // measure 88
0010
1000
0100
0001
0100
1000
0001
0000
,  // measure 89
0001
0010
1000
0010
0001
0010
1000
0001
,  // measure 90
0100
1000
0010
0001
0010
1000
0001
0000
,  // measure 91
0101
0000
0101
0000
0101
0000
0001
1000
,  // measure 92
1100
0000
1100
0000
0100
1000
0010
0100
,  // measure 93
0110
0000
0110
0000
0110
0000
0100
0001
,  // measure 94
0011
0000
0011
0000
0010
0001
0100
0010
,  // measure 95
1000
0001
0010
0100
1000
0001
0100
0010
,  // measure 96
0100
0001
0010
0100
1000
0010
0100
0010
,  // measure 97
1000
0100
0001
0100
1000
0010
0001
0010
,  // measure 98
0200
0000
0000
0002
,  // measure 99
0303
0000
0000
0000
;

//---------------dance-single - MEGAtive----------------
#NOTES:
     dance-single:
     :
     Challenge:
     17:
     0.892519,0.974962,0.118177,0.362410,0.709063,793.000000,778.000000,15.000000,46.000000,2.000000,0.000000,0.892519,0.974962,0.118177,0.362410,0.709063,793.000000,778.000000,15.000000,46.000000,2.000000,0.000000:
0000
0000
0000
0000
,
0000
0000
0000
0000
,
0000
0000
0000
0000
,
0000
0000
0000
0000
,
0000
0000
0000
0000
,
2000
0100
0000
0100
,
0000
0000
0100
0000
0000
0100
0100
0000
,
3002
0100
0000
0100
,
0203
0000
1300
0001
0010
0100
0002
0000
,
1003
0100
0010
0100
1000
0010
0100
0001
,
0010
0100
0010
0001
0100
0010
0100
0001
,
1000
0100
1000
0100
0010
0001
0100
0010
1000
0001
0010
0100
0010
0001
1000
0010
,
0100
1000
0100
0001
0010
1000
0010
0000
,
0001
0000
0010
0000
0100
1000
0100
1000
0010
0000
0100
0010
0100
0010
1000
0000
,
0001
0000
0000
0001
0000
0000
0010
0000
0100
0000
0010
0000
0001
0000
1000
0000
0001
0000
1000
0000
0000
0000
0000
0000
,
0010
0000
1000
0000
0001
0010
0001
0010
0100
0000
0010
0001
0010
0001
0100
0000
,
0010
0000
0000
0010
0000
0000
1000
0000
0100
0000
1000
0000
0010
0000
0100
0000
0001
0000
0010
0000
0000
0000
0000
0000
,
0010
0000
0001
0000
1000
0010
1000
0010
0100
0000
0010
1000
0010
1000
0100
0000
,
0010
0000
0000
0010
0000
0000
0001
0000
0100
0000
0001
0000
0010
0000
0100
0000
1000
0000
0010
0000
0000
0000
0000
0000
,
0100
0000
0001
0000
1000
0100
1000
0100
0010
0000
0100
1000
0100
1000
0010
0000
,
0100
0000
0000
0100
0000
0000
0001
0000
0010
0000
0001
0000
0100
0000
0010
0000
1000
0000
0100
0000
0000
0000
0000
0000
,
0100
0000
1000
0000
0001
0100
0010
0100
0001
0000
0100
0010
1000
0010
0100
0000
,
0001
0000
0000
0001
0000
0000
1000
0000
0010
0000
1000
0000
0010
0000
0001
0000
0010
0000
0100
0000
0000
0000
0000
0000
,
0010
0000
1000
0000
0001
0010
0100
0010
0001
0000
0010
0100
1000
0100
0010
0000
,
0001
0000
0000
0001
0000
0000
1000
0000
0100
0000
1000
0000
0100
0000
0001
0000
0100
0000
0010
0000
0000
0000
0000
0000
,
0010
0000
0001
0000
1000
0010
0100
0010
1000
0000
0010
0100
0001
0100
0010
0000
,
1000
0000
0000
1000
0000
0000
0001
0000
0100
0000
0001
0000
0100
0000
1000
0000
0100
0000
0010
0000
0000
0000
0000
0000
,
0100
0000
0001
0000
1000
0100
0010
0100
1000
0000
0100
0010
0001
0010
0100
0000
,
1000
0000
0000
1000
0000
0000
0001
0000
0010
0000
0001
0000
0010
0000
1000
0000
0010
0000
0100
0000
0000
0000
0000
0000
,
2000
0000
0000
0000
0010
0000
0010
0000
3002
0000
0000
0010
0000
0000
0010
0000
,
2003
0000
0000
0000
0100
0000
0000
0000
0000
0100
0000
0000
0100
0000
0000
0000
,
3002
0000
0000
0000
0100
0000
0100
0000
2003
0000
0000
0100
0000
0000
0100
0000
,
3002
0000
0000
0000
0010
0000
0000
0000
0000
0010
0000
0000
0010
0000
0000
0000
,
1003
0000
0100
0010
0100
0000
1000
0000
0010
0100
0010
0100
0001
0000
0010
0000
,
0001
0000
0100
0010
0100
0000
0001
0010
0001
0010
0100
0000
1000
0000
0010
0000
,
0100
0000
1000
0000
0001
0000
0010
0000
0100
0010
0100
0010
1000
0001
0010
0100
,
1000
0000
0000
1100
,
0101
0000
0001
0100
1000
0001
0010
0100
,
0002
1000
1003
0100
0200
0010
2300
0000
,
3001
0000
0100
0010
0100
0000
0001
0000
1000
0000
0100
0010
0100
0000
1000
0000
,
0001
0000
0000
0100
0000
0000
0001
0000
0000
0100
0000
0000
0010
0000
0000
0000
1000
0000
0000
0000
0001
0000
0000
0000
2000
0000
0000
0000
0000
0000
0100
0000
0000
0000
0000
0000
0100
0000
0000
0000
0000
0000
3100
0000
0000
0000
0000
0000
,
1100
0000
1000
0020
0001
0001
0001
0031
,
0010
0000
1000
0200
0010
0001
0010
0000
,
2300
0000
0000
0000
3001
0000
0000
0000
0100
0010
0100
0010
0100
0000
0001
1000
,
0001
1000
0100
0000
0010
0100
0010
0100
2000
0000
0001
0000
0010
0000
3001
0000
,
1100
0000
1000
0100
0001
1000
0010
0100
,
2000
0001
3001
0100
0200
0010
0302
0000
,
1003
0000
0100
0010
0100
0000
1000
0000
0001
0000
0100
0010
0100
0000
0001
0000
,
1000
0000
0000
0100
0000
0000
1000
0000
0000
0100
0000
0000
0010
0000
0000
0000
0001
0000
0000
0000
1000
0000
0000
0000
0002
0000
0000
0000
0000
0000
0100
0000
0000
0000
0000
0000
0100
0000
0000
0000
0000
0000
0103
0000
0000
0000
0000
0000
,
0101
0000
0001
0020
1000
1000
1000
1030
,
0010
0000
0001
0200
0010
1000
0010
0000
,
0301
0000
0000
0000
1000
0000
0000
0000
0100
0010
0100
0010
0100
0000
1000
0001
,
1000
1010
0000
1010
0000
0000
0000
0000
,
2002
0000
0000
0003
,
3001
0010
0100
0001
1000
0010
0100
1000
,
2002
0000
0000
3000
,
1003
0000
0000
1000
0000
0010
0100
0000
1000
0000
0001
0000
0010
0000
0100
0000
,
0102
0100
0000
0000
1000
0000
0000
0000
,
1003
0100
0010
1000
0001
0100
0010
0001
,
2002
0000
0000
0003
,
3001
0000
0000
0001
0000
0100
0010
0000
0001
0000
1000
0000
0100
0000
0010
0000
,
1000
0001
0010
0000
1000
0010
0001
0010
,
0001
1000
0010
0000
0001
0010
1000
0010
,
1000
0001
0010
1000
0001
0100
0010
0001
,
1000
0010
1000
0001
0100
0010
0100
0001
1000
0001
0100
0010
0100
0001
1000
0001
,
0020
0000
0000
0000
,
0000
0000
0000
0000
0000
0030
0011
0000
,
0001
0000
0010
0000
1000
0000
0010
0000
0001
0000
0100
0000
0010
0001
0020
0000
,
0000
0130
0010
1000
0001
0010
1000
0010
,
0001
0000
0100
0000
1000
0000
0100
0000
0001
0000
0010
0000
0100
0001
0200
0000
,
0000
0000
0310
0000
0100
0000
1000
0000
0010
0000
0001
0000
0010
0000
1000
0010
,
1000
0000
0010
0000
0001
0000
0010
0000
1000
0000
0100
0000
0010
1000
0020
0000
,
0000
0130
0010
0001
1000
0010
0001
0010
,
1000
0000
1000
0000
0100
0010
0100
0010
0001
0000
0100
0000
1000
0000
0100
0000
,
0001
0010
0100
1000
0010
0001
0010
0100
,
0001
0000
0M00
0000
0001
0000
0100
0000
1000
0000
0001
0000
0100
1000
0200
0000
,
0000
0301
0100
0001
0010
0100
0001
0100
,
1000
0000
0010
0000
0001
0000
0010
0000
1000
0000
0001
0000
0010
1000
0020
0000
,
0000
0130
0010
0100
1000
0010
0001
0010
,
1000
0000
0100
0000
0001
0000
0100
0000
1000
0000
0001
0000
0100
1000
0200
0000
,
0000
0301
0100
0001
0010
0100
0001
0100
,
1000
0000
1000
0000
0010
0100
0010
0100
0001
0000
0010
0000
0100
0000
0001
0000
,
0100
0010
0001
0100
1000
0100
0001
0010
,
1000
0000
00M0
0000
1000
0000
0001
0000
0100
0010
0100
0001
0000
0001
0010
0000
,
0010
0000
0001
1000
0010
0000
0100
0001
1000
0100
0000
0100
2000
0000
0000
0000
,
3001
0000
0100
0010
0100
0000
0001
0000
0010
0100
1000
0010
0000
0010
0100
0000
,
0001
0000
0010
0100
1000
0000
0001
0000
0100
0010
0000
0100
0010
0000
1000
0000
,
0001
0000
0100
0000
0001
0000
1000
0000
0100
0010
0100
1000
0000
1000
0010
0000
,
0010
0000
1000
0001
0010
0000
0100
1000
0001
0100
0000
0100
0002
0000
0000
0000
,
1003
0000
0100
0010
0100
0000
1000
0000
0010
0100
0001
0010
0000
0010
0100
0000
,
1000
0000
0010
0100
0001
0000
1000
0000
0100
0010
0000
0100
0010
0000
0100
0000
,
1000
0000
0010
0100
0010
0000
1000
0000
0100
0010
0100
0010
0001
0000
1000
0000
,
0010
0000
0100
0001
0100
0000
0010
1000
0100
0010
0000
0000
0110
0000
0100
1000
,
0001
0000
0100
0010
0100
0000
0001
0000
0010
0100
0010
0100
1000
0000
0001
0000
,
0100
0000
0010
1000
0010
0000
0100
0001
0010
0100
0000
0000
0110
0000
0010
0001
,
1000
0010
0001
1000
0100
0001
0010
0100
,
0001
1000
0010
0100
1000
0001
0100
1000
,
0100
0010
0100
0010
1000
0010
0100
0010
1000
0010
0100
0001
0010
0100
1000
0010
,
0200
0302
0023
0230
0300
0000
2002
0000
,
3003
0000
0000
0000
;
