#VERSION:0.83;
#TITLE:宵月の歌姫;
#SUBTITLE:;
#ARTIST:OSTER project feat. りぼんぬ;
#TITLETRANSLIT:Yoizuki no utahime;
#SUBTITLETRANSLIT:;
#ARTISTTRANSLIT:OSTER project feat. Ribonnu;
#GENRE:;
#CREDIT:;
#MUSIC:Yoizuki no utahime.ogg;
#BANNER:Yoizuki no utahime.png;
#BACKGROUND:Yoizuki no utahime-bg.png;
#CDTITLE:;
#SAMPLESTART:76.430;
#SAMPLELENGTH:15.000;
#SELECTABLE:YES;
#OFFSET:-0.772;
#BPMS:0.000=210.000;
#STOPS:;
#SPEEDS:0.000=1.000=0.000=0;
#SCROLLS:0.000=1.000;
#TICKCOUNTS:0.000=4;
#TIMESIGNATURES:0.000=5=4,
20.000=3=4,
32.000=4=4,
44.000=3=4,
386.000=4=4
;
#LABELS:0.000=Song Start;
#COMBOS:0.000=1;
#ORIGIN:;
#TAGS:;
#PREVIEWVID:;
#JACKET:Yoizuki no utahime-jacket.png;
#CDIMAGE:;
#DISCIMAGE:;
#BGCHANGES:;
#FGCHANGES:;

//--------------- dance-single - ----------------
#NOTEDATA:;
#STEPSTYPE:dance-single;
#DESCRIPTION:;
#DIFFICULTY:Beginner;
#METER:2;
#RADARVALUES:0.081303,0.128053,0,0.016989,0,67,67,0,2,0,0,0,0,0,0.081303,0.128053,0,0.016989,0,67,67,0,2,0,0,0,0,0;
#CHARTNAME:;
#CHARTHASH:3246371463;
#BANNER:;
#CHARTSTYLE:;
#METERF:0.000000;
#LASTSECONDHINT:115.629143;
#CREDIT:ZSL;
#NOTES:
0000
0000
0000
0000
,
0000
0000
0000
0000
,
0000
0000
0000
0000
,
0000
0000
0000
0000
,
0000
0000
0000
0000
,
0002
0000
0000
0000
,
0000
0000
0003
0000
,
0000
0000
0000
0000
,
1000
0000
0000
0000
,
1000
0000
0000
0000
,
0000
0000
0000
0000
,
0001
0000
0000
0000
,
0000
0000
0010
0000
,
0000
0000
0000
0000
,
0100
0000
0000
0000
,
0000
0000
1000
0000
,
0000
0000
0000
0000
,
0100
0000
0000
0000
,
0000
0000
1000
0000
,
0000
0000
0000
0000
,
0001
0000
0000
0000
,
0000
0000
0100
0000
,
0000
0000
0000
0000
,
0010
0000
0000
0000
,
0000
0000
0100
0000
,
0000
0000
0000
0000
,
0001
0000
0000
0000
,
0000
0000
1000
0000
,
0000
0000
0000
0000
,
0100
0000
0000
0000
,
0000
0000
0010
0000
,
0000
0000
0000
0000
,
0001
0000
0000
0000
,
0000
0000
0100
0000
,
0000
0000
0000
0000
,
0010
0000
0000
0000
,
0000
0000
0100
0000
,
0000
0000
0000
0000
,
0001
0000
0000
0000
,
0000
0000
1000
0000
,
0000
0000
0000
0000
,
0001
0000
0000
0000
,
0000
0000
0010
0000
,
0000
0000
0000
0000
,
0100
0000
0000
0000
,
0000
0000
0010
0000
,
0000
0000
0000
0000
,
0001
0000
0000
0000
,
0000
0000
1000
0000
,
0000
0000
0000
0000
,
0010
0000
0000
0000
,
0000
0000
0100
0000
,
0000
0000
0000
0000
,
0010
0000
0000
0000
,
0000
0000
0100
0000
,
0000
0000
0000
0000
,
0001
0000
0000
0000
,
0000
0000
1000
0000
,
0000
0000
0000
0000
,
0100
0000
0000
0000
,
0000
0000
1000
0000
,
0000
0000
0000
0000
,
0010
0000
0000
0000
,
0000
0000
0100
0000
,
0000
0000
0000
0000
,
0001
0000
0000
0000
,
0000
0000
1000
0000
,
0000
0100
0000
0000
,
1000
0000
0000
0000
,
0000
0000
0001
0000
,
0000
0100
0000
0000
,
0001
0000
0000
0000
,
0000
0000
1000
0000
,
0000
0010
0000
0000
,
1000
0000
0000
0000
,
0000
0000
0001
0000
,
0000
0010
0000
0000
,
0001
0000
0000
0000
,
0000
0000
0100
0000
,
0000
0010
0000
0000
,
1000
0000
0000
0000
,
0000
0000
0001
0000
,
0000
0000
0000
0000
,
0010
0000
0000
0000
,
0000
0000
0100
0000
,
0000
0000
0000
0000
,
1000
0000
0000
0000
,
0000
0000
0010
0000
,
0000
0000
0000
0000
,
0100
0000
0000
0000
,
0000
0000
0010
0000
,
0000
0000
0000
0000
,
1000
0000
0000
0000
,
0000
0000
0001
0000
,
0000
0000
0000
0000
,
0010
0000
0000
0100
,
0000
0000
2000
0000
,
0000
0000
0000
0000
,
0000
0000
0000
0000
,
0000
0000
0000
0000
,
0000
0000
3000
0000
;

//--------------- dance-single - ----------------
#NOTEDATA:;
#STEPSTYPE:dance-single;
#DESCRIPTION:;
#DIFFICULTY:Easy;
#METER:5;
#RADARVALUES:0.203865,0.29879,0,0.008494,0,168,168,0,1,0,0,0,0,0,0.203865,0.29879,0,0.008494,0,168,168,0,1,0,0,0,0,0;
#CHARTNAME:;
#CHARTHASH:2857940003;
#BANNER:;
#CHARTSTYLE:;
#METERF:0.000000;
#LASTSECONDHINT:115.629143;
#CREDIT:ZSL;
#NOTES:
0000
0000
0000
0000
,
0000
0000
0000
0000
,
0000
0000
0000
0000
,
0000
0000
0000
0000
,
0000
0000
0000
0000
,
0001
0000
0000
1000
,
0000
0000
0010
0000
,
0000
0100
0000
0000
,
0001
0000
0000
1000
,
0001
0000
0000
0000
,
0000
0000
0000
0000
,
0010
0000
0000
0001
,
0000
0000
0010
0000
,
0000
0100
0000
0000
,
1000
0000
0000
0010
,
0000
0000
0100
0000
,
0000
0001
0000
0000
,
1000
0000
0000
0100
,
0000
0000
1000
0000
,
0000
0001
0000
0000
,
0100
0000
0000
0010
,
0000
0000
1000
0000
,
0000
0001
0000
0000
,
1000
0000
0001
0100
,
0001
0000
1000
0000
,
0100
0010
0100
0000
,
1000
0000
0000
0001
,
0000
0000
0100
0010
,
0000
1000
0000
0000
,
0100
0000
0000
1000
,
0001
0000
0010
0000
,
0000
0100
1000
0000
,
0001
0000
0100
0010
,
0000
0100
0001
0000
,
0000
0010
0000
0000
,
0100
1000
0100
0010
,
0000
0000
0100
1000
,
0001
0100
0000
0000
,
0010
0000
0000
0100
,
0000
0000
0001
0000
,
0000
1000
0000
0000
,
0100
0000
0000
0010
,
0000
0000
0001
0000
,
0010
0100
0000
0000
,
1000
0000
0000
0001
,
0000
0000
0100
0000
,
0010
1000
0000
0000
,
0001
0000
0000
0010
,
0000
0000
0100
0000
,
0010
0001
0000
0000
,
0100
0000
0000
0010
,
0000
0000
0100
0000
,
0000
0001
0000
0000
,
0010
0000
0000
0100
,
0000
0000
1000
0000
,
0000
0010
0000
0000
,
0100
0000
0000
0010
,
0000
0000
1000
0000
,
0000
0001
0000
0000
,
0010
0000
0000
0100
,
0000
0000
0010
0000
,
0001
1000
0000
0000
,
0010
0000
0000
1000
,
0000
0000
0100
0000
,
0000
0010
0000
0000
,
0001
0000
0000
1000
,
0001
0000
0100
0100
,
0000
0010
0010
0000
,
0100
0001
0010
0100
,
0000
0000
1000
0000
,
0000
0100
0000
0000
,
0010
0001
1000
0010
,
0000
0000
0100
0100
,
0000
0001
0001
0000
,
1000
0100
0010
0001
,
0000
0000
1000
0000
,
0000
0010
0000
0000
,
0100
0010
0100
0001
,
0000
0000
1000
0000
,
0000
0100
0000
0000
,
0010
0000
0000
0001
,
1000
0010
0100
0000
,
0000
0010
0000
0000
,
1000
0000
0001
0010
,
0000
0000
0100
0000
,
0000
0010
0000
0000
,
0001
1000
0001
1000
,
0000
0000
0010
0000
,
0000
0100
0000
0000
,
0001
0000
0000
0010
,
0100
0010
0001
0000
,
0000
1000
0000
0000
,
0010
0000
0000
1000
,
0000
0000
0001
0000
,
0000
0010
0000
0000
,
0001
0000
0000
0100
,
0010
1000
0002
0000
,
0000
0000
0000
0000
,
0000
0000
0000
0000
,
0000
0000
0000
0000
,
0000
0000
0003
0000
;

//--------------- dance-single - ----------------
#NOTEDATA:;
#STEPSTYPE:dance-single;
#DESCRIPTION:;
#DIFFICULTY:Medium;
#METER:9;
#RADARVALUES:0.385887,0.469526,0.067955,0.390741,0,318,310,8,46,0,0,0,0,0,0.385887,0.469526,0.067955,0.390741,0,318,310,8,46,0,0,0,0,0;
#CHARTNAME:;
#CHARTHASH:2011315010;
#BANNER:;
#CHARTSTYLE:;
#METERF:0.000000;
#LASTSECONDHINT:115.629143;
#CREDIT:ZSL;
#NOTES:
0000
0000
0000
0000
,
0000
0000
0000
0000
,
0000
0000
0000
0000
,
0000
0000
0000
0000
,
0000
0000
0000
0000
,
0001
0000
0000
1000
0000
0000
0100
0000
,
0010
0100
2000
0000
,
3001
0100
0010
1000
,
0001
1000
0000
0001
0000
0000
1000
0000
,
1001
0000
0000
0000
,
0000
0000
0000
0001
,
0200
0000
0310
1000
,
0000
0001
0010
0001
,
0100
0010
0000
0000
,
0200
0000
0301
0010
,
0100
1000
0010
0200
,
0000
0310
0000
0000
,
2000
0000
0000
3100
,
0010
0001
2000
0000
,
3000
0001
0010
0001
,
0100
0010
1000
0002
,
0003
0010
0200
0000
,
0000
2300
3000
0001
,
0100
0010
0000
0100
0000
0000
0010
0000
,
0100
0000
0000
0000
0001
0100
0000
0001
,
0000
1000
0100
0010
,
0002
0000
1003
1001
,
0001
0100
0110
0020
,
0000
0000
1030
0010
0000
0000
0100
0000
,
0002
0000
0000
1003
0000
0000
0100
0000
,
0010
0000
0100
0000
2000
0000
0000
3100
,
0000
0010
0001
1000
,
0010
0100
0001
0020
,
0000
0031
0200
0000
,
0300
0020
0000
1030
,
0001
0000
0010
0001
0010
0000
0200
0000
,
0000
0000
1300
0000
0001
0000
1000
0010
,
1000
0002
0000
0103
,
0010
0100
0000
0001
0000
0000
2000
0000
,
0000
3200
0000
0000
0310
0000
0100
0000
,
1000
0010
0100
0001
,
1000
0001
0000
0010
0000
0000
0100
0000
,
0000
1000
0000
0000
0010
0000
0100
0000
,
0001
1000
0100
1000
,
0001
0000
0000
0010
0000
0000
0002
0000
,
0000
0203
0000
0000
0310
0000
0100
0000
,
0001
0010
0100
1000
,
0020
0000
0000
0230
0000
0000
0301
0000
,
0000
1000
0000
0000
0100
0000
0010
0000
,
0100
1000
0002
0000
,
0103
0010
0010
0100
,
0001
0001
1000
0100
,
0100
0010
0100
1000
,
0010
0100
0100
0010
,
1000
1000
0001
0010
,
0010
0100
1000
0001
,
0102
0000
0000
0103
0000
0000
0010
0000
,
1000
0001
0020
0000
,
0031
2000
0000
3010
,
0200
0000
0000
0320
,
0000
0000
2030
0000
,
3001
0010
0100
1000
,
0020
0000
0230
0320
,
0000
0000
0000
0000
2030
0000
0000
3020
,
0000
1030
0001
0010
,
0100
1000
0000
0001
0000
0000
0100
0000
,
0010
0000
1010
1000
,
0000
0001
0010
0000
0001
0000
0000
1000
,
0010
0100
0010
1000
,
0100
0000
0000
1000
0001
0000
0100
0000
,
0010
0000
1000
0000
0010
0000
0000
1000
,
0100
0010
0001
0100
,
0010
0000
0000
1000
0001
0000
0010
0000
,
0000
0100
1000
0000
0001
0000
0000
0100
,
0010
0100
0001
1000
,
0100
0000
0000
0020
0000
0000
0130
0000
,
1000
0000
0001
0000
0100
0000
0000
0001
,
1000
0010
0100
0001
,
1000
0100
0000
0000
0010
0000
0100
0000
,
0010
0001
0100
0001
,
2000
0000
0000
3010
0000
1000
0100
0000
,
0010
0000
0100
0000
1000
0001
1000
0000
,
0010
0000
0100
0000
0001
0000
0000
1000
,
0200
0000
0310
0100
,
0010
0001
2000
0000
,
3020
0130
0001
1000
,
0100
0000
0010
0000
0100
1000
0100
0000
,
0010
0000
0001
0100
,
0000
0010
1000
0000
0100
0000
0000
0010
,
0200
0000
1300
0010
,
0100
0000
0001
0000
0010
0000
0100
0010
,
0000
0100
1000
0001
,
0100
0000
0010
0000
1000
0010
1000
0000
,
0001
0010
0120
0000
,
0230
0000
2300
0100
0000
0000
3100
0000
,
1000
0001
1000
1001
,
0110
0000
0020
0000
,
0000
0000
0000
0000
,
0000
0000
0000
0000
,
0000
0000
0000
0000
,
0000
0000
0030
0000
;

//--------------- dance-single - ----------------
#NOTEDATA:;
#STEPSTYPE:dance-single;
#DESCRIPTION:;
#DIFFICULTY:Hard;
#METER:13;
#RADARVALUES:0.54364,0.640263,0.152899,0.399236,0.004247,448,430,18,47,0,0,0,0,0,0.54364,0.640263,0.152899,0.399236,0.004247,448,430,18,47,0,0,0,0,0;
#CHARTNAME:;
#CHARTHASH:2500038103;
#BANNER:;
#CHARTSTYLE:;
#METERF:0.000000;
#LASTSECONDHINT:115.629143;
#CREDIT:ZSL;
#NOTES:
0000
0000
0000
0000
,
0000
0000
0000
0000
,
0000
0000
0000
0000
,
0000
0000
0000
0000
,
0000
0000
0000
0000
,
0001
0000
1000
0010
0000
0010
0100
0001
,
0100
0001
1000
0100
0020
0000
0000
0130
,
1000
0001
1000
0000
0010
0000
0100
0000
,
0010
0010
0000
1000
0000
0100
0100
0000
,
1100
0000
0000
0000
,
0000
0000
0000
0000
0000
0000
0100
1000
,
0002
0000
0100
0023
,
0000
0100
0031
0200
,
0010
0301
1000
0100
,
2000
0000
0001
3010
,
0100
0002
1000
0013
,
0100
0010
0100
1000
,
0002
0000
0000
0010
,
0103
0010
2000
0000
,
0000
0100
3001
2000
,
0100
3010
0100
0002
,
0000
0010
0203
0010
,
0310
0000
1000
0000
0010
0000
1000
0100
,
0010
0010
0000
0001
0001
0000
1000
0000
,
0010
0000
0100
0000
0001
0001
0000
1000
,
1000
0000
0100
0000
0010
0000
0100
1000
,
0002
0000
0103
1010
,
1000
0100
0011
0001
,
1000
0000
0001
1000
0000
1000
0010
0100
,
0001
0000
0000
1000
0000
0100
0010
0000
,
0001
0000
0010
0000
0100
1000
0000
1000
,
0001
0100
0010
0000
1000
0000
0100
0000
,
0001
0100
0010
0002
,
0000
0003
1000
0000
0020
0000
0000
0100
,
0000
0000
1030
0001
0010
0100
1000
0001
,
0100
0000
0001
0100
0010
0100
1000
0000
,
0100
0000
0001
0000
1000
0000
0001
0010
,
0100
0010
1000
0000
0010
0000
0001
0000
,
1000
0010
0000
0100
0000
0010
2000
0000
,
3001
0020
0000
0000
0001
0000
0130
0000
,
2000
0010
3001
0100
,
0001
0010
0000
0100
0000
0010
0002
0000
,
1003
0020
0000
0000
0001
0000
0130
0000
,
0002
0010
1003
0100
,
0020
0000
0000
0130
0000
1000
0010
0000
,
0100
0010
2000
0000
0100
0000
3001
0000
,
1000
0002
0100
0000
1003
0000
0100
0000
,
0001
0100
0000
1000
0000
0001
0100
0000
,
0010
0100
0000
0100
0001
0000
0100
0010
,
1000
0010
0100
0000
0001
0000
1000
0000
,
0100
0000
0010
0000
0010
0000
0001
1000
,
0001
0100
0010
1000
,
1000
0000
0100
0010
0100
0000
1000
0000
,
0001
0000
0010
0000
0010
0000
0001
0100
,
0010
1000
0001
0010
,
0010
0000
0100
1000
0010
0100
0001
1000
,
0100
0000
0010
0100
0000
0000
1000
0000
,
0001
0000
0100
0000
0010
0100
0000
0100
,
0001
1000
0100
0000
0010
0000
0001
0000
,
0102
0000
0103
0020
0000
0000
1000
0000
,
1030
0001
0010
0100
2000
0000
0000
0000
,
3020
0100
1030
0001
,
0012
0000
1003
1010
,
0010
0100
0000
0000
0002
0000
0000
1000
,
0000
0000
0013
0001
1000
0000
0010
0000
,
0100
0100
0000
0001
0000
1000
1000
0000
,
1001
0001
0201
0310
,
1000
0200
0010
0000
1300
0000
0100
1000
,
0001
0000
0100
0010
0001
0010
0100
0000
,
0001
0000
0100
0001
1000
0000
0100
0000
,
0010
0000
0001
0000
0010
0000
0100
1000
,
0010
0000
0100
0000
0001
0100
0010
0100
,
0001
0000
1000
0200
0010
0000
1300
0000
,
0001
0200
0010
0000
0301
0000
0100
0001
,
1000
0000
0100
0010
1000
0010
0001
1000
,
0001
0000
1000
0010
0100
0000
0001
0100
,
0010
0000
1000
0000
0001
0000
0010
0001
,
0100
0000
0010
0000
1010
0000
1000
0100
,
1000
0001
0000
0000
2001
0000
0010
0000
,
3001
1002
0010
0103
,
2000
0000
3100
0001
0000
1000
0100
0000
,
0010
0000
0100
1000
0010
0100
0010
0000
,
1000
0002
0010
0000
1003
0000
0001
0100
,
0020
0000
0000
1030
0010
1000
0100
0000
,
0010
0000
0001
0000
2000
0010
0000
3010
,
0100
0001
1000
0000
0100
0000
0010
0000
,
0120
0000
0130
0010
0001
1000
0010
0100
,
0001
1000
1002
0013
,
0001
2000
0010
0000
3001
0000
1000
0100
,
0020
0000
0000
0031
0010
0001
0100
0000
,
0010
0000
1000
0000
0001
0010
0001
0010
,
0100
1000
0001
0000
0100
0000
0010
0000
,
0120
0000
1030
0000
1000
0001
0010
0100
,
1000
0001
0110
1000
,
0001
1000
0010
0100
0010
1000
0001
0000
,
1002
0100
0013
1100
,
0011
0000
0001
2000
0020
0000
0000
0000
,
0000
0000
0000
0000
,
0000
0000
0000
0000
,
0000
0000
0000
0000
,
0000
3000
0000
0000
0000
0000
0000
0000
0000
0000
0000
0000
0030
0000
0000
0000
0000
0000
0000
0000
0000
0000
0000
0000
;
