#VERSION:0.83;
#TITLE:Stewrica -Cross-;
#SUBTITLE:;
#ARTIST:Ayatsugu_Otowa;
#TITLETRANSLIT:;
#SUBTITLETRANSLIT:;
#ARTISTTRANSLIT:;
#GENRE:;
#ORIGIN:;
#TAGS:;
#CREDIT:;
#BANNER:Stewrica -Cross-.png;
#BACKGROUND:Stewrica -Cross--bg.png;
#PREVIEWVID:;
#JACKET:Stewrica -Cross--jacket.png;
#CDIMAGE:;
#DISCIMAGE:;
#LYRICSPATH:;
#CDTITLE:;
#MUSIC:Stewrica -Cross-.ogg;
#OFFSET:-0.067000;
#SAMPLESTART:26.379999;
#SAMPLELENGTH:15.000000;
#SELECTABLE:YES;
#BPMS:0.000000=155.000000
;
#STOPS:;
#DELAYS:;
#WARPS:;
#TIMESIGNATURES:0.000000=4=4
;
#TICKCOUNTS:0.000000=4
;
#COMBOS:0.000000=1
;
#SPEEDS:0.000000=1.000000=0.000000=0
;
#SCROLLS:0.000000=1.000000
;
#FAKES:;
#LABELS:0.000000=Song Start
;
#BGCHANGES:;
#KEYSOUNDS:;
#ATTACKS:
;

//---------------dance-single - ----------------
#NOTEDATA:;
#CHARTNAME:;
#CHARTHASH:2134851272;
#STEPSTYPE:dance-single;
#BANNER:;
#DESCRIPTION:;
#CHARTSTYLE:;
#DIFFICULTY:Beginner;
#METER:3;
#METERF:0.000000;
#LASTSECONDHINT:125.873459;
#RADARVALUES:0.125694,0.188128,0.000000,0.007718,0.000000,114.000000,114.000000,0.000000,1.000000,0.000000,0.000000,0.000000,0.000000,0.000000,0.125694,0.188128,0.000000,0.007718,0.000000,114.000000,114.000000,0.000000,1.000000,0.000000,0.000000,0.000000,0.000000,0.000000;
#CREDIT:ZSL;
#NOTES:
// measure 0
0000
0000
0000
0000
,  // measure 1
0000
0000
0000
0000
,  // measure 2
0000
0000
0000
0000
,  // measure 3
0000
0000
0000
0000
,  // measure 4
0000
0000
0000
0000
,  // measure 5
0000
1000
0000
0000
,  // measure 6
0000
0001
0000
0000
,  // measure 7
0000
0100
0000
0000
,  // measure 8
0000
0010
0000
0000
,  // measure 9
1000
0000
0001
0000
,  // measure 10
0010
0000
0000
0000
,  // measure 11
0100
0000
1000
0000
,  // measure 12
0001
0000
0000
0000
,  // measure 13
0100
0000
0010
0000
,  // measure 14
0100
0000
0001
0000
,  // measure 15
1000
0000
0100
0000
,  // measure 16
0000
0000
0000
0000
,  // measure 17
0010
0000
0001
0000
,  // measure 18
1000
0000
0010
0000
,  // measure 19
0100
0000
0010
0000
,  // measure 20
1000
0000
0001
0000
,  // measure 21
0010
0000
0100
0000
,  // measure 22
1000
0000
0010
0000
,  // measure 23
0100
0000
0001
0000
,  // measure 24
1000
0000
0000
0000
,  // measure 25
0010
0000
1000
0000
,  // measure 26
0001
0000
0010
0000
,  // measure 27
0100
0000
0010
0000
,  // measure 28
0001
0000
1000
0000
,  // measure 29
0010
0000
1000
0000
,  // measure 30
0100
0000
0010
0000
,  // measure 31
0001
0000
1000
0000
,  // measure 32
0001
0000
0000
0000
,  // measure 33
0100
0000
0000
0000
,  // measure 34
0010
0000
0000
0000
,  // measure 35
0100
0000
0000
0000
,  // measure 36
0001
0000
0000
0000
,  // measure 37
0010
0000
0000
0000
,  // measure 38
0100
0000
0000
0000
,  // measure 39
1000
0000
0000
0000
,  // measure 40
0001
0000
0000
0000
,  // measure 41
0100
0000
0001
0000
,  // measure 42
1000
0000
0000
0000
,  // measure 43
0010
0000
1000
0000
,  // measure 44
0001
0000
0000
0000
,  // measure 45
0010
0000
0001
0000
,  // measure 46
1000
0000
0000
0000
,  // measure 47
0100
0000
1000
0000
,  // measure 48
0001
0000
0000
0000
,  // measure 49
0100
0000
0000
0000
,  // measure 50
0000
0000
0000
0000
,  // measure 51
0010
0000
0000
0000
,  // measure 52
0000
0000
0000
0000
,  // measure 53
0100
0000
0000
0000
,  // measure 54
0000
0000
0000
0000
,  // measure 55
0001
0000
0000
0000
,  // measure 56
0000
0000
0000
0000
,  // measure 57
0010
0000
0000
0000
,  // measure 58
0001
0000
0000
0000
,  // measure 59
0100
0000
0000
0000
,  // measure 60
0010
0000
0000
0000
,  // measure 61
1000
0000
1000
0000
,  // measure 62
1000
0000
0000
0000
,  // measure 63
0001
0000
0001
0000
,  // measure 64
0020
0000
0030
0000
,  // measure 65
0100
0000
1000
0000
,  // measure 66
0001
0000
0100
0000
,  // measure 67
0010
0000
0100
0000
,  // measure 68
0001
0000
1000
0000
,  // measure 69
0100
0000
0010
0000
,  // measure 70
0001
0000
0100
0000
,  // measure 71
0010
0000
1000
0000
,  // measure 72
0001
0000
0000
0000
,  // measure 73
0010
0010
0010
0000
,  // measure 74
0100
0000
1000
0000
,  // measure 75
0001
0000
0100
0000
,  // measure 76
0010
0010
0010
0000
,  // measure 77
1000
0000
0001
0000
,  // measure 78
0010
0000
0100
0000
,  // measure 79
1000
0000
0001
0000
,  // measure 80
0100
0000
0010
0000
,  // measure 81
0000
0100
0000
0000
;

//---------------dance-single - ----------------
#NOTEDATA:;
#CHARTNAME:;
#CHARTHASH:1149445864;
#STEPSTYPE:dance-single;
#BANNER:;
#DESCRIPTION:;
#CHARTSTYLE:;
#DIFFICULTY:Easy;
#METER:6;
#METERF:0.000000;
#LASTSECONDHINT:128.196045;
#RADARVALUES:0.254696,0.319335,0.092617,0.061745,0.000000,231.000000,219.000000,12.000000,8.000000,0.000000,0.000000,0.000000,0.000000,0.000000,0.254696,0.319335,0.092617,0.061745,0.000000,231.000000,219.000000,12.000000,8.000000,0.000000,0.000000,0.000000,0.000000,0.000000;
#CREDIT:ZSL;
#NOTES:
0000
0000
0000
0000
,
0000
0000
0000
0000
,
0000
0000
0000
0000
,
0000
0000
0000
0000
,
0000
0000
0000
0000
,
0000
1000
0001
1000
,
0100
0000
0010
0000
,
0001
1000
0001
0000
,
1000
0001
1000
0000
,
0010
0100
0001
1000
,
0100
0000
0010
0000
,
0100
1000
0001
0100
,
0010
0000
0100
0000
,
0001
1000
0100
0000
,
0010
0001
0100
0000
,
0010
1000
0001
0200
,
0000
0300
0000
0001
,
1000
0100
0010
0100
,
1000
0001
0100
0001
,
0100
0010
1000
0001
,
0010
0000
0100
0000
,
0010
0100
1000
0001
,
0100
0001
0010
0100
,
1000
0000
0001
0000
,
1001
0000
1001
0000
,
0001
0100
0010
0100
,
0001
1000
0100
1000
,
0100
0010
0001
1000
,
0010
0000
0100
0000
,
0010
0100
0001
1000
,
1001
0000
0110
0000
,
0001
0000
1000
0000
,
2002
0000
3003
0000
,
1000
0001
1000
0000
,
0010
1000
0010
0000
,
0100
0010
0100
0000
,
0001
0100
0001
0000
,
1000
0001
1000
0000
,
0100
1000
0100
0000
,
0010
0100
0010
0000
,
0001
0010
0001
0000
,
1000
0001
0100
0000
,
0001
1000
0100
0000
,
0010
0001
1000
0000
,
0010
1000
0001
0000
,
0100
0001
0010
0000
,
0100
1000
0010
0000
,
0100
0010
1000
1000
,
0100
0100
0010
0000
,
0001
0000
1000
0000
,
0010
0000
0000
0000
,
0100
0000
0001
0000
,
0000
1000
0000
0100
,
0100
0000
0010
0000
,
0001
0000
1000
0000
,
0010
0000
0100
0000
,
0001
0000
1000
0000
,
2002
0000
3003
0000
,
0001
0000
1000
0000
,
0020
0000
0030
0000
,
0100
0000
0010
0000
,
0100
0100
0100
0000
,
0001
0001
0001
0000
,
1000
1000
1000
0000
,
0200
0000
0310
0000
,
0001
0010
0100
0010
,
0001
1000
0010
1000
,
0010
0100
0001
1000
,
0100
0000
0010
0000
,
0100
0010
0001
1000
,
0010
1000
0100
0010
,
0001
0000
1000
0000
,
1001
0000
1001
0000
,
1000
0010
0100
0010
,
1000
0001
0010
0100
,
1000
0001
0100
0010
,
0100
0100
0010
0010
,
1000
0001
0010
0100
,
0110
0000
1001
0000
,
0110
0000
0001
1000
,
1001
0000
0010
0100
,
0000
0020
0000
0000
,
0000
0000
0000
0030
;

//---------------dance-single - ----------------
#NOTEDATA:;
#CHARTNAME:;
#CHARTHASH:1461998725;
#STEPSTYPE:dance-single;
#BANNER:;
#DESCRIPTION:;
#CHARTSTYLE:;
#DIFFICULTY:Medium;
#METER:10;
#METERF:0.000000;
#LASTSECONDHINT:128.196045;
#RADARVALUES:0.418981,0.510937,0.084899,0.061745,0.135066,380.000000,369.000000,11.000000,8.000000,0.000000,0.000000,0.000000,0.000000,0.000000,0.418981,0.510937,0.084899,0.061745,0.135066,380.000000,369.000000,11.000000,8.000000,0.000000,0.000000,0.000000,0.000000,0.000000;
#CREDIT:ZSL;
#NOTES:
0000
0000
0000
0000
,
0000
0000
0000
0000
,
0000
0000
0000
0000
,
0000
0000
0000
0000
,
0000
0000
0000
0000
,
0000
1000
0001
1000
,
0010
0100
0010
0000
,
1000
0001
0010
0000
,
0100
1000
0001
0000
,
0100
0010
1000
0100
,
0010
0000
0001
1000
0001
0000
0000
0000
,
0010
0000
0100
0000
1000
0000
0010
0100
,
0010
0000
1000
0000
,
0001
0000
0010
0000
0100
1000
0100
0000
,
1000
0001
0100
0001
,
1000
0000
0100
0000
0010
0001
0020
0000
,
0000
0000
0030
0001
,
1000
0000
0010
0000
0000
0000
0100
0000
0001
0000
0000
0100
0000
0000
0010
0000
,
1000
0000
0001
0000
0000
0000
0010
0000
0100
0000
0000
1000
0000
0000
0100
0000
,
0010
0000
0001
0000
0000
0000
1000
0000
0010
0000
0000
0100
0000
0000
0001
0000
,
0010
0000
0000
0000
0100
0000
1000
0000
0010
0000
0000
0100
0000
0000
0010
0000
,
0100
0000
0001
0000
0000
0000
1000
0000
0010
0000
0000
0100
0000
0000
0010
0000
,
1000
0000
0100
0000
0000
0000
0010
0000
0110
0000
0000
0100
0000
0000
1000
0000
,
0001
0000
0000
0000
1000
0000
0100
0000
0010
0000
0000
0001
0000
0000
0010
0000
,
0100
0000
0000
1000
0000
0000
0010
0000
0100
0000
0000
0001
0000
0000
1000
0000
,
0001
0000
0010
0000
0000
0000
0100
0000
1000
0000
0000
0100
0000
0000
0010
0000
,
0001
0000
1000
0000
0000
0000
0010
0000
0100
0000
0000
0001
0000
0000
0100
0000
,
0010
0000
1000
0000
0000
0000
0001
0000
0010
0000
0000
0100
0000
0000
1000
0000
,
0010
0000
0000
0000
0100
0000
0001
0000
0010
0000
0000
0100
0000
0000
0010
0000
,
0100
0000
1000
0000
0000
0000
0001
0000
0010
0000
0000
0100
0000
0000
0010
0000
,
0011
0000
0000
0001
0000
0000
1000
0000
0010
0000
0000
0100
0000
0000
0001
0000
,
1000
0000
0000
0000
0001
0000
0010
0000
0100
0000
0000
1000
0000
0000
0100
0000
,
0020
0000
0030
0001
,
1000
0000
0010
0000
0100
0000
0010
1000
,
0010
0000
0100
0000
0001
0000
1000
0001
,
1000
0000
0100
0000
0010
0000
0100
1000
,
0100
0000
0010
0000
0001
0000
0100
0010
,
0100
0000
0001
0000
1000
0000
0100
1000
,
0100
0000
0010
0000
0001
0000
1000
0010
,
1000
0000
0100
0000
0010
0000
0001
0100
,
0001
0100
0010
1000
,
1001
0000
0001
0000
0010
0000
0100
0010
,
0001
0000
1000
0000
0010
0000
0100
0010
,
1000
0000
0100
0000
0010
0000
0001
1000
,
0010
0000
0100
0000
0001
0000
0010
0100
,
1000
0000
0100
0000
0010
0000
0001
0100
,
0010
0000
1000
0000
0100
0000
1000
0010
,
0100
0000
0001
0000
0100
0000
0010
1000
,
0002
0000
0023
0000
0130
1000
0001
0000
,
0010
0000
0010
0000
,
0100
1000
0001
0000
,
0100
0000
0010
0100
,
0000
0010
1000
0000
0001
0000
0010
0000
,
0100
0000
1000
0100
,
0010
0001
1000
0000
,
0010
0000
0000
0000
0000
0000
0000
0000
0100
0000
0000
0010
0000
0000
0100
0000
,
0001
0000
1000
0001
1000
0000
0000
0000
,
2002
0000
3003
0000
,
0001
0000
0010
0000
0100
0000
1000
0001
,
0200
0000
0300
0000
,
0010
0000
1000
0000
0001
0000
0010
0100
,
1000
0001
0100
0010
,
1010
1000
0100
0010
,
0011
0001
1000
0010
,
0100
0000
0100
0000
0001
0000
0100
0001
,
1000
0000
0100
0000
0000
0000
0010
0000
0001
0000
0000
0010
0000
0000
0100
0000
,
1000
0000
0001
0000
0000
0000
0100
0000
0010
0000
0000
1000
0000
0000
0010
0000
,
0100
0000
0001
0000
0000
0000
1000
0000
0100
0000
0000
0010
0000
0000
0001
0000
,
0100
0000
0000
0000
0010
0000
1000
0000
0100
0000
0000
0010
0000
0000
0100
0000
,
0010
0000
0001
0000
0000
0000
1000
0000
0100
0000
0000
0010
0000
0000
0100
0000
,
1000
0000
0010
0000
0000
0000
0100
0000
0110
0000
0000
0010
0000
0000
1000
0000
,
0001
0000
0000
0000
1000
0000
0010
0000
0100
0000
0000
0001
0000
0000
0100
0000
,
0010
0000
0000
1000
0000
0000
0100
0000
0010
0000
0000
0001
0000
0000
1000
0000
,
0001
0000
0100
0000
0010
0000
0100
0000
0001
0000
0000
1000
0000
0000
0001
0000
,
0010
0000
0100
0000
0010
0000
0100
0000
1000
0000
0000
1100
0000
0000
0100
0000
,
1000
0000
0001
0000
0000
0000
0100
0000
0010
0000
0000
1000
0000
0000
0010
0000
,
0100
0001
1000
0100
0010
0001
1000
0010
,
0100
0000
0000
0000
0010
0000
1000
0000
0001
0000
0000
0010
0000
0000
0100
0000
,
1001
0000
0000
1000
0000
0000
0010
0000
0100
0000
0000
0001
0000
0000
0010
0000
,
0110
0000
0000
0000
0100
0000
1000
0000
0001
0000
0000
1000
0000
0000
0010
0000
,
0110
0000
0000
0000
0100
0000
0001
0000
1000
0000
0000
0001
0000
0000
0010
0000
,
0000
0200
0000
0000
,
0000
0000
0000
0300
;

//---------------dance-single - ----------------
#NOTEDATA:;
#CHARTNAME:;
#CHARTHASH:4152095600;
#STEPSTYPE:dance-single;
#BANNER:;
#DESCRIPTION:;
#CHARTSTYLE:;
#DIFFICULTY:Hard;
#METER:15;
#METERF:0.000000;
#LASTSECONDHINT:128.196045;
#RADARVALUES:0.760782,0.926072,0.239260,0.308723,0.609728,690.000000,659.000000,31.000000,40.000000,0.000000,0.000000,0.000000,0.000000,0.000000,0.760782,0.926072,0.239260,0.308723,0.609728,690.000000,659.000000,31.000000,40.000000,0.000000,0.000000,0.000000,0.000000,0.000000;
#CREDIT:ZSL;
#NOTES:
0000
0000
0000
0000
,
0000
0000
0000
0000
,
0000
0000
0000
0000
,
0000
0000
0000
0000
,
0000
0000
0000
0000
,
0000
1000
0010
0100
,
0001
0000
0010
0100
1000
0000
0001
0000
,
0100
0000
0010
0000
0100
0000
0001
1000
,
0100
0010
0100
0000
1000
0001
1000
0001
,
0100
0000
0010
1000
0001
1000
0100
1000
,
0001
0010
0100
1000
0010
0000
0100
0000
,
0001
0000
1000
0000
0100
0000
1000
0000
0010
0000
0100
0000
1000
0000
0100
0010
,
1000
0000
0001
0000
0010
0000
0100
1000
,
0100
0010
0001
1000
0001
0000
0010
0000
1000
0000
0010
0000
0001
0000
1000
0001
,
1000
0000
0001
0100
0010
0000
0100
0001
0020
0000
0000
0130
1000
0001
1000
0000
,
0002
0000
0000
0000
0103
0010
0100
0000
0001
1000
0100
1000
0002
0000
0000
0000
,
0023
0000
0000
0000
0230
0000
0000
0000
2300
0000
0000
0000
3001
0000
1000
0001
,
0100
0010
1000
0000
0001
0000
0010
0000
0100
0000
0010
0001
0000
1000
0010
0000
,
0100
0001
1000
0000
0001
0000
0010
0000
0100
0000
1000
0100
0000
0010
0001
1000
,
0010
0100
0010
0000
0100
0000
0001
0000
1000
0000
0100
1000
0000
0010
0100
0000
,
0002
0000
0000
0000
0103
0010
1000
0001
0020
0000
0000
0230
0000
0000
0310
0100
,
1000
0001
0100
0000
0010
0000
1000
0000
0001
0000
0010
0100
0000
1000
0001
0000
,
0100
0001
1000
0000
0001
0000
0100
0000
1000
0000
0100
0010
0000
0000
1000
0000
,
2010
0000
0000
0000
3001
0000
0010
0100
2000
0000
0000
3002
0000
0000
0013
0000
,
0011
0000
0000
0101
0000
0000
0110
0000
1010
0000
0000
1001
0000
0000
0011
0000
,
0100
0010
0001
0000
1000
0000
0010
0000
0100
0000
0010
1000
0000
0001
0010
0000
,
0100
1000
0001
0000
1000
0000
0010
0000
0100
0000
0001
0100
0000
0010
1000
0001
,
0010
0100
0010
0000
0100
0000
1000
0000
0001
0000
0100
0001
0000
0010
0100
0000
,
2000
0000
0000
0000
3100
0010
0001
1000
0020
0000
0000
0230
0000
0000
0310
0100
,
0001
1000
0100
0000
0010
0000
0001
0000
1000
0000
0010
0100
0000
0001
1000
0100
,
0001
0000
0000
0101
0000
0000
0110
0000
0011
0000
0000
1001
0000
0000
1000
0010
,
0100
0000
0010
0000
1000
0000
0100
0010
0001
0000
1000
0010
0000
0100
0001
0000
,
0100
0010
0100
0010
0100
0010
0100
0010
0200
0000
0000
0000
0310
0000
1000
0000
,
0001
0010
0100
1000
0100
0010
0002
1000
,
0103
0010
1000
0001
0100
0010
2000
0100
,
3001
0010
0001
0100
0010
1000
0002
0010
,
1003
0100
1000
0010
0100
0001
1000
0010
,
1001
1000
0010
1000
0010
0100
0002
1000
,
0013
0100
1000
0001
0010
0100
2000
0010
,
3001
0100
0001
0010
0100
1000
0002
0100
,
1003
0010
1000
0100
0010
1000
0010
0001
,
1001
1000
0001
0010
0100
1000
0020
0100
,
1030
0010
1000
0000
0010
0000
0100
0000
0001
0000
1000
0000
0200
0000
0010
0000
,
1300
0001
1000
0000
0001
0000
0100
0000
0001
0000
0010
0000
0200
0000
1000
0000
,
0310
0001
0010
0000
0001
0000
1000
0000
0010
0000
0100
0000
0002
0000
0010
0000
,
1003
0010
0100
0000
0010
0000
1000
0000
0001
0010
0100
0000
0020
0000
0001
0000
,
0130
0010
0001
0000
1000
0000
0010
0000
0100
0010
1000
0000
0002
0000
0100
0000
,
1003
0100
0010
0000
0001
0000
1000
0000
0010
0100
0001
0000
0200
0000
0001
0000
,
0310
1000
0010
1000
0010
1000
0010
1000
0010
0000
0100
0000
0001
0000
1000
0000
,
0100
0000
0000
0010
0001
0000
0000
0010
,
0100
1000
0001
0000
0010
0000
0000
0000
,
0001
0100
0000
0000
0001
0001
0100
0010
,
0000
1000
0001
1000
0100
0010
0001
0010
,
0100
0010
0000
0001
0100
0100
0010
0000
,
1000
0001
1000
0100
0010
0000
0100
0000
,
1000
0000
0010
0000
0000
0100
0010
0100
0001
0000
0000
1000
0000
0000
0001
0000
,
0010
0000
0000
0000
0100
1000
0100
1000
0100
0000
0000
0000
1100
0000
0000
0000
,
1002
0000
0000
0000
0000
0000
0103
0010
1000
0000
0000
0000
0010
0000
0000
0000
,
1000
0010
1000
0000
0001
0000
0010
0001
0010
0000
0100
0000
1000
0001
1000
0001
,
2000
0000
0000
0000
0000
0000
3100
0010
0001
0000
0000
0000
0010
0000
0000
0000
,
0001
0010
0001
0000
1000
0000
0010
1000
0010
0000
0100
0000
0001
1000
0001
1000
,
0010
0100
0001
0100
1000
0100
0001
1000
,
0100
0010
0001
0010
1000
0010
0001
1000
,
1010
0010
0001
0010
1000
0100
0001
0100
,
1000
0001
1000
0001
1000
0001
1000
0001
0200
0000
0320
0000
1030
0001
0100
0001
,
0010
0100
1000
0000
0001
0000
0100
0000
0010
0000
0100
0001
0000
1000
0100
0000
,
0010
0001
1000
0000
0001
0000
0100
0000
0010
0000
1000
0010
0000
0100
0001
1000
,
0100
0010
0100
0000
0010
0000
0001
0000
1000
0000
0010
1000
0000
0100
0010
0000
,
0002
0000
0000
0000
0013
0100
1000
0001
0200
0000
0000
0320
0000
0000
0130
0010
,
1000
0001
0010
0000
0100
0000
1000
0000
0001
0000
0100
0010
0000
1000
0001
0000
,
0010
0001
1000
0000
0001
0000
0010
0000
1000
0000
0010
0100
0000
0000
1000
0000
,
2100
0000
0000
0000
3001
0000
0100
0010
2000
0000
0000
3002
0000
0000
0103
0000
,
0101
0000
0000
0011
0000
0000
0110
0000
1100
0000
0000
1001
0000
0000
0101
0000
,
0001
1000
0100
0000
0010
1000
0010
0100
0010
0001
1000
0010
0000
1000
0001
1000
,
0010
0100
0001
1000
0001
0000
1000
0000
1100
0000
0000
0011
0000
0000
0001
1000
,
0010
0100
0010
0000
1000
0000
0001
0000
0010
0000
0001
0100
0000
0010
1000
0000
,
0001
1000
0001
0100
0010
0100
0001
1000
0001
0010
0100
0010
0001
1000
0010
0100
,
0001
0000
1000
0000
0100
0010
0100
1000
0010
0000
0100
0001
0000
1000
0001
0100
,
1000
0000
0000
1100
0000
0000
0110
0000
1010
0000
0000
1001
0000
0000
0001
0010
,
0100
0000
0010
0000
0001
0000
0100
0010
1000
0000
0001
0010
0000
0100
1000
0000
,
0100
0010
0100
0010
0100
0010
0001
1000
0010
0000
0000
0110
0000
0000
1001
0000
,
0000
2000
0000
0000
,
0000
0000
0000
3000
;
