#VERSION:0.83;
#TITLE:Medusa;
#SUBTITLE:;
#ARTIST:HiTECH NINJA;
#TITLETRANSLIT:;
#SUBTITLETRANSLIT:;
#ARTISTTRANSLIT:;
#GENRE:;
#CREDIT:;
#MUSIC:Medusa.ogg;
#BANNER:Medusa.png;
#BACKGROUND:Medusa-bg.png;
#CDTITLE:;
#SAMPLESTART:85.116;
#SAMPLELENGTH:15.000;
#SELECTABLE:YES;
#OFFSET:-0.762;
#BPMS:0.000=165.000;
#STOPS:;
#SPEEDS:0.000=1.000=0.000=0;
#SCROLLS:0.000=1.000;
#TICKCOUNTS:0.000=4;
#TIMESIGNATURES:0.000=4=4;
#LABELS:0.000=Song Start;
#COMBOS:0.000=1;
#ORIGIN:;
#TAGS:;
#PREVIEWVID:;
#JACKET:Medusa-jacket.png;
#CDIMAGE:;
#DISCIMAGE:;
#BGCHANGES:;
#FGCHANGES:;

//--------------- dance-single - ----------------
#NOTEDATA:;
#STEPSTYPE:dance-single;
#DESCRIPTION:;
#DIFFICULTY:Beginner;
#METER:4;
#RADARVALUES:0.170005,0.23077,0,0.056285,0,148,148,0,7,0,0,0,0,0,0.170005,0.23077,0,0.056285,0,148,148,0,7,0,0,0,0,0;
#CHARTNAME:;
#CHARTHASH:2970384956;
#BANNER:;
#CHARTSTYLE:;
#METERF:0.000000;
#LASTSECONDHINT:120.034729;
#CREDIT:ZSL;
#NOTES:
0000
0000
0000
0000
,
0000
0000
0000
0000
,
0000
0000
0000
0000
,
0000
0000
0000
0000
,
1000
0000
0000
0000
,
0001
0000
0000
0000
,
0100
0000
0010
0000
,
0100
0000
0000
0000
,
0001
0000
1000
0000
,
0100
0000
0010
0000
,
0001
0000
0010
0000
,
0100
0000
1000
0000
,
0010
0000
0100
0000
,
0001
0000
0100
0000
,
0010
0000
1000
0000
,
0001
0000
1000
0000
,
0100
0100
0100
0000
,
0010
0000
0001
0000
,
1000
1000
1000
0000
,
0010
0000
0100
0000
,
0001
0001
0001
0000
,
0010
0000
0100
0000
,
1000
1000
1000
0000
,
0000
0000
0000
0000
,
0001
0000
1000
0000
,
0010
0000
0000
0000
,
0100
0000
0001
0000
,
0010
0000
0000
0000
,
0100
0000
1000
0000
,
0001
0000
0000
0000
,
0100
0000
0010
0000
,
1000
0000
0000
0000
,
0001
0000
0001
0000
,
0100
0000
0100
0000
,
0001
0000
0001
0000
,
1000
0000
1000
0000
,
0100
0000
0100
0000
,
0010
0000
0010
0000
,
0100
0000
0100
0000
,
1000
0000
1000
0000
,
0000
0000
0000
0000
,
0000
0000
0000
0000
,
0200
0000
0300
0000
,
2000
0000
3000
0000
,
0002
0000
0000
0000
,
0000
0000
0000
0000
,
0203
0000
0300
0000
,
0002
0000
0003
0000
,
2000
0000
0000
0000
,
0000
0000
0000
3000
,
0010
0000
0100
0000
,
0001
0000
0000
0000
,
1000
0000
0100
0000
,
0010
0000
0000
0000
,
0100
0000
1000
0000
,
0001
0000
0100
0000
,
0001
0000
1000
0000
,
0000
0000
0000
0000
,
0100
0100
0100
0000
,
0010
0000
0001
0000
,
1000
1000
1000
0000
,
0010
0000
0100
0000
,
0001
0001
0001
0000
,
1000
0000
0100
0000
,
0010
0010
0010
0000
,
0001
0000
1000
0000
,
0010
0100
0010
0000
,
1000
0000
0100
0000
,
0010
0001
0010
0000
,
0100
0000
1000
0000
,
0001
0100
0010
0000
,
1000
0000
0001
0000
,
0010
0100
1000
0000
,
0001
0000
0010
0000
,
0001
0000
0100
0000
,
0010
0000
1000
0000
,
0100
0000
0010
0000
,
0100
0000
1000
0010
,
0100
0000
0001
0000
,
0100
0000
0010
0000
,
1000
1000
0001
0001
,
0010
0000
0200
0000
,
0300
0000
0000
0000
;

//--------------- dance-single - ----------------
#NOTEDATA:;
#STEPSTYPE:dance-single;
#DESCRIPTION:;
#DIFFICULTY:Easy;
#METER:7;
#RADARVALUES:0.294063,0.329672,0,0.144734,0.120612,256,256,0,18,0,0,0,0,0,0.294063,0.329672,0,0.144734,0.120612,256,256,0,18,0,0,0,0,0;
#CHARTNAME:;
#CHARTHASH:2280948767;
#BANNER:;
#CHARTSTYLE:;
#METERF:0.000000;
#LASTSECONDHINT:120.034729;
#CREDIT:ZSL;
#NOTES:
0000
0000
0000
0000
,
0000
0000
0000
0000
,
0000
0000
0000
0000
,
0000
0000
0000
0000
,
1000
0000
0001
0000
,
0100
0000
0010
0000
,
0100
0100
0010
0010
,
1000
0001
1000
0000
,
0010
1000
0001
0010
,
0100
0010
1000
0010
,
0100
1000
0001
0100
,
0010
1000
0100
0000
,
0010
0001
1000
0010
,
0100
0010
0001
0010
,
0100
0001
1000
0100
,
0010
0001
0100
0000
,
0001
1000
0100
1000
,
0010
0100
0002
0203
,
1300
0100
0001
1000
,
0100
0010
0001
0000
,
1000
0001
0100
0001
,
0010
0100
2000
3200
,
0301
0100
1000
0001
,
0000
0000
0000
0000
,
0100
0000
0000
0100
0000
0000
0000
0000
0001
0000
0000
0001
0000
0000
0000
0000
,
1000
0000
0000
1000
0000
0000
0000
0000
0200
0000
0000
0000
0000
0000
0000
0000
,
0310
0000
0000
0010
0000
0000
0000
0000
0001
0000
0000
0001
0000
0000
0000
0000
,
1000
0000
0000
1000
0000
0000
0000
0000
0001
0000
0000
0010
0000
0000
0000
0000
,
0100
0000
0000
0100
0000
0000
0000
0000
1000
0000
0000
1000
0000
0000
0000
0000
,
0001
0000
0000
0001
0000
0000
0000
0000
0200
0000
0000
0000
0000
0000
0000
0000
,
0310
0000
0000
0010
0000
0000
0000
0000
1000
0000
0000
1000
0000
0000
0000
0000
,
0001
0000
0000
0001
0000
0000
0000
0000
1000
0000
0000
0010
0000
0000
0000
0000
,
1000
0000
0000
0100
0000
0000
0000
0000
0010
0000
0000
0001
0000
0000
0000
0000
,
0100
0000
0000
0010
0000
0000
0000
0000
1000
0000
0000
0001
0000
0000
0000
0000
,
0010
0000
0000
0001
0000
0000
0000
0000
0010
0000
0000
0100
0000
0000
0000
0000
,
0010
0000
0000
0001
0000
0000
0000
0000
1000
0000
0000
0001
0000
0000
0000
0000
,
0001
0000
0000
0100
0000
0000
0000
0000
0010
0000
0000
1000
0000
0000
0000
0000
,
0100
0000
0000
0010
0000
0000
0000
0000
0001
0000
0000
1000
0000
0000
0000
0000
,
0010
0000
0000
1000
0000
0000
0000
0000
0010
0000
0000
0100
0000
0000
0000
0000
,
0010
0000
0000
1000
0000
0000
0000
0000
0001
0000
0000
1000
0000
0000
0000
0000
,
0000
0000
0000
0000
,
0000
0000
0000
0000
,
0002
0000
0203
0000
,
0302
0000
0203
0000
,
0320
0000
0000
0000
,
0000
0000
0000
0000
,
2030
0000
3200
0000
,
2300
0000
3200
0000
,
0320
0000
0000
0000
,
0000
0000
0000
0030
,
0100
1000
0001
0000
,
0100
0001
1000
0000
,
0010
1000
0100
0000
,
0010
0001
0100
0000
,
0010
0100
0010
0100
,
0001
1000
0001
1000
,
0100
0010
0001
1000
,
0000
0000
0000
0000
,
0010
0100
0001
1000
,
0001
0010
0100
0010
,
1000
0010
0001
0100
,
1000
0100
0001
0000
,
0010
0100
1000
0001
,
1000
0010
0100
0010
,
0001
0010
1000
0100
,
0001
0100
1000
0000
,
0001
0100
0010
1000
,
0100
0010
0001
0100
,
1000
0100
0001
0010
,
1000
0010
0001
0000
,
1000
0100
0010
0001
,
0100
0010
1000
0100
,
0001
0100
1000
0010
,
0001
0010
1000
0000
,
0001
0010
0001
0010
,
0100
0010
0001
2000
,
3010
0000
0100
0000
,
0010
0000
1000
0000
0100
0010
0001
0000
,
1000
0010
1000
0010
,
0100
0010
1000
0001
,
0010
0010
0100
0100
,
1000
0000
0001
0000
0100
0000
0010
2000
,
3000
0000
0000
0000
;

//--------------- dance-single - ----------------
#NOTEDATA:;
#STEPSTYPE:dance-single;
#DESCRIPTION:;
#DIFFICULTY:Medium;
#METER:10;
#RADARVALUES:0.411229,0.428574,0,0.144734,0.229162,358,358,0,18,0,0,0,0,0,0.411229,0.428574,0,0.144734,0.229162,358,358,0,18,0,0,0,0,0;
#CHARTNAME:;
#CHARTHASH:3601221696;
#BANNER:;
#CHARTSTYLE:;
#METERF:0.000000;
#LASTSECONDHINT:120.034729;
#CREDIT:ZSL;
#NOTES:
0000
0000
0000
0000
,
0000
0000
0000
0000
,
0000
0000
0000
0000
,
0000
0000
0000
0000
,
1000
0001
1000
0010
,
0100
0001
1000
0100
,
0010
0010
0100
0100
,
0010
0100
1000
0001
0100
0000
0010
0000
,
1000
0000
0001
0000
0010
0000
0000
0000
0001
0000
0010
0000
0100
0000
0000
1000
,
0000
0000
0001
0000
1000
0000
0000
0000
0010
0000
0000
0000
0100
0000
0000
0001
,
0000
0000
1000
0000
0100
0000
0000
0010
0000
0000
0100
0000
1000
0000
0000
0001
,
0000
0100
0001
0000
1000
0100
1000
0000
,
0001
0000
1000
0000
0010
0000
0000
0000
1000
0000
0010
0000
0100
0000
0000
0001
,
0000
0000
1000
0000
0001
0000
0000
0000
0010
0000
0000
0000
0100
0000
0000
1000
,
0000
0000
0001
0000
0100
0000
0000
0010
0000
0000
0100
0000
0001
0000
0000
1000
,
0000
0100
1000
0000
0001
0100
0001
0000
,
1000
0000
0010
1000
0100
0000
0010
0000
,
0001
0100
0010
1000
0020
0000
2030
0000
,
3001
0001
0000
0010
0010
0000
0100
0000
,
1000
0000
0001
0000
0100
0010
0000
0100
,
0001
0000
0010
0001
0100
0000
0010
0000
,
1000
0100
0010
0001
0020
0000
0032
0000
,
0103
0100
0000
0010
0010
0000
1000
0000
,
0001
0000
0000
0000
,
0010
0000
0000
0100
0000
0000
0000
0000
1000
0000
0000
0010
0000
0000
0000
0000
,
0100
0000
0000
0001
0000
0000
0000
0000
2000
0000
0000
0000
0000
0000
0000
0000
,
3001
0000
0000
0010
0000
0000
0000
0000
0100
0000
0000
1000
0000
0000
0000
0000
,
0010
0000
0000
0100
0000
0000
0000
0000
0001
0000
1000
0000
0100
0000
1000
0000
,
0010
0000
0000
0100
0000
0000
0000
0000
0001
0000
0000
0010
0000
0000
0000
0000
,
0100
0000
0000
1000
0000
0000
0000
0000
0002
0000
0000
0000
0000
0000
0000
0000
,
1003
0000
0000
0010
0000
0000
0000
0000
0100
0000
0000
0001
0000
0000
0000
0000
,
0010
0000
0000
0100
0000
0000
0000
0000
1000
0000
0000
0001
0000
0000
0000
0000
,
0100
0000
0000
0010
0000
0000
0100
0000
0001
0000
0000
1000
0000
0000
0000
0000
,
0001
0000
0000
0010
0000
0000
0100
0000
1000
0000
0000
0001
0000
0000
0000
0000
,
1000
0000
0000
0010
0000
0000
0100
0000
0001
0000
0000
1000
0000
0000
0000
0000
,
0100
0000
0000
0010
0000
0000
0001
0000
1000
0000
0000
0010
0000
0000
1000
0000
,
0100
0000
0000
0010
0000
0000
0100
0000
1000
0000
0000
0001
0000
0000
0000
0000
,
1000
0000
0000
0010
0000
0000
0100
0000
0001
0000
0000
1000
0000
0000
0000
0000
,
0001
0000
0000
0010
0000
0000
0100
0000
1000
0000
0000
0001
0000
0000
0000
0000
,
0100
0000
0000
0010
0000
0000
1000
0000
0001
0000
0000
0010
0000
0000
0001
0000
,
0000
0000
0000
0000
,
0000
0000
0000
0000
,
2000
0000
3200
0000
,
0320
0000
0032
0000
,
2003
0000
0000
0000
,
0000
0000
0000
0000
,
3002
0000
0203
0000
,
0320
0000
2030
0000
,
3002
0000
0000
0000
,
0000
0000
0000
0003
,
1000
0100
0010
0100
,
1000
0001
0100
0010
,
0100
0000
0001
0000
0010
0000
0100
1000
,
0001
0000
0100
0010
0100
0000
0001
0000
,
0010
0100
0010
0001
,
1000
0010
0100
0010
,
1000
0001
1000
0001
0010
0100
0010
0100
,
0000
0000
0000
0000
,
1000
0000
0100
0000
1000
0000
0000
0000
0001
0000
0000
0100
0000
0000
0001
0000
,
1000
0000
0100
0000
0010
0000
0000
0000
0100
0000
0000
1000
0000
0000
0010
0000
,
1000
0000
0010
0000
0100
0000
0000
0000
0001
0000
0000
1000
0000
0000
0100
0000
,
0010
0000
0001
0000
0010
0000
0000
0000
0100
0000
0000
1000
0000
1000
0000
0000
,
0001
0000
0100
0000
0001
0000
0000
0000
1000
0000
0000
0100
0000
0000
1000
0000
,
0001
0000
0100
0000
0010
0000
0000
0000
0100
0000
0000
0001
0000
0000
0010
0000
,
0001
0000
0010
0000
0100
0000
0000
0000
1000
0000
0000
0001
0000
0000
0100
0000
,
0010
0000
1000
0000
0010
0000
0000
0000
0100
0000
0000
0001
0000
0001
0000
0000
,
0010
0000
0100
0000
1000
0000
0000
0000
0001
0000
0000
0100
0000
0000
0010
0000
,
0100
0000
0001
0000
1000
0000
0000
0000
0100
0000
0000
0010
0000
0000
0100
0000
,
0001
0000
0100
0000
0010
0000
0000
0000
0001
0000
0000
1000
0000
0000
0010
0000
,
0001
0000
0010
0000
0100
0000
0000
0000
0001
0000
0000
1000
0000
1000
0000
0000
,
0010
0000
0100
0000
0001
0000
0000
0000
1000
0000
0000
0100
0000
0000
0010
0000
,
0100
0000
1000
0000
0001
0000
0000
0000
0100
0000
0000
0010
0000
0000
0100
0000
,
1000
0000
0100
0000
0010
0000
0000
0000
1000
0000
0000
0001
0000
0000
0010
0000
,
1000
0000
0010
0000
0100
0000
0000
0000
1000
0000
0000
0001
0000
0001
0000
0000
,
0100
0000
0001
0100
0010
0000
1000
0000
,
0001
0000
1000
0001
0010
0000
0200
0000
,
1300
0100
0010
0100
,
1000
0000
0001
0000
0100
0100
0010
0000
,
1000
0000
0100
0010
0001
0000
0100
0010
,
1000
0000
0001
0010
0100
0000
1000
0000
,
0001
0000
0100
0000
0010
1000
0010
1000
,
0001
0000
0010
0000
0100
1000
0001
0200
,
0300
0000
0000
0000
;

//--------------- dance-single - ----------------
#NOTEDATA:;
#STEPSTYPE:dance-single;
#DESCRIPTION:;
#DIFFICULTY:Hard;
#METER:13;
#RADARVALUES:0.564004,0.659344,0.032163,0.128653,0.385958,491,487,4,16,0,0,0,0,0,0.564004,0.659344,0.032163,0.128653,0.385958,491,487,4,16,0,0,0,0,0;
#CHARTNAME:;
#CHARTHASH:122940178;
#BANNER:;
#CHARTSTYLE:;
#METERF:0.000000;
#LASTSECONDHINT:120.034729;
#CREDIT:ZSL;
#NOTES:
0000
0000
0000
0000
,
0000
0000
0000
0000
,
0000
0000
0000
0000
,
0000
0000
0000
0000
,
1000
0001
0100
0010
,
1000
0001
0010
0100
,
1000
0001
1000
0001
1000
0001
1000
0001
,
0100
0010
0100
0010
1000
0001
0010
0000
,
0001
0000
1000
0000
0001
0000
0100
0000
0010
0000
1000
0000
0100
0000
1000
0010
,
0000
0000
0100
0000
0010
0000
1000
0000
0001
0010
0000
0000
0100
1000
0000
0001
,
0000
0100
0010
0000
1000
0000
0010
0100
0000
0000
0001
0000
1000
0000
0100
1000
,
0000
0001
0100
0000
0010
0000
0100
0000
0001
1000
0001
0000
0100
0000
0001
0000
,
1000
0000
0001
0000
1000
0000
0100
0000
0010
0000
0001
0000
0100
0000
0001
0010
,
0000
0000
0100
0000
0010
0000
0001
0000
1000
0010
0000
0000
0100
0001
0000
1000
,
0000
0100
0010
0000
0001
0000
0010
0100
0000
0000
1000
0000
0001
0000
0100
0001
,
0000
1000
0100
0000
0010
0000
0100
0000
1000
0000
0001
0000
1000
0000
0000
0000
,
0001
0100
0010
1000
0100
0010
0001
0100
,
1000
0100
0001
0010
0200
0000
2300
0000
,
3001
0100
0001
0000
0000
0000
1000
0100
1000
0000
0000
0000
0001
0000
0000
0000
,
0100
0010
0100
0000
0010
0000
1000
0000
0001
0000
0100
0000
0000
0000
0010
0000
,
1000
0100
0010
0001
0100
0010
1000
0100
,
0001
0100
1000
0010
0200
0000
0302
0000
,
0013
0100
0010
0000
0000
0000
0001
0100
0001
0000
0000
0000
1000
0000
0100
0000
,
0000
0000
0000
0000
,
1001
0000
0000
1000
0000
0000
0000
0000
0001
0000
0000
0010
0000
0000
0000
0000
,
0100
0000
0000
1000
0000
0000
0000
0000
0001
0000
0000
1000
0000
0000
0010
0000
,
0110
0000
0000
0100
0000
0000
0000
0000
0010
0000
0000
1000
0000
0000
0000
0000
,
0100
0000
0000
0010
0000
0000
0000
0000
0001
0000
1000
0010
1000
0000
0001
0000
,
1001
0000
0000
0001
0000
0000
0000
0000
1000
0000
0000
0010
0000
0000
0000
0000
,
0100
0000
0000
0001
0000
0000
0000
0000
1000
0000
0000
0001
0000
0000
0010
0000
,
0110
0000
0000
0100
0000
0000
0000
0000
0010
0000
0000
0001
0000
0000
0000
0000
,
0100
0000
0000
0010
0000
0000
0000
0000
0100
0000
0000
0001
0000
0000
0000
0000
,
1000
0000
0000
0100
0000
0000
0010
0000
0100
1000
0000
0001
0000
0000
0000
0000
,
0100
0000
0000
0010
0000
0000
1000
0000
0010
0100
0000
0001
0000
0000
0000
0000
,
0010
0000
0000
0100
0000
0000
1000
0000
0001
0100
0000
0010
0000
0000
0000
0000
,
1000
0000
0000
0010
0000
0000
0100
0000
0001
0010
0000
0100
0000
0000
1000
0000
,
0001
0000
0000
0100
0000
0000
0010
0000
0100
0001
0000
1000
0000
0000
0000
0000
,
0100
0000
0000
0010
0000
0000
0001
0000
0010
0100
0000
1000
0000
0000
0000
0000
,
0010
0000
0000
0100
0000
0000
0001
0000
1000
0100
0000
0010
0000
0000
0000
0000
,
0001
0000
0000
0010
0000
0000
0100
0000
1000
0010
0000
0100
0000
0000
0001
0000
,
0000
0000
0000
0000
,
0000
0000
0000
0000
,
2000
0000
3200
0000
,
0320
0000
0032
0000
,
0203
0000
0000
0000
,
0000
0000
0000
0000
,
0302
0000
0203
0000
,
0320
0000
2030
0000
,
3200
0000
0000
0000
,
0000
0000
0000
0300
,
0010
0001
0010
0001
1000
0010
0100
0000
,
0010
1000
0010
1000
0001
0010
0100
0000
,
1000
0100
1000
0001
0100
0010
1000
0000
,
0001
0100
0001
1000
0100
0010
0001
0000
,
0100
0010
0100
0010
1000
0001
1000
0001
,
0010
0100
0010
0100
1000
0010
1000
0010
,
0001
0010
1000
0100
0001
0100
1000
0001
,
0000
0000
0000
0000
,
1000
0000
0010
0000
1000
0000
0001
0000
0010
0000
0100
1000
0000
0100
1000
0000
,
0001
0000
0010
0000
0001
0000
1000
0000
0010
0000
0100
0001
0000
0100
0001
0000
,
0010
0000
0100
0000
1000
0000
0001
0000
0100
0000
0010
1000
0000
0010
1000
0000
,
0100
0000
0010
0000
0001
0000
1000
0000
0010
0000
0100
0001
0000
1000
0000
0000
,
0001
0000
0010
0000
0001
0000
1000
0000
0010
0000
0100
0001
0000
0100
0001
0000
,
1000
0000
0010
0000
1000
0000
0001
0000
0010
0000
0100
1000
0000
0100
1000
0000
,
0010
0000
0100
0000
0001
0000
1000
0000
0100
0000
0010
0001
0000
0010
0001
0000
,
0100
0000
0010
0000
1000
0000
0001
0000
0010
0000
0100
1000
0000
0001
0000
0000
,
0100
0000
0010
0000
1000
0000
0010
0000
0100
0000
0001
1000
0000
0100
0010
0000
,
0001
0000
0010
0000
0100
0000
0010
0000
0001
0000
1000
0001
0000
0100
0010
0000
,
0001
0000
0010
0000
0100
0000
0001
0000
1000
0000
0100
0010
0000
0001
0010
0000
,
1000
0000
0010
0000
0001
0000
0100
0000
0010
0000
1000
0001
0000
0010
0000
0000
,
0100
0000
0010
0000
0001
0000
0010
0000
0100
0000
1000
0001
0000
0100
0010
0000
,
1000
0000
0010
0000
0100
0000
0010
0000
1000
0000
0001
1000
0000
0100
0010
0000
,
1000
0000
0010
0000
0100
0000
1000
0000
0001
0000
0100
0010
0000
1000
0010
0000
,
0001
0000
0010
0000
1000
0000
0100
0000
0010
0000
0001
1000
0001
1000
0000
0000
,
0001
0100
0010
1000
0100
1000
0010
0000
,
1000
0100
0010
0001
0100
0001
0020
0000
,
0130
1000
0001
0100
,
0010
0000
0100
0000
0001
0000
0010
0000
0100
1000
0100
1000
0100
0000
0000
0000
,
1000
0100
0010
0100
0001
0100
0010
0000
,
0001
0100
0010
0100
1000
0100
0010
0000
,
1000
0010
0100
0001
1000
0010
0100
0001
,
0010
0000
0001
0000
0010
0100
1000
0002
,
0003
0000
0000
0000
;

//--------------- dance-single - ----------------
#NOTEDATA:;
#STEPSTYPE:dance-single;
#DESCRIPTION:;
#DIFFICULTY:Challenge;
#METER:16;
#RADARVALUES:0.787997,0.923082,0.136693,0.128653,0.771915,686,669,17,16,0,0,0,0,0,0.787997,0.923082,0.136693,0.128653,0.771915,686,669,17,16,0,0,0,0,0;
#CHARTNAME:;
#CHARTHASH:2998915309;
#BANNER:;
#CHARTSTYLE:;
#METERF:0.000000;
#LASTSECONDHINT:120.034729;
#CREDIT:ZSL;
#NOTES:
0000
0000
0000
0000
,
0000
0000
0000
0000
,
0000
0000
0000
0000
,
0000
0000
0000
0000
,
1000
1000
0001
0001
,
1000
1000
0001
0001
,
1000
1000
0001
0001
1000
1000
0001
0001
,
0100
0010
0100
0010
0100
0010
0100
0010
0100
0010
0100
0010
1000
0000
0001
0000
,
0100
0001
1000
0000
0001
0000
0010
0100
1000
0000
0001
0000
0010
0000
0001
1000
,
0000
0010
0100
0000
0010
0000
1000
0000
0100
0010
0001
0000
1000
0010
0000
0100
,
0000
0001
0010
0001
0100
0001
1000
0010
0000
1000
0100
1000
0010
1000
0001
0100
,
0000
0001
0010
0100
0000
1000
0100
0010
0001
0100
0010
1000
0001
0000
1000
0000
,
0100
1000
0001
0000
1000
0000
0010
0100
0001
0000
1000
0000
0010
0000
1000
0001
,
0000
0010
0100
0000
0010
0000
0001
0000
0100
0010
1000
0000
0001
0010
0000
0100
,
0000
1000
0010
1000
0100
1000
0001
0010
0000
0001
0100
0001
0010
0001
1000
0100
,
0000
1000
0010
0100
0000
0001
0100
0010
1000
0100
0010
0001
1000
0000
0001
0000
,
1000
0010
1000
0010
0100
0001
1000
0010
0100
0000
0001
0000
1000
0000
0100
0000
,
0010
0001
0010
0001
1000
0100
0010
0001
2000
0000
0000
0000
3002
0000
0000
0000
,
1003
0010
1000
0010
1000
0000
0001
0010
0001
0010
0001
0000
0100
0000
0010
0000
,
1000
0010
0100
0001
0010
0000
0100
0000
1000
0000
0001
0000
0000
0000
0010
0000
,
0001
0100
0010
1000
0001
0100
0010
1000
0100
0000
0010
0000
0001
0000
1000
0000
,
0100
0010
0001
1000
0100
0010
0001
1000
0020
0000
0000
0000
0230
0000
0000
0000
,
0310
1000
0001
1000
0010
0000
0100
0001
1000
0001
0100
0000
0001
0000
0010
0000
,
0100
0000
0000
0000
,
1000
0000
0100
0010
0000
0000
0001
0000
0100
0000
0010
1000
0000
0000
0001
0000
,
0010
0000
0100
1000
0000
0000
0001
0000
1001
0000
0000
1100
0000
0000
0011
0000
,
0010
0000
0100
1000
0000
0000
0001
0000
0100
0000
0010
1000
0000
0000
0001
0000
,
0010
0000
0100
1000
0000
0000
0001
0000
0100
0000
0001
0010
0100
1000
0010
0100
,
0001
0000
0100
0010
0000
0000
1000
0000
0100
0000
0010
0001
0000
0000
1000
0000
,
0010
0000
0100
0001
0000
0000
1000
0000
1001
0000
0000
0101
0000
0000
1010
0000
,
0010
0000
0100
0001
0000
0000
1000
0000
0100
0000
0010
0001
0000
0000
1000
0000
,
0010
0000
0100
0001
0000
0000
0000
0000
1000
0000
0100
1000
0000
0000
0000
0000
,
0001
0000
0010
0100
0000
0000
0001
0000
0100
1000
0001
0010
0000
0000
0001
0000
,
0100
0000
0010
0100
0000
0000
1000
0000
0100
0010
1000
0001
0000
0000
0010
0000
,
0100
0000
0010
0001
0000
0000
0010
0000
0100
1000
0010
0100
0000
0000
0001
0000
,
0100
0000
0010
1000
0000
0000
0001
0000
0010
0001
0100
0010
0000
0000
1000
0000
,
1000
0000
0010
0100
0000
0000
1000
0000
0100
0001
1000
0010
0000
0000
1000
0000
,
0100
0000
0010
0100
0000
0000
0001
0000
0100
0010
0001
1000
0000
0000
0010
0000
,
0100
0000
0010
1000
0000
0000
0010
0000
0100
0001
0010
0100
0000
0000
1000
0000
,
0100
0000
0010
0001
0000
0000
1000
0000
0010
1000
0100
0010
0000
0000
0001
0000
,
0000
0000
0000
0000
,
0000
0000
0000
0000
,
2000
0000
3020
0000
,
0032
0000
2003
0000
,
3200
0000
0000
0000
,
1000
0000
0000
0010
,
0302
0000
0023
0000
,
2030
0000
3002
0000
,
0203
0000
0000
0000
,
0001
0000
0000
0300
,
0100
1000
0001
0100
0101
0001
0010
0100
,
1000
0010
0100
0010
1010
1000
0001
0100
,
0001
0000
0010
0000
0100
0000
1000
0000
1100
0000
0100
0000
1000
0000
0001
0100
,
0010
0000
1000
0000
0001
0000
1000
0100
0010
0000
0001
0000
1000
0000
0001
0000
,
0100
0010
0100
0010
1000
0001
1000
0001
0010
0000
0100
0000
0010
0000
0001
0000
,
1000
0001
1000
0001
0010
0100
0010
0100
1000
0000
0001
0000
0100
0000
0010
0000
,
1000
0100
1000
0001
0100
0010
1000
0010
0100
0001
0010
0100
1000
0100
0010
0001
,
0000
0000
0000
0000
,
1000
0000
0001
0000
0100
0000
0001
0000
0010
0001
1000
0100
1000
0001
0010
0000
,
0001
0000
1000
0000
0100
0000
1000
0000
0010
1000
0001
0100
0001
1000
0010
0000
,
0001
0000
0010
0000
1000
0000
0001
0000
0010
0100
1000
0100
0010
0001
0100
0000
,
1000
0000
0100
0000
0001
0000
1000
0000
0100
0010
0001
0100
0010
1000
0000
0000
,
0001
0000
1000
0000
0010
0000
1000
0000
0100
1000
0001
0010
0001
1000
0100
0000
,
1000
0000
0001
0000
0010
0000
0001
0000
0100
0001
1000
0010
1000
0001
0100
0000
,
1000
0000
0100
0000
0001
0000
1000
0000
0100
0010
0001
0010
0100
1000
0010
0000
,
0001
0000
0010
0000
1000
0000
0001
0000
0010
0100
1000
0010
0100
0001
0000
0000
,
0010
0000
0001
0000
1000
0000
0010
0000
0100
1000
0100
0010
1000
0001
1000
0000
,
0010
0000
0100
0000
0001
0000
0010
0000
0100
0001
0100
0010
0001
1000
0100
0000
,
0001
0000
0100
0000
1000
0000
0010
0000
0001
0010
0100
0010
1000
0001
0010
0000
,
1000
0000
0010
0000
0001
0000
1000
0000
0010
0100
0001
0010
0100
1000
0000
0000
,
0100
0000
1000
0000
0001
0000
0100
0000
0010
0001
0010
0100
0001
1000
0001
0000
,
0100
0000
0010
0000
1000
0000
0100
0000
0010
1000
0010
0100
1000
0001
0010
0000
,
1000
0000
0010
0000
0001
0000
0100
0000
1000
0100
0010
0100
0001
1000
0100
0000
,
0001
0000
0100
0000
1000
0000
0001
0000
0100
0010
1000
0100
0010
0001
0000
0000
,
1001
1000
0100
1000
1010
0010
0100
1000
,
1100
0100
0001
0010
0110
0100
2000
0000
,
3100
0000
0010
0000
0001
1000
0010
1000
,
0100
0000
0010
0000
0100
0000
1000
0000
0001
0010
1000
0010
0001
0000
0000
0000
,
1001
0001
0100
0001
0011
0010
0100
0001
,
0101
0100
1000
0010
0110
0100
0002
0000
,
1003
0001
1000
0001
0010
0100
0010
0100
1000
0010
1000
0010
0100
0001
0100
0001
,
0010
0100
0001
0100
1000
0010
0001
0020
,
0030
0000
0000
0000
;
