#VERSION:0.83;
#TITLE:月下の舞兎祭;
#SUBTITLE:;
#ARTIST:Aoi feat. Kuroa*;
#TITLETRANSLIT:Gekka no butousai;
#SUBTITLETRANSLIT:;
#ARTISTTRANSLIT:;
#GENRE:;
#ORIGIN:;
#TAGS:;
#CREDIT:;
#BANNER:Gekka no butousai.png;
#BACKGROUND:Gekka no butousai-bg.png;
#PREVIEWVID:;
#JACKET:Gekka no butousai-jacket.png;
#CDIMAGE:;
#DISCIMAGE:;
#LYRICSPATH:;
#CDTITLE:;
#MUSIC:Gekka no butousai.ogg;
#OFFSET:1.249000;
#SAMPLESTART:69.793999;
#SAMPLELENGTH:15.000000;
#SELECTABLE:YES;
#DISPLAYBPM:152.000000;
#BPMS:0.000000=152.000000
,35.000000=304.000000
,35.666668=76.000000
,36.000000=152.000000
,75.000000=228.000000
,76.000000=152.000000
,106.000000=304.000000
,108.000000=152.000000
,276.000000=304.000000
,276.666656=76.000000
;
#STOPS:75.000000=0.132000
,106.000000=0.098000
,106.500000=0.099000
,107.000000=0.099000
,107.500000=0.098000
;
#DELAYS:;
#WARPS:;
#TIMESIGNATURES:0.000000=4=4
;
#TICKCOUNTS:0.000000=4
;
#COMBOS:0.000000=1
;
#SPEEDS:0.000000=1.000000=0.000000=0
;
#SCROLLS:0.000000=1.000000
;
#FAKES:;
#LABELS:0.000000=Song Start
;
#BGCHANGES:;
#KEYSOUNDS:;
#ATTACKS:
;

//---------------dance-single - ----------------
#NOTEDATA:;
#CHARTNAME:;
#CHARTHASH:2147483647;
#STEPSTYPE:dance-single;
#BANNER:;
#DESCRIPTION:;
#CHARTSTYLE:;
#DIFFICULTY:Beginner;
#METER:4;
#METERF:0.000000;
#LASTSECONDHINT:108.092781;
#RADARVALUES:0.143942,0.190298,0.000000,0.109919,0.000000,110.000000,110.000000,0.000000,12.000000,0.000000,0.000000,0.000000,0.000000,0.000000,0.143942,0.190298,0.000000,0.109919,0.000000,110.000000,110.000000,0.000000,12.000000,0.000000,0.000000,0.000000,0.000000,0.000000;
#CREDIT:ZSL;
#DISPLAYBPM:152.000000;
#NOTES:
0000
0000
0000
0000
,
0000
0000
0000
0000
,
0000
0000
0000
0000
,
0000
0000
0000
0000
,
0000
0000
0000
0000
,
1000
0000
0000
0000
,
0001
0000
0000
0000
,
0010
0000
0000
0000
,
0100
0000
0000
0000
,
1000
0000
0001
0000
,
0100
0000
0010
0000
,
0100
0000
0001
0000
,
1000
0000
0100
0000
,
0010
0000
0001
0000
,
0010
0000
0100
0000
,
1000
0000
0001
0000
,
0100
0000
0010
0000
,
1000
0000
0000
0000
,
0100
0000
0000
0000
,
0010
0000
0000
0000
,
0100
0000
0000
0000
,
1000
0000
0000
0000
,
0001
0000
0000
0000
,
0100
0000
0000
0000
,
0010
0000
0000
0000
,
1000
0000
0000
0000
,
0001
0000
2000
0000
,
3001
0000
0010
0000
,
0100
0000
0000
0000
,
1000
0000
0100
0000
,
0010
0000
0000
0000
,
0001
0000
0100
0000
,
0010
0000
0000
0000
,
1000
0000
0001
0000
,
0010
0000
0000
0000
,
0200
0000
0000
0000
0000
0000
0000
0300
,
0000
0010
0010
0000
,
0001
0000
1000
0000
,
0010
0000
0100
0000
,
0002
0000
0000
0000
0000
0000
0000
0003
,
0000
1000
1000
0000
,
0100
0000
0010
0000
,
0001
0000
1000
0000
,
0020
0000
0000
0000
,
0230
0000
0300
0000
,
0002
0000
0003
1000
,
0100
0000
0010
0000
,
0200
0000
0300
0010
,
0001
0000
1000
0000
,
0020
0000
0000
0000
0000
0030
0000
0000
,
0100
0000
0001
1000
,
0100
0000
0010
0000
,
0001
0000
0100
0001
,
2000
0000
3000
0100
,
0010
0000
0001
0000
,
0200
0000
0300
0010
,
1000
0000
0001
0000
,
0020
0000
0000
0000
0000
0030
0000
0000
,
0100
0000
0010
0001
,
1000
0000
0010
0000
,
0100
0000
0010
1000
,
0001
0000
1000
0000
,
0100
0000
0010
0000
,
0100
0000
1000
0000
,
0001
0000
0100
0000
,
0010
0000
1000
0000
,
0010
0000
0100
0000
,
0001
0000
1000
0000
,
0100
0000
0010
0000
,
0002
0003
0000
0000
;

//---------------dance-single - ----------------
#NOTEDATA:;
#CHARTNAME:;
#CHARTHASH:2147483647;
#STEPSTYPE:dance-single;
#BANNER:;
#DESCRIPTION:;
#CHARTSTYLE:;
#DIFFICULTY:Easy;
#METER:7;
#METERF:0.000000;
#LASTSECONDHINT:108.092781;
#RADARVALUES:0.291810,0.348879,0.018320,0.155719,0.004580,223.000000,221.000000,2.000000,17.000000,0.000000,0.000000,0.000000,0.000000,0.000000,0.291810,0.348879,0.018320,0.155719,0.004580,223.000000,221.000000,2.000000,17.000000,0.000000,0.000000,0.000000,0.000000,0.000000;
#CREDIT:ZSL;
#DISPLAYBPM:152.000000;
#NOTES:
0000
0000
0000
0000
,
0000
0000
0000
0000
,
0000
0000
0000
0000
,
0000
0000
0000
0000
,
0000
0000
0000
0000
,
1000
0100
0010
0000
,
0100
0010
0001
0000
,
1000
0010
0100
0000
,
0001
0100
0010
2000
,
3100
0010
0100
1000
,
0010
0010
0100
0001
,
1000
0100
0010
0001
,
1000
0010
1000
0001
,
0100
0010
0100
0001
,
0010
0010
0100
1000
,
0001
0100
0010
1000
,
0001
0010
0001
1000
,
0001
0000
0000
0000
,
1000
0000
0000
0000
0000
0000
0000
0000
0000
0000
0000
0000
0000
0000
0000
0000
0000
0000
0000
0000
0000
0000
0000
0000
0000
0000
0000
0000
0000
0000
0000
0000
0100
0000
0000
0000
0000
0000
0000
0000
0000
0000
0000
0000
0000
0000
0000
0000
0020
0030
0000
0000
0000
0000
0000
0000
0000
0000
0000
0000
0000
0000
0000
0000
,
0001
0000
1000
0000
,
0010
0000
0100
0000
,
0010
0000
1000
0000
,
0001
0000
0010
0000
,
0100
0010
0100
0000
,
1000
0001
1000
0000
,
0010
0100
0001
0000
,
1000
0000
0002
0000
,
1003
0100
1000
0010
,
0100
0010
1000
0001
,
0010
0001
0100
0001
,
0010
0100
1000
0000
,
0100
0010
0100
1000
,
0010
0100
0010
1000
,
0100
0010
0001
1000
,
1001
0000
1001
0000
,
0002
0000
0000
0000
0000
0000
0000
0003
,
0000
0100
0010
0000
1000
0000
0001
0000
,
0020
0000
0000
0130
2000
0000
0000
0000
,
0001
0000
3100
0000
,
0020
0000
0000
0000
0000
0000
0000
0030
,
0000
0001
1000
0000
0010
0000
0100
0000
,
0001
0000
0000
1000
0100
0000
0000
0010
,
0001
0000
0000
1000
0010
0000
0100
0000
,
0002
0000
0000
0000
,
2003
0000
0000
3000
,
0200
0000
1000
0000
0310
0000
0100
1000
,
0100
1000
0001
0100
,
0020
0000
0100
0000
1030
0000
0001
1000
,
0001
0010
0100
1000
,
0002
0000
1000
0000
0100
0003
0000
0001
,
0100
0000
0010
1000
,
0100
0000
0000
0010
0001
0000
1000
0020
,
0000
0000
0000
0030
1000
0000
0001
0000
,
2000
0000
0100
0000
3010
0000
0100
0010
,
0100
0000
0001
0000
1000
0100
1000
0000
,
0002
0000
0100
0000
0013
0000
0100
1000
,
0100
0000
1000
0000
0010
0000
0100
0001
,
2000
0000
0010
0000
0100
3000
0000
1000
,
0010
0000
0100
0010
,
1000
0000
0000
0100
0010
0000
0000
0001
,
0100
0000
0001
1000
,
0010
0100
0010
1000
,
0100
0100
0010
0001
,
1000
0010
0100
0001
,
1000
0100
1000
0001
,
0010
0100
0010
0001
,
0100
0100
0010
1000
,
0001
0010
0100
1000
,
0001
0100
0001
1000
,
0200
0300
0000
0000
;

//---------------dance-single - ----------------
#NOTEDATA:;
#CHARTNAME:;
#CHARTHASH:2147483647;
#STEPSTYPE:dance-single;
#BANNER:;
#DESCRIPTION:;
#CHARTSTYLE:;
#DIFFICULTY:Medium;
#METER:10;
#METERF:0.000000;
#LASTSECONDHINT:108.092781;
#RADARVALUES:0.438369,0.444028,0.109919,0.293118,0.073280,335.000000,323.000000,12.000000,32.000000,0.000000,0.000000,0.000000,0.000000,0.000000,0.438369,0.444028,0.109919,0.293118,0.073280,335.000000,323.000000,12.000000,32.000000,0.000000,0.000000,0.000000,0.000000,0.000000;
#CREDIT:ZSL;
#DISPLAYBPM:152.000000;
#NOTES:
0000
0000
0000
0000
,
0000
0000
0000
0000
,
0000
0000
0000
0000
,
0000
0000
0000
0000
,
0000
0000
0000
0000
,
1000
0000
0000
0000
0001
0000
0000
0000
0010
0000
0000
0100
0000
0000
0010
0000
,
0001
0000
1000
0000
0010
0000
0100
0001
,
0100
0010
1000
0001
,
0010
0100
1000
0000
0010
0100
0002
0000
,
0103
0000
0010
0000
1000
0001
0010
0100
,
1000
0000
0001
0100
0001
0000
1000
0000
,
0100
0000
0010
0000
0001
0100
0001
0010
,
0100
1000
0001
0011
,
0100
0000
0010
0000
0001
1000
0010
0100
,
0001
0000
1000
0100
1000
0000
0001
0000
,
0100
0000
0010
0000
1000
0100
1000
0010
,
0100
0001
1000
1010
,
0110
0000
0000
0000
,
0100
0000
0000
0000
0000
0000
0000
0000
0000
0000
0000
0000
0000
0000
0000
0000
0001
0000
0000
0000
0000
0000
0000
0000
1000
0000
0000
0000
0000
0000
0000
0000
0100
0000
0000
0000
0000
0000
0000
0000
0010
0000
0000
0000
0000
0000
0000
0000
0200
0300
0000
0000
0000
0000
0000
0000
0000
0000
0000
0000
0000
0000
0000
0000
,
1000
0001
0100
0001
,
0010
0100
1000
0100
,
0010
0001
0100
0010
,
1000
0000
0000
0010
0000
0000
1000
0000
0001
0000
0000
0000
0000
0000
0000
0000
,
1000
0000
0100
0010
0001
0000
1000
0000
,
0010
0000
0100
0010
1000
0000
0001
0010
,
0100
0010
0001
1000
,
0010
0000
0000
1000
0001
0000
0000
1000
0200
0000
0000
0000
0320
0000
0000
0000
,
0031
0000
0010
0100
0010
0000
0100
1000
,
0100
0000
1000
0001
1000
0000
0010
0100
,
0001
0000
1000
0100
0010
0000
0001
0000
,
0100
0000
0000
0010
0000
0000
1000
0000
0001
0000
0000
0000
0000
0000
0000
0000
,
0010
0000
0100
1000
0001
0000
0100
0010
,
1000
0000
0001
0010
0100
0000
0010
0001
,
0100
0010
1000
0001
,
0012
0000
0000
2003
0000
0000
3010
0000
0100
0000
0000
0000
0010
0000
0000
0000
,
2000
0000
0001
0000
0010
0000
0100
3100
,
1000
0000
0100
0010
0001
0000
1000
0010
,
0200
0000
0001
0301
2000
0000
0100
0000
,
0010
0001
3010
0100
,
0002
0000
1000
0000
0010
0000
0100
0103
,
0001
0000
0100
0010
1000
0000
0001
0000
,
1001
0000
0000
0000
0000
0000
1000
0000
0200
0000
0000
0320
0000
0000
0031
0000
,
2000
0000
0000
3020
0000
0000
0130
0000
0001
0000
0000
0000
2000
0000
0000
0000
,
3002
1000
0000
1000
,
0203
0010
0010
0301
,
2000
0000
0001
0001
3001
0000
0010
0001
,
1000
0000
0000
0010
0000
0000
0100
0000
0001
0000
1000
0000
0100
0000
1000
0000
,
0002
0000
1000
1000
1003
0000
0001
1000
,
0010
0000
0000
0100
0000
0000
0001
0000
1000
0000
0100
0000
0010
0000
0001
0000
,
2000
0000
0100
0100
0100
3000
0000
1000
,
0010
0000
0100
0001
,
1000
0000
0000
0010
0000
0000
1000
0000
0100
0000
0000
0000
0010
0000
0002
0000
,
0000
0000
0000
0003
1000
0000
0010
0000
,
0200
0000
0010
0010
0310
0000
1000
0001
,
0010
0000
0000
0100
0000
0000
1000
0000
0010
0000
0100
0000
0010
0000
1000
0000
,
0200
0000
0010
0010
0310
0000
0100
1000
,
0010
0000
0000
0100
0000
0000
0010
0000
1000
0000
0001
0000
1000
0000
0100
0000
,
0020
0000
0100
0100
0100
0030
0000
0010
,
1001
0000
1001
0101
,
0210
0000
0000
0320
0000
0000
1030
0000
0002
0000
0000
0023
0000
0000
0130
0000
,
1000
0000
0002
0203
,
0310
0000
0100
0000
0001
1000
0100
0010
,
0001
0000
1000
0010
1000
0000
0001
0000
,
0010
0000
0100
0000
1000
0010
1000
0100
,
0010
0001
1000
1100
,
0010
0000
0100
0000
1000
0001
0100
0010
,
1000
0000
0001
0010
0001
0000
1000
0000
,
0010
0000
0100
0000
0001
0010
0001
0100
,
0010
1000
0001
0101
,
2002
3003
0000
0000
;

//---------------dance-single - ----------------
#NOTEDATA:;
#CHARTNAME:;
#CHARTHASH:2147483647;
#STEPSTYPE:dance-single;
#BANNER:;
#DESCRIPTION:;
#CHARTSTYLE:;
#DIFFICULTY:Hard;
#METER:15;
#METERF:0.000000;
#LASTSECONDHINT:108.092781;
#RADARVALUES:0.693538,0.761191,0.183199,0.329758,0.609136,530.000000,510.000000,20.000000,36.000000,0.000000,0.000000,0.000000,0.000000,0.000000,0.693538,0.761191,0.183199,0.329758,0.609136,530.000000,510.000000,20.000000,36.000000,0.000000,0.000000,0.000000,0.000000,0.000000;
#CREDIT:ZSL;
#DISPLAYBPM:152.000000;
#NOTES:
// measure 0
0000
0000
0000
0000
,  // measure 1
0000
0000
0000
0000
,  // measure 2
0000
0000
0000
0000
,  // measure 3
0000
0000
0000
0000
,  // measure 4
0000
0000
0000
0000
,  // measure 5
1000
0000
0001
0010
0000
0010
0001
0000
1000
0100
0000
0100
1000
0000
0010
0000
,  // measure 6
0100
0000
0001
1000
0000
0100
0000
0010
0000
0000
0001
0000
1000
0000
0000
0000
,  // measure 7
0001
0000
0100
0000
0010
0100
0010
0000
1000
0001
1000
0000
0100
0000
0010
0000
,  // measure 8
0001
0000
0010
0100
1000
0000
0001
0100
0000
0100
0010
1000
0200
0000
0000
0000
,  // measure 9
0320
0000
0000
0130
1000
0000
0001
1000
0010
0000
0100
0000
0001
0000
1000
0000
,  // measure 10
0100
0000
0010
0100
1000
0000
0100
1000
0001
0000
0100
0010
0100
0000
0000
0000
,  // measure 11
0002
0000
0000
1003
0100
0000
0010
0200
1000
0000
0310
0000
0001
0000
1000
0000
,  // measure 12
0010
0000
0100
0001
1000
0000
0100
0010
0001
0000
1001
0000
1001
0000
1000
0000
,  // measure 13
0020
0000
0000
0130
0001
0000
1000
0001
0010
0000
0100
0000
1000
0000
0001
0000
,  // measure 14
0100
0000
0010
0100
0001
0000
0100
0001
1000
0000
0100
0010
0001
0000
0000
0000
,  // measure 15
2000
0000
0000
3001
0100
0000
0010
0200
0001
0000
0310
0000
1000
0001
1000
0001
,  // measure 16
0010
0000
0100
1000
0001
0000
0100
0010
1000
0000
0100
0010
0002
0000
0000
0000
,  // measure 17
1003
0000
0000
0000
,  // measure 18
0001
0000
0000
0000
0000
0000
0000
0000
0000
0000
0000
0000
0100
0000
0000
0000
0010
0000
0000
0000
0000
0000
0000
0000
1000
0000
0000
0000
0000
0000
0000
0000
0100
0000
0000
0000
0010
0000
0000
0000
0100
0000
0000
0000
0010
0000
0000
0000
0002
0003
0000
0000
0000
0000
0000
0000
0000
0000
0000
0000
0000
0000
0000
0000
,  // measure 19
1000
0010
0100
0001
1000
0000
0001
0100
,  // measure 20
1000
0100
0001
0010
0100
0000
0010
0001
,  // measure 21
1000
0000
0010
0100
0001
0000
0100
0000
,  // measure 22
0010
0000
0000
1000
0000
0000
0001
0000
1000
0000
0000
0000
0000
0000
0000
0000
,  // measure 23
0001
0000
0010
0000
0100
1000
0000
1000
0001
0000
0010
0000
1000
0000
0010
0000
,  // measure 24
0001
0000
0100
0000
0010
1000
0010
1000
0010
0000
0000
0000
1000
0000
0001
0000
,  // measure 25
0010
0000
0000
0000
0100
0000
1000
0000
0001
0010
0001
0000
1000
0000
0000
0000
,  // measure 26
0001
0000
0000
0001
0100
0000
0000
0100
0010
0000
0010
0000
1000
0000
1000
0000
,  // measure 27
0001
0000
0010
0100
0010
0000
0001
0010
0001
0000
0000
0000
1000
0000
0010
0000
,  // measure 28
0001
0000
0010
1000
0001
0000
0010
0001
1000
0000
0000
0000
0010
0000
0100
0001
,  // measure 29
0100
0000
0000
0000
0001
0000
1000
0100
1000
0000
0000
0000
0100
0000
0000
0000
,  // measure 30
0110
0000
0000
0001
0000
0000
1000
0000
1010
0000
0000
0000
1000
0000
0000
0000
,  // measure 31
0100
0000
0010
0100
0010
0000
0001
0100
0001
0000
0000
0000
1000
0000
0100
0000
,  // measure 32
0001
0000
0100
1000
0001
0000
0100
0001
1000
0000
0000
0000
0010
0000
1000
0001
,  // measure 33
0100
0000
0000
0000
0001
0000
0010
0100
1000
0000
0000
0000
0100
0000
0000
0000
,  // measure 34
0011
0000
0000
1001
0000
0000
1000
0000
1010
0000
0000
0000
0010
0000
0000
0000
,  // measure 35
0200
0000
0000
0000
0001
0000
0310
1000
0010
0000
1000
0000
0001
0010
0001
0010
,  // measure 36
0001
1000
0100
0010
0001
1000
0010
0100
,  // measure 37
0002
0000
0100
1000
2003
0000
0010
0001
,  // measure 38
3002
0010
0010
0000
1003
0000
0010
0000
,  // measure 39
0200
0000
0000
0000
1000
0000
1000
0000
0320
0000
0000
0000
1030
0001
0010
0001
,  // measure 40
1000
0001
0100
0010
1000
0100
0010
0001
,  // measure 41
1001
0000
0000
0000
1000
0000
0100
1000
0020
0000
0000
0230
0000
0000
0301
0000
,  // measure 42
0012
0000
0000
2003
0000
0000
3010
0000
0100
0001
0100
0001
2000
0000
0000
0000
,  // measure 43
3002
0010
1000
0100
,  // measure 44
0013
0100
1000
0010
0100
0001
0020
0000
0000
0031
0000
0000
,  // measure 45
0200
0000
0001
1000
0000
0000
1000
0001
0300
0000
0000
0000
0010
0000
1000
0000
,  // measure 46
0001
0000
0010
0100
0000
0010
0001
0000
1000
0010
0100
0001
1000
0000
0100
0000
,  // measure 47
0020
0000
0001
1000
0000
0000
1000
0001
0030
0000
0000
0000
0100
0000
1000
0000
,  // measure 48
0001
0000
0100
0010
0000
0100
0001
0000
1000
0100
0010
0001
1000
0000
0010
0000
,  // measure 49
0200
0000
0001
1000
0000
0000
1000
0001
0000
0000
0310
0000
0000
0000
0010
1000
,  // measure 50
0100
0000
0010
0001
,  // measure 51
0101
0000
0000
1000
0000
0000
0100
0000
0110
0000
0000
0000
0010
0100
1000
0001
,  // measure 52
2000
0000
3010
1000
,  // measure 53
0200
0000
0010
0001
0000
0000
0010
1000
0300
0000
0000
0000
0010
0000
0001
0000
,  // measure 54
1000
0000
0010
0100
0000
0001
1000
0000
0100
0010
0001
0100
0010
0000
1000
0000
,  // measure 55
0020
0000
0100
0001
0000
0000
0100
1000
0030
0000
0000
0000
0100
0000
0001
0000
,  // measure 56
1000
0000
0100
0010
0000
0001
1000
0000
0010
0100
0001
0010
0100
0000
1000
0000
,  // measure 57
0200
0000
0010
0001
0000
0000
0010
1000
0000
0000
1300
0000
0000
0000
1000
0100
,  // measure 58
0001
0000
0110
0011
,  // measure 59
1001
0000
0000
0101
0000
0000
0100
0000
0110
0000
0000
0101
0000
0000
0001
0000
,  // measure 60
0011
0000
1000
0001
,  // measure 61
0200
0000
0000
0310
1000
0000
0001
1000
0100
0000
0010
0000
0001
0000
1000
0000
,  // measure 62
0010
0000
0100
0010
1000
0000
0010
1000
0001
0000
0010
0100
0010
0000
0000
0000
,  // measure 63
0002
0000
0000
1003
0010
0000
0100
0020
1000
0000
0130
0000
0001
0000
1000
0000
,  // measure 64
0100
0000
0010
0001
1000
0000
0010
0100
0001
0000
1001
0000
1001
0000
1000
0000
,  // measure 65
0200
0000
0000
0310
0001
1000
0001
0100
0010
0000
0100
0000
0001
0000
1000
0000
,  // measure 66
0100
0000
1000
0001
0100
0000
0010
1000
0001
0010
0100
1000
0001
0000
0000
0000
,  // measure 67
2000
0000
0000
3001
0010
0000
0100
0020
0001
0000
0130
0000
1000
0001
1000
0001
,  // measure 68
0100
0000
0010
1000
0001
0000
0010
0100
1000
0000
0001
0000
0100
0010
0100
0001
,  // measure 69
0020
0030
0000
0000
;
