#VERSION:0.83;
#TITLE:ENERGY;
#SUBTITLE:;
#ARTIST:Tatsunoshin;
#TITLETRANSLIT:;
#SUBTITLETRANSLIT:;
#ARTISTTRANSLIT:;
#GENRE:;
#ORIGIN:;
#TAGS:;
#CREDIT:;
#BANNER:ENERGY.png;
#BACKGROUND:ENERGY-bg.png;
#PREVIEWVID:;
#JACKET:ENERGY-jacket.png;
#CDIMAGE:;
#DISCIMAGE:;
#LYRICSPATH:;
#CDTITLE:;
#MUSIC:ENERGY.ogg;
#OFFSET:-0.087000;
#SAMPLESTART:83.371002;
#SAMPLELENGTH:15.000000;
#SELECTABLE:YES;
#BPMS:0.000000=170.000000
;
#STOPS:;
#DELAYS:;
#WARPS:;
#TIMESIGNATURES:0.000000=4=4
;
#TICKCOUNTS:0.000000=4
;
#COMBOS:0.000000=1
;
#SPEEDS:0.000000=1.000000=0.000000=0
;
#SCROLLS:0.000000=1.000000
;
#FAKES:;
#LABELS:0.000000=Song Start
;
#BGCHANGES:;
#KEYSOUNDS:;
#ATTACKS:
;

//---------------dance-single - ----------------
#NOTEDATA:;
#CHARTNAME:;
#CHARTHASH:3951581197;
#STEPSTYPE:dance-single;
#BANNER:;
#DESCRIPTION:;
#CHARTSTYLE:;
#DIFFICULTY:Beginner;
#METER:4;
#METERF:0.000000;
#LASTSECONDHINT:117.263474;
#RADARVALUES:0.151634,0.239030,0.000000,0.000000,0.000000,129.000000,129.000000,0.000000,0.000000,0.000000,0.000000,0.000000,0.000000,0.000000,0.151634,0.239030,0.000000,0.000000,0.000000,129.000000,129.000000,0.000000,0.000000,0.000000,0.000000,0.000000,0.000000,0.000000;
#CREDIT:ZSL;
#NOTES:
// measure 0
0000
0000
0000
0000
,  // measure 1
0000
0000
0000
0000
,  // measure 2
0000
0000
0000
0000
,  // measure 3
0000
0000
0000
0000
,  // measure 4
0000
0000
0000
0000
,  // measure 5
0001
0000
0000
0000
,  // measure 6
1000
0000
0000
0000
,  // measure 7
0001
0000
0000
0000
,  // measure 8
0100
0000
0000
0000
,  // measure 9
0010
0000
0000
0000
,  // measure 10
1000
0000
0000
0000
,  // measure 11
0001
0000
0000
0000
,  // measure 12
0010
0000
0000
0000
,  // measure 13
0100
0000
1000
0000
,  // measure 14
0001
0000
0100
0000
,  // measure 15
0010
0010
0010
0000
,  // measure 16
1000
0000
0000
0000
,  // measure 17
0001
0000
0010
0100
,  // measure 18
0000
1000
0001
0001
,  // measure 19
1000
0000
0010
0100
,  // measure 20
0000
0010
1000
1000
,  // measure 21
0001
0000
0000
0010
,  // measure 22
0100
0000
1000
1000
,  // measure 23
0001
0000
0100
0100
,  // measure 24
0010
0000
0000
0000
,  // measure 25
1000
0000
0001
0000
,  // measure 26
0010
0100
0010
0000
,  // measure 27
0001
0000
1000
0000
,  // measure 28
0010
0100
0001
0000
,  // measure 29
1000
0000
0100
0000
,  // measure 30
0010
0001
0010
0000
,  // measure 31
0100
0100
0100
0000
,  // measure 32
1000
0000
0000
0000
,  // measure 33
0001
0000
0000
0000
,  // measure 34
0000
0000
0000
0000
,  // measure 35
0100
0000
0000
0000
,  // measure 36
0000
0000
0000
0000
,  // measure 37
0010
0000
0000
0000
,  // measure 38
0000
0000
0000
0000
,  // measure 39
0100
0000
0000
0000
,  // measure 40
0000
0000
0000
0000
,  // measure 41
0001
0000
0000
0000
,  // measure 42
0000
0000
0000
0000
,  // measure 43
1000
0000
0000
0000
,  // measure 44
0100
0000
0000
0000
,  // measure 45
1000
0000
0000
0000
,  // measure 46
0010
0000
0000
0000
,  // measure 47
0100
0000
0000
0000
,  // measure 48
0001
0000
0000
0000
,  // measure 49
0010
0000
0000
0000
,  // measure 50
0100
0000
0000
0000
,  // measure 51
1000
0000
0000
0000
,  // measure 52
0001
0000
0000
0000
,  // measure 53
0100
0000
0000
0000
,  // measure 54
0010
0000
0000
0000
,  // measure 55
1000
0000
0100
0000
,  // measure 56
1000
0000
0001
0000
,  // measure 57
0100
0100
0100
0000
,  // measure 58
0010
0000
0000
0000
,  // measure 59
1000
0000
0001
0010
,  // measure 60
0100
0000
0010
0000
,  // measure 61
0001
1000
0010
0000
,  // measure 62
1000
0100
0010
0000
,  // measure 63
0001
0000
1000
0010
,  // measure 64
0100
0000
0010
0000
,  // measure 65
1000
0001
0010
0000
,  // measure 66
0100
0000
0000
0000
,  // measure 67
1000
0000
0000
0000
,  // measure 68
0000
0000
0000
0000
,  // measure 69
0001
0000
0100
0001
,  // measure 70
0010
0000
0100
0000
,  // measure 71
1000
0000
0010
1000
,  // measure 72
0100
0000
0010
0000
,  // measure 73
0100
1000
0010
0000
,  // measure 74
0100
0000
0000
0000
,  // measure 75
0001
0000
0000
0000
,  // measure 76
1000
0000
0000
0000
,  // measure 77
0100
0000
0000
0000
,  // measure 78
0010
0000
0000
0000
,  // measure 79
0001
0000
0100
0000
,  // measure 80
0010
0000
1000
0000
,  // measure 81
0001
0001
0001
0000
,  // measure 82
1000
0000
0000
0000
,  // measure 83
0001
0000
0000
0000
;

//---------------dance-single - ----------------
#NOTEDATA:;
#CHARTNAME:;
#CHARTHASH:2441105091;
#STEPSTYPE:dance-single;
#BANNER:;
#DESCRIPTION:;
#CHARTSTYLE:;
#DIFFICULTY:Easy;
#METER:7;
#METERF:0.000000;
#LASTSECONDHINT:117.263474;
#RADARVALUES:0.287988,0.409765,0.032913,0.000000,0.000000,245.000000,241.000000,4.000000,0.000000,0.000000,0.000000,0.000000,0.000000,0.000000,0.287988,0.409765,0.032913,0.000000,0.000000,245.000000,241.000000,4.000000,0.000000,0.000000,0.000000,0.000000,0.000000,0.000000;
#CREDIT:ZSL;
#NOTES:
0000
0000
0000
0000
,
0000
0000
0000
0000
,
0000
0000
0000
0000
,
0000
0000
0000
0000
,
0000
0000
0000
0000
,
0001
0000
0000
0000
0010
0000
0000
0001
,
0000
1000
0000
1000
0000
0000
0000
0010
,
0000
0000
0100
0000
0001
0000
0000
1000
,
0000
0100
0000
0000
0000
0000
0000
0000
,
0010
0100
0000
1000
,
0001
0100
0010
0000
,
0100
0001
0000
1000
,
0100
0010
0001
0000
,
1000
0010
0100
0010
,
1000
0001
0010
0001
,
0100
0100
0010
0010
,
1000
0000
0000
0000
,
0001
0010
0001
0100
,
0010
1000
0100
0100
,
0010
0100
1000
0010
,
0100
1000
0100
0010
,
1000
0100
1000
0010
,
0100
0001
0010
0010
,
0100
0100
1000
1000
,
0001
0000
0000
0000
,
0100
0001
0010
0100
,
1000
0010
0100
0000
,
0010
1000
0100
0010
,
1000
0010
0001
1000
,
0010
0100
0001
1000
,
0100
0100
0010
0010
,
0001
0001
1000
1000
,
0010
0000
0000
0000
,
0100
0000
0000
0000
,
0000
0000
0000
0000
,
0001
0001
0000
0000
,
0000
1000
0001
0000
,
0010
0010
0000
0000
,
0000
0100
1000
0000
,
0010
0010
0000
0000
,
0000
0100
0001
0000
,
1000
1000
0000
0000
,
0000
0001
0010
0000
,
0100
1000
0000
0000
,
0000
0001
0100
0000
,
0010
0000
1000
0000
0000
0000
0000
0001
,
0000
0010
0100
0000
,
0010
0001
0000
0000
,
0000
1000
0010
0000
,
0100
0001
0000
0010
,
0100
0000
0000
0000
,
0010
0000
0000
0000
0001
0000
0000
1000
,
0000
0010
0000
0010
0000
0000
0000
0100
,
0000
0000
0001
0000
1000
0000
0000
0100
,
0000
0010
0000
0001
0000
0000
1000
0000
,
0001
0010
0100
0010
,
0001
1000
0010
1000
,
0001
0100
0010
1000
,
0001
0000
0000
0000
,
0010
0000
0100
0000
1000
0000
0001
0100
,
0000
0010
0000
0010
0000
0100
0000
0001
,
0000
1000
0100
0000
0010
0000
0100
1000
,
0000
0010
0000
0100
0000
0001
0100
0000
,
0010
0000
0100
0000
0001
0000
1000
0100
,
0000
0010
0000
0010
0000
0100
0000
1000
,
0000
0001
0100
0000
0010
0000
1000
0100
,
0000
0010
0000
0001
0000
1000
0000
0000
,
0001
0000
0000
0000
0100
0000
0000
0010
,
0000
0000
0000
0100
0000
0000
0001
0000
,
1001
1000
0100
0010
,
0110
0100
1000
1000
,
1001
0001
0100
0010
,
0110
0100
0001
0001
,
0010
0000
0100
0000
1000
0000
1000
0001
,
1000
0000
0000
0000
,
0010
0100
0000
0001
,
1000
0100
0010
0000
,
0100
1000
0000
0001
,
0100
0010
1000
0000
,
0001
0010
0100
0010
,
0001
1000
0010
1000
,
0100
0100
0010
0010
,
0001
0000
1000
1000
,
0001
0000
0000
0000
;

//---------------dance-single - ----------------
#NOTEDATA:;
#CHARTNAME:;
#CHARTHASH:2307400170;
#STEPSTYPE:dance-single;
#BANNER:;
#DESCRIPTION:;
#CHARTSTYLE:;
#DIFFICULTY:Medium;
#METER:12;
#METERF:0.000000;
#LASTSECONDHINT:117.263474;
#RADARVALUES:0.474886,0.546354,0.057598,0.181021,0.020571,404.000000,397.000000,7.000000,22.000000,0.000000,0.000000,0.000000,0.000000,0.000000,0.474886,0.546354,0.057598,0.181021,0.020571,404.000000,397.000000,7.000000,22.000000,0.000000,0.000000,0.000000,0.000000,0.000000;
#CREDIT:ZSL;
#NOTES:
0000
0000
0000
0000
,
0000
0000
0000
0000
,
0000
0000
0000
0000
,
0000
0000
0000
0000
,
0000
0000
0000
0000
,
0001
0000
0000
0100
0010
0000
1000
0002
,
0000
0013
0000
0010
0000
0001
1000
0020
,
0000
0130
0010
0000
1000
0000
0001
0020
,
0000
0130
0000
1000
0000
0001
0000
0000
,
1000
0001
1000
0000
0010
0000
0100
0000
,
0001
0000
1000
0100
1000
0000
0001
0000
,
0010
0100
0010
0000
0001
0000
1000
0010
,
0000
0010
0100
0001
0100
0000
0020
0000
,
1030
0100
0010
0000
0001
1000
0010
0000
,
0100
0001
1000
0000
0100
0010
0001
0000
,
1000
0010
0100
0001
1000
0001
1000
0001
,
1000
0100
0010
0011
,
0001
0000
1000
0010
0100
0000
0002
0003
,
1000
0000
0001
0100
0010
1000
0100
0000
,
0010
0000
0001
1000
0010
0000
0200
0300
,
0010
0000
0001
0010
0100
0001
1000
0000
,
0100
0000
0010
0001
1000
0000
0020
0030
,
0100
0000
0000
0001
0000
0000
1000
0000
0100
0000
0010
0000
0001
0000
0000
0000
,
0100
0000
0100
0000
0010
0100
0001
0010
,
0200
0000
0000
0300
,
1000
0100
0010
0000
0100
1000
0010
0000
,
0100
0001
0010
0100
0010
0001
0000
1000
,
0010
0000
0000
0000
0100
0000
0000
0000
0001
1000
0000
1000
0000
0000
0001
0000
,
0010
0100
0001
0100
1000
0100
0010
0000
,
0100
0000
1000
0000
0001
0100
0010
0000
,
0100
0001
1000
0010
0100
1000
0200
0000
,
0310
0000
0000
0100
0000
0000
0001
0000
0000
1000
0000
0000
0100
0000
0000
0000
1000
0000
0100
0000
0000
0000
1000
0000
,
0001
0010
0100
1100
,
1000
0000
0000
0000
,
0000
0000
0000
0000
,
0001
0000
1000
0001
0000
0000
0000
0000
,
0000
0100
0010
0000
0100
0000
0000
0000
,
0001
0000
1000
0100
0000
0000
0000
0100
,
0000
0010
0001
0000
1000
0000
0010
0000
,
0100
0000
0010
1000
0000
0000
0000
0000
,
0000
0001
0010
0000
0100
0000
0000
0000
,
1000
0000
0010
0100
0000
0010
1000
0001
,
0000
0001
0010
0000
0100
0000
1000
0000
,
0010
0000
0100
0010
0000
0000
1000
0000
,
0100
0000
0010
0100
0000
0000
0010
0000
,
0001
0000
0100
0010
0000
0000
0100
0001
,
0000
1000
0100
0000
0010
0000
0001
0000
,
1000
0000
0010
1000
0000
0000
0001
0000
,
0010
0000
0100
1000
0000
0000
0010
0000
,
0100
0000
0001
0010
0000
0100
0010
0000
,
0001
0000
0000
1000
,
0001
0000
0000
0100
0001
0000
0100
0010
,
0000
1000
0000
1000
0000
0010
1000
0001
,
0000
0010
0001
0000
0010
0000
0100
1000
,
0000
0001
0100
0010
0000
0100
0002
0000
,
1003
0100
1000
0000
0010
0100
0010
0000
,
0100
0001
0100
0000
0001
0010
0001
0000
,
0100
0010
1000
0001
0010
0001
0010
0001
,
1000
0000
0010
0000
0100
0001
1000
0000
,
1001
0000
0001
0010
0001
0100
0010
2000
,
0000
3001
0000
0001
0000
0010
0100
0002
,
0000
0103
0010
0000
0001
1000
0010
0200
,
0000
0310
1000
0200
0000
0310
0001
0000
,
1001
0000
1000
0010
1000
0100
0010
0002
,
0000
1003
0000
1000
0000
0010
0100
2000
,
0000
3100
0010
0000
1000
0001
0010
2000
,
0000
3010
0000
0110
0000
0200
0000
0000
,
1300
0000
0000
0100
1000
0000
0001
0100
,
0000
0010
0000
0010
0000
0100
0001
0000
,
0101
0100
0010
0000
1000
0100
0010
2000
,
0000
3010
0001
2000
0000
3010
0110
0100
,
0001
0000
1000
0100
0010
0001
0100
0020
,
0000
1030
0001
0100
0010
0010
0100
0001
,
0001
1000
0100
0010
0001
1000
0010
0001
,
0010
0000
0000
0000
,
0100
0010
0100
0000
0001
0000
1000
0000
,
0100
0000
0010
0001
0010
0000
0001
0000
,
1000
0010
1000
0000
0001
0000
0010
0100
,
0000
0100
1000
0001
0100
0000
0020
0000
,
0130
0001
0010
0000
0100
1000
0001
0000
,
0010
0001
0100
0000
0010
1000
0100
0000
,
1000
0001
0010
0001
1000
0001
0100
0010
,
1000
0000
0001
0000
0010
0100
1000
0000
,
0001
0000
0000
0000
;

//---------------dance-single - ----------------
#NOTEDATA:;
#CHARTNAME:;
#CHARTHASH:864467359;
#STEPSTYPE:dance-single;
#BANNER:;
#DESCRIPTION:;
#CHARTSTYLE:;
#DIFFICULTY:Hard;
#METER:15;
#METERF:0.000000;
#LASTSECONDHINT:117.263474;
#RADARVALUES:0.752294,0.956119,0.172793,0.090510,0.407297,640.000000,619.000000,21.000000,11.000000,0.000000,0.000000,0.000000,0.000000,0.000000,0.752294,0.956119,0.172793,0.090510,0.407297,640.000000,619.000000,21.000000,11.000000,0.000000,0.000000,0.000000,0.000000,0.000000;
#CREDIT:ZSL;
#NOTES:
0000
0000
0000
0000
,
0000
0000
0000
0000
,
0000
0000
0000
0000
,
0000
0000
0000
0000
,
0000
0000
0000
0000
,
0001
0000
0000
0000
0000
0000
0100
0010
0100
0000
0001
0000
1000
0000
0200
0000
,
0000
0000
0310
0000
0000
0000
0010
0000
0000
0000
0001
0100
0001
0000
0020
0000
,
0000
0130
1000
0000
0001
0100
0010
0002
,
0000
0013
0000
0100
0000
0001
1000
0000
,
0001
0100
0001
1000
0100
1000
0100
1000
,
0001
0100
0010
1000
0100
0010
0100
1000
,
0001
0010
0001
1000
0010
1000
0010
0100
,
0001
1000
0100
1000
0010
0100
0002
0000
,
1003
0000
0100
0000
1000
0100
1000
0000
0001
0000
0100
0000
0001
0100
0001
0000
,
0010
0000
0100
0000
0010
0100
0010
0000
0001
0000
1000
0000
0001
1000
0001
0000
,
1000
0100
0010
0000
0001
0100
0010
0000
1000
0001
1000
0001
1000
0001
1000
0001
,
1000
0001
0010
0110
,
0100
1000
0001
1000
0100
1000
0020
0130
,
0001
0000
0100
0000
0010
0000
0100
0000
0001
1000
0100
0000
0010
0100
0000
0100
,
1000
0001
1000
0001
0100
0001
0020
0031
,
1000
0000
0001
0000
0100
0000
0010
1000
0100
0010
0100
1000
0001
0000
1000
0000
,
1001
0001
0100
0010
0100
0001
0020
0130
,
1100
0000
1000
0001
1000
0000
0001
0000
0100
0010
1000
0000
0001
0000
0010
0000
,
0011
0000
0001
0000
1000
0000
0010
0000
0100
0000
0001
1000
0100
1000
0001
0010
,
0200
0000
0000
0300
,
1100
0000
1000
0000
0010
0000
0100
0000
1000
0000
0100
0010
1000
0000
0001
0000
,
0010
0000
0100
0010
1000
0000
0010
0000
0100
1000
0001
0100
0000
0000
0010
0000
,
0110
0000
0100
0000
0001
0000
0100
0000
0010
1000
0000
1000
0001
0000
0010
0000
,
1000
0000
0010
0100
1000
0100
0010
0001
0100
0000
0001
0000
1000
0001
1000
0010
,
0100
0000
0001
0000
0010
0000
0100
0000
1000
0001
0100
0001
1000
0000
0100
0000
,
0010
0100
1000
0000
0001
0100
0010
0000
0100
0000
1000
0100
0020
0000
0000
0000
,
1030
0000
0000
0000
0000
0000
0100
0000
0000
0010
0000
0000
0001
0000
0000
0000
0000
0000
0100
0000
0000
0010
0000
0000
1000
0000
0000
0000
0001
0000
0000
0000
1000
0000
0000
0000
0100
0000
0000
0000
0010
0000
0000
0000
0100
0000
0000
0000
,
1000
0001
0100
0110
,
0010
0000
0000
0000
,
0000
0000
0000
0000
,
0100
0010
1000
0001
0000
0000
0000
0000
,
0000
0010
0100
0010
0001
1000
0001
0000
,
0010
0100
1000
0001
0000
0000
0000
0001
,
0000
0100
0001
1000
0100
0010
0100
1000
,
0001
0100
0010
1000
0000
0000
0000
0000
,
0000
0001
0010
0100
1000
0001
1000
0000
,
0010
0100
0001
0010
0000
0001
0100
0010
,
0000
0010
1000
0001
0010
0100
1000
0001
,
1000
0010
0100
0010
0100
0000
0001
0000
,
1000
0100
0010
0001
1000
0001
0100
0000
,
0001
0010
0100
0010
0100
0000
1000
0001
,
0000
0001
0100
0010
0001
0010
0100
0001
,
1000
0100
0010
0001
0010
0000
0100
0000
,
0010
0001
0100
0010
1000
0001
0010
0000
,
0100
1000
0010
1000
0100
0010
0001
1000
,
0010
0000
0000
1000
,
0001
0100
0010
1000
1000
0100
0010
0001
,
0100
0010
0100
1000
0100
0001
0001
1000
,
0100
0010
0010
0001
1000
1000
0010
0001
,
0010
0100
0100
0001
0010
0001
2000
0000
,
3010
0100
0001
0000
1000
0000
0100
0000
0010
0100
1000
0000
0001
0000
0100
0000
,
0010
1000
0001
0000
0010
0000
0100
0000
1000
0001
0100
0000
0010
0000
1000
0000
,
0001
0010
0100
0000
1000
0010
0100
0000
0001
1000
0001
1000
0001
1000
0001
1000
,
0001
0010
0100
1000
1001
0001
0101
0000
,
0110
0000
0000
0000
0100
0000
0010
1000
0100
0000
0010
0000
0100
1000
0001
0000
,
1000
0000
0010
0100
0001
0000
0100
0010
1000
0000
0100
0000
0010
0100
1000
0000
,
0001
0000
0100
0001
1000
0000
0001
0000
0010
0000
0100
1000
0001
0100
0010
0000
,
0100
0001
1000
0001
0000
0001
0010
0000
,
0110
0000
0000
0000
0100
0000
0010
0001
0100
0000
0010
0000
0100
0001
1000
0000
,
0001
0000
0010
0100
1000
0000
0100
0010
0001
0000
0100
0010
1000
0001
0010
0000
,
0100
0000
1000
0001
0100
0000
0010
0000
1000
0000
0001
0010
0100
1000
0010
0000
,
0100
0010
0000
1000
0000
1000
0100
0000
,
0010
0000
0000
0100
0010
0100
1000
0001
,
0000
0000
0100
0000
0000
0000
0100
0000
0000
0000
0001
0000
1001
0000
1000
0100
,
1000
0000
0001
0000
0101
0000
0000
0000
0110
0000
0010
1000
0001
0010
0100
0000
,
1000
0000
0001
0100
0010
1000
0001
0000
0010
0000
0100
0000
0110
0000
0010
0000
,
0011
0000
0000
0000
1001
0000
0001
0100
0010
0000
1000
0000
0100
0010
0001
0000
,
1000
0000
0010
1000
0100
0000
0010
0001
0100
0010
0100
0001
0010
0000
0100
0000
,
1100
0000
1000
0100
0001
0000
0100
0010
0001
1000
0010
0100
0001
0100
0001
1000
,
0010
0000
0000
0000
,
1000
0100
1000
0001
0100
0001
0100
0001
,
1000
0100
0010
0001
0100
0010
0100
0001
,
1000
0010
1000
0001
0010
0001
0010
0100
,
1000
0001
0100
0001
0010
0100
2000
0000
,
3001
0000
0100
0000
0001
0100
0001
0000
1000
0000
0100
0000
1000
0100
1000
0000
,
0010
0000
0100
0000
0010
0100
0010
0000
1000
0000
0001
0000
1000
0001
1000
0000
,
0001
0100
0010
0000
1000
0100
0010
0000
0001
1000
0001
1000
0001
1000
0001
1000
,
0010
0100
0001
1000
1100
0100
0110
0000
,
1001
0000
0000
0000
;
