#VERSION:0.83;
#TITLE:Complextro;
#SUBTITLE:;
#ARTIST:MIDInco;
#TITLETRANSLIT:;
#SUBTITLETRANSLIT:;
#ARTISTTRANSLIT:;
#GENRE:;
#CREDIT:;
#MUSIC:Complextro.ogg;
#BANNER:Complextro.png;
#BACKGROUND:Complextro-bg.png;
#CDTITLE:;
#SAMPLESTART:14.760;
#SAMPLELENGTH:15.000;
#SELECTABLE:YES;
#OFFSET:0.000;
#BPMS:0.000=130.000
,123.000=260.000
,123.667=65.000
,124.000=130.000
,155.000=260.000
,155.667=65.000
,156.000=130.000
;
#STOPS:;
#SPEEDS:0.000=1.000=0.000=0;
#SCROLLS:0.000=1.000;
#TICKCOUNTS:0.000=4;
#TIMESIGNATURES:0.000=4=4;
#LABELS:0.000=Song Start;
#COMBOS:0.000=1;
#DISPLAYBPM:130.000;
#ORIGIN:;
#TAGS:;
#PREVIEWVID:;
#JACKET:Complextro-jacket.png;
#CDIMAGE:;
#DISCIMAGE:;
#BGCHANGES:;
#FGCHANGES:;

//--------------- dance-single - ----------------
#NOTEDATA:;
#STEPSTYPE:dance-single;
#DESCRIPTION:;
#DIFFICULTY:Beginner;
#METER:2;
#RADARVALUES:0.076824,0.105972,0.007908,0,0,68,67,1,0,0,0,0,0,0,0.076824,0.105972,0.007908,0,0,68,67,1,0,0,0,0,0,0;
#DISPLAYBPM:130.000;
#CHARTNAME:;
#CHARTHASH:2295859865;
#BANNER:;
#CHARTSTYLE:;
#METERF:0.000000;
#LASTSECONDHINT:123.692307;
#CREDIT:ZSL;
#NOTES:
0000
0000
0000
0000
,
0000
0000
0000
0000
,
0000
0000
0000
0000
,
1000
0000
0000
0000
,
0001
0000
0000
0000
,
0010
0000
0000
0000
,
0100
0000
0000
0000
,
1000
0000
0000
0000
,
0001
0000
0000
0000
,
1000
0000
0000
0000
,
0010
0000
0000
0000
,
0100
0000
0000
0000
,
0001
0000
0000
0000
,
1000
0000
0100
0000
,
1000
0000
0000
0000
,
1000
0000
0000
0000
,
0001
0000
0000
0000
,
0010
0000
0000
0000
,
0100
0000
0000
0000
,
1000
0000
0000
0000
,
0001
0000
0100
0000
,
0001
0000
0000
0000
,
0001
0000
0000
0000
,
1000
0000
0000
0000
,
0000
0000
0000
0000
,
0001
0000
0000
0000
,
0010
0000
0000
0000
,
0100
0000
0000
0000
,
1000
0000
0000
0000
,
0001
0000
0000
0000
,
0100
0000
0000
0000
,
0010
0000
0000
0000
,
0000
0000
0000
0000
,
1000
0000
0000
0000
,
0001
0000
0000
0000
,
0010
0000
0000
0000
,
0100
0000
0000
0000
,
1000
0000
0000
0000
,
0001
0000
0000
0000
,
0100
0000
0010
0000
,
1000
0000
0000
0000
,
0001
0000
1000
0000
,
0100
0000
0000
0000
,
0010
0000
0001
0000
,
1000
0000
0000
0000
,
0010
0000
0100
0000
,
0001
0000
0000
0000
,
1000
0000
0000
0000
,
0001
0000
0000
0000
,
0010
0000
0000
0000
,
0100
0000
0000
0000
,
0010
0000
0001
0000
,
0100
0000
0000
0000
,
0001
0000
1000
0000
,
0100
0000
0000
0000
,
0010
0000
0000
0000
,
0000
0000
0000
0000
,
0100
0000
0000
0000
,
0000
0000
0000
0000
,
1000
0000
0000
0000
,
0001
0000
0000
0000
,
0100
0000
0000
0000
,
0010
0000
0000
0000
,
1000
0000
0000
0000
,
0000
0000
0000
0000
,
0001
0000
0000
0000
,
0000
0000
0000
0000
,
1001
0000
0000
0000
;

//--------------- dance-single - ----------------
#NOTEDATA:;
#STEPSTYPE:dance-single;
#DESCRIPTION:;
#DIFFICULTY:Easy;
#METER:4;
#RADARVALUES:0.175114,0.211945,0.007908,0,0,155,154,1,0,0,0,0,0,0,0.175114,0.211945,0.007908,0,0,155,154,1,0,0,0,0,0,0;
#DISPLAYBPM:130.000;
#CHARTNAME:;
#CHARTHASH:2467787332;
#BANNER:;
#CHARTSTYLE:;
#METERF:0.000000;
#LASTSECONDHINT:123.692307;
#CREDIT:ZSL;
#NOTES:
0000
0000
0000
0000
,
0000
0000
0000
0000
,
0000
0000
0000
0000
,
1000
1000
1000
0000
,
0001
0000
0100
0000
,
0010
0000
1000
0000
,
0001
0000
0010
0000
,
0100
0100
0100
0000
,
1000
0001
1000
0010
,
1000
0000
0010
0100
,
0001
0000
1000
0001
,
0010
0001
1000
0000
,
0100
0000
1000
0001
,
0100
0010
1000
0000
,
0100
1000
0001
0000
,
0001
1000
0001
0010
,
0001
0000
0010
0100
,
1000
0000
0001
1000
,
0010
1000
0001
0000
,
0100
0000
0001
1000
,
0100
0010
0001
0000
,
0100
0001
1000
0000
,
0100
0000
0000
1000
,
0001
0000
0000
0000
,
1000
0000
0000
0000
,
0100
0000
0000
0000
,
1000
1000
1000
0000
,
0001
0000
0100
0000
,
0010
0000
1000
0000
,
0001
0000
0010
0000
,
0100
0100
0100
0000
,
0010
0000
0000
0000
,
0001
0000
0000
0000
,
1000
0000
0000
0000
,
0010
0010
0010
0000
,
1000
0000
0000
0000
,
0001
0000
0010
0000
,
0100
0000
1000
1000
,
0001
0000
0000
0000
,
0100
0010
1000
0100
,
0010
0000
0001
1000
,
0100
0000
1000
0010
,
0100
0000
0001
0010
,
0100
0000
0010
0100
,
1000
0000
0001
0100
,
0010
0000
0100
0001
,
0010
0100
1000
0000
,
0001
0100
0001
0000
,
1000
0010
1000
0000
,
0100
0010
0100
0000
,
1000
0001
1000
0000
,
0001
0000
0100
0010
,
1000
0100
0010
0000
,
0100
1000
0010
0100
,
0001
0000
1000
0000
,
0100
0000
0000
0000
,
0010
0000
0000
0000
,
0001
0000
0000
0000
,
1000
0000
0000
0000
,
0010
0000
0100
0000
,
0010
1000
0001
0000
,
0010
0000
0100
0000
,
1000
1000
1000
0000
,
0001
0000
0000
0000
,
0100
0000
0000
0000
,
0010
0000
0000
0000
,
1000
0000
0000
0000
,
1001
0000
0000
0000
;

//--------------- dance-single - ----------------
#NOTEDATA:;
#STEPSTYPE:dance-single;
#DESCRIPTION:;
#DIFFICULTY:Medium;
#METER:7;
#RADARVALUES:0.302778,0.34441,0.079084,0.126534,0,268,258,10,16,0,0,0,0,0,0.302778,0.34441,0.079084,0.126534,0,268,258,10,16,0,0,0,0,0;
#DISPLAYBPM:130.000;
#CHARTNAME:;
#CHARTHASH:47877155;
#BANNER:;
#CHARTSTYLE:;
#METERF:0.000000;
#LASTSECONDHINT:123.692307;
#CREDIT:ZSL;
#NOTES:
0000
0000
0000
0000
,
0000
0000
0000
0000
,
0000
0000
0000
0000
,
1001
1001
0001
0010
,
0100
1000
0001
0100
,
0010
0000
0100
0000
0001
0000
1000
0100
,
0010
0001
1000
0010
,
1000
1000
1000
0001
,
0010
0000
0100
0010
0001
0000
0010
0100
,
1000
0001
0100
0100
,
0001
0000
1000
0000
0010
0100
0001
0000
,
1000
0000
0100
1000
0100
0000
0010
0000
,
0002
0000
0000
1003
1000
0000
0010
0000
,
0100
0001
0001
0000
2000
0000
0000
3100
,
0100
0000
0010
0010
0001
0000
1000
0000
,
0010
0000
0100
0010
1000
0000
0010
0100
,
0001
1000
0100
0100
,
1000
0000
0001
0000
0010
0100
1000
0000
,
0001
0000
0100
0001
0100
0000
0010
0000
,
2000
0000
0000
3001
0001
0000
0010
0000
,
0100
1000
1000
0000
0002
0000
0000
0103
,
0100
0000
0010
0010
1000
0000
0001
0000
,
1000
0000
0100
0010
,
0001
0000
1000
0000
,
0010
0000
0000
0000
0100
0000
0000
0001
,
0001
0000
1000
0000
,
1001
1001
1000
0010
,
0100
0001
1000
0100
,
0010
0000
0100
0000
1000
0000
0001
0100
,
0010
1000
0001
0010
,
0001
0001
0001
0200
,
0310
1000
0000
0001
,
0010
0000
0100
0000
0000
0000
1000
0001
,
0001
0100
0000
0010
,
0110
0110
0100
0001
,
1000
0100
0010
0100
,
1000
0001
0100
0010
,
0100
0000
0100
0000
0010
0010
1000
0000
,
1000
0000
0000
1002
,
0013
0000
0100
1000
0100
0000
0010
0001
,
0100
0010
1000
1000
,
0001
0000
0010
0000
0100
0000
1000
0010
,
0100
0000
0001
0000
1000
0000
0001
0100
,
0020
0000
0000
1030
1000
0000
0001
0000
,
0020
0000
0000
0000
0230
0300
0010
0000
,
0002
0000
0000
0013
0010
0000
0001
0000
,
1000
0010
1000
0010
0200
0000
0302
0000
,
1003
0000
0001
1000
0100
0000
1000
0001
,
0100
0000
0010
0100
0001
0000
1001
0000
,
1000
0000
0100
0010
0001
0000
0100
0000
,
0010
0000
0100
0100
0000
0000
0001
0100
,
0020
0000
0000
1030
1000
0000
0100
0000
,
0010
0001
0010
0001
0200
0000
0000
0310
,
1000
0000
0001
0000
0010
0100
1000
0001
,
1000
0000
0100
0000
,
0010
0001
0000
1000
,
0010
0000
0100
0000
,
0001
0000
1000
0000
,
0100
0000
0000
0010
,
0001
0000
0000
1001
0000
0000
1000
0000
,
0010
0000
0010
0000
2000
0000
0000
3010
,
0100
0001
1000
0100
,
0010
0010
0010
0100
,
1000
0000
0001
0000
,
0100
0000
0010
0000
,
1000
0000
0001
0000
,
0010
0000
0000
0000
0200
0000
0000
0300
,
0110
0000
0000
0000
;

//--------------- dance-single - ----------------
#NOTEDATA:;
#STEPSTYPE:dance-single;
#DESCRIPTION:;
#DIFFICULTY:Hard;
#METER:12;
#RADARVALUES:0.494839,0.556355,0.079084,0.585221,0.387511,438,428,10,74,0,0,0,0,0,0.494839,0.556355,0.079084,0.585221,0.387511,438,428,10,74,0,0,0,0,0;
#DISPLAYBPM:130.000;
#CHARTNAME:;
#CHARTHASH:279363832;
#BANNER:;
#CHARTSTYLE:;
#METERF:0.000000;
#LASTSECONDHINT:123.692307;
#CREDIT:ZSL;
#NOTES:
0000
0000
0000
0000
,
0000
0000
0000
0000
,
0000
0000
0000
0000
,
1000
0000
0100
0000
0010
0000
0100
1000
0100
0000
0010
0000
0001
0000
0000
0000
,
1000
0000
0001
0000
0000
0100
0000
0000
0010
0000
0000
1000
0000
0000
0001
0000
,
0010
0000
0100
0000
0000
0010
0000
0000
0001
0000
0000
0000
1000
0000
0001
0000
,
0200
0000
0000
0300
0000
0000
0002
0000
0000
0003
0000
0000
2002
0000
0000
3003
0000
1000
0000
0000
0000
0100
0000
0000
,
0010
0001
1000
0001
0000
0100
0010
0000
0000
0100
0000
0000
,
0002
0000
0000
0000
0000
0000
1003
0000
0000
0100
0000
0010
0100
0000
0000
1000
0000
0000
0001
0000
0000
0100
0000
0000
,
0020
0000
0230
0000
0310
1000
0001
0010
,
0200
0000
0000
0000
0000
2300
0000
0000
0000
3001
0000
1000
0010
0000
0000
0100
0000
0000
0001
0000
0000
1000
0000
0000
,
0200
0300
0000
0000
0000
0000
0000
0000
0200
0300
0000
0000
0000
0000
0000
0000
0001
0000
0000
0000
0000
0000
0000
0000
1000
0000
0000
0000
0000
0000
0000
0000
0200
0000
0000
0000
0000
0000
0000
0000
0000
0000
0000
0000
0000
0000
0000
0000
0010
0000
0000
0000
0000
0000
0000
0000
0300
0000
0000
0000
0000
0000
0000
0000
,
1100
0000
0000
0000
0000
0000
1000
0000
0000
0010
0000
0100
0001
0000
0000
1000
0000
0000
0100
0000
0000
1000
0000
0000
,
0001
0000
0000
0000
0000
0000
0000
0000
0020
0030
0000
0000
0000
0000
0000
0000
0020
0030
0000
0000
0000
0000
0000
0000
1000
0000
0000
0000
0000
0000
0000
0000
0200
0000
0000
0000
0000
0000
0000
0000
0000
0000
0000
0000
0000
0000
0000
0000
0320
0000
0000
0000
0000
0000
0000
0000
0130
0000
0000
0000
0000
0000
0000
0000
,
0001
0100
1000
0100
0020
0000
0031
0001
,
2000
0000
0000
0000
0000
0000
3001
0000
0000
0100
0000
0010
0100
0000
0000
0001
0000
0000
1000
0000
0000
0100
0000
0000
,
0020
0000
0230
0000
0310
0001
1000
0010
,
0200
0000
0000
0000
0000
0302
0000
0000
0000
1003
0000
0001
0010
0000
0000
0100
0000
0000
1000
0000
0000
0001
0000
0000
,
0200
0300
0000
0000
0000
0000
0000
0000
0200
0300
0000
0000
0000
0000
0000
0000
1000
0000
0000
0000
0000
0000
0000
0000
0001
0000
0000
0000
0000
0000
0000
0000
0200
0000
0000
0000
0000
0000
0000
0000
0000
0000
0000
0000
0000
0000
0000
0000
0010
0000
0000
0000
0000
0000
0000
0000
0300
0000
0000
0000
0000
0000
0000
0000
,
0101
0000
0000
0000
0000
0000
0001
0000
0000
0010
0000
0100
1000
0000
0000
0001
0000
0000
0100
0000
0000
0001
0000
0000
,
1000
0000
0000
0000
0000
0000
0000
0000
0020
0030
0000
0000
0000
0000
0000
0000
0020
0030
0000
0000
0000
0000
0000
0000
0001
0000
0000
0000
0000
0000
0000
0000
0200
0000
0000
0000
0000
0000
0000
0000
0000
0000
0000
0000
0000
0000
0000
0000
0320
0000
0000
0000
0000
0000
0000
0000
0130
0000
0000
0000
0000
0000
0000
0000
,
1000
0100
0001
0100
0020
0000
1030
1000
,
0001
0000
0000
0000
0000
1000
0000
0000
0000
0100
0000
0000
0010
0000
0000
0000
0000
0000
0100
0000
0000
0100
0000
0000
,
1000
0000
0010
0000
0000
1000
0000
0000
0001
0000
0000
0100
0000
0000
0001
0000
,
0010
0000
0100
0000
0000
1000
0000
0000
0100
0000
0000
0010
0000
0000
0001
0000
,
0001
0000
1000
0000
0000
0100
0000
0000
1000
0000
0000
0010
0000
0000
1000
0000
,
0001
0000
0100
0000
0010
0000
0100
0001
0100
0000
0010
0000
1000
0000
0000
0000
,
0001
0000
1000
0000
0000
0100
0000
0000
0010
0000
0000
0001
0000
0000
1000
0000
,
0010
0000
0100
0000
0000
0010
0000
0000
1000
0000
0000
0000
0001
0000
1000
0000
,
0200
0000
0000
0300
0000
0000
2000
0000
0000
3000
0000
0000
2002
0000
0000
3003
0000
0001
0000
0000
0000
0100
0000
0000
,
0010
1000
0001
1000
0000
0100
0010
0000
0000
0002
0000
0000
,
1003
0000
0000
0000
0000
0100
0000
0000
1000
0000
0000
0000
0001
0000
0000
0000
0000
0100
0000
0000
0001
0000
0000
0000
,
1000
0000
0000
0000
0000
0010
0000
0000
1000
0000
0000
0000
0001
0000
0000
0000
0000
0010
0000
0000
0001
0000
0000
0000
,
0100
0000
0000
0000
0000
0010
0000
0000
0100
0000
0000
0000
0001
0000
0000
0000
0000
1000
0000
0000
0001
0000
0000
0000
,
0010
0000
0100
0000
0010
0000
0001
0010
0001
0000
1000
0000
0010
0000
0000
0000
,
0100
0000
0000
0000
0000
0001
0000
0000
1000
0000
0000
0000
0100
0000
0000
0000
0000
0010
0000
0000
0001
0000
0000
0000
,
1000
0000
0000
0000
0000
0010
0000
0000
0100
0000
0000
0000
0001
0000
0000
0000
0000
0010
0000
0000
0100
0000
0000
0000
,
1000
0100
0010
0100
1000
1000
0001
0001
,
0100
0000
0000
0120
,
1030
0000
0000
0000
0000
0000
0100
0000
0000
0010
0000
0000
0001
0000
0000
0100
0000
0000
0010
0000
1000
0010
0000
1000
,
0001
0010
0100
0010
0002
0000
2003
0000
,
3010
0000
0000
0100
0000
0000
0001
0000
0000
1000
0000
0000
0100
0000
0000
0010
0000
0000
0001
0000
1000
0001
0000
1000
,
0020
0000
0000
0000
0000
0030
0100
0000
0000
0001
0000
0000
2000
0000
0000
0000
0000
0000
3100
0000
0000
0010
0000
0000
,
0200
0000
0000
0000
0000
0000
1300
0000
0000
0010
0000
0000
0100
0000
0000
0010
0000
1000
0001
0000
0000
0010
0000
0000
,
0200
0000
2300
0000
3002
0003
0100
0010
,
0002
0000
0013
1000
0100
0010
0001
0100
,
1000
0000
0000
0100
0000
0010
0100
0000
0000
0001
0000
0000
2000
0000
0000
0000
0000
0000
3100
0000
0010
0100
0000
0010
,
0002
0000
0000
0000
0000
0000
1003
0000
0010
0100
0000
0001
0200
0000
0000
0000
0000
0000
0310
0000
0000
1000
0000
0000
,
0200
0000
0310
0001
2000
3010
1010
0000
,
1000
0000
0000
0000
0000
0000
0001
0000
0010
0100
0000
1000
0001
0000
0000
0000
0000
0000
0101
0000
0000
0000
0000
0000
,
0100
0000
0000
0010
0000
0000
1000
0000
0000
1000
0000
0000
0000
0000
0001
1000
0000
0000
0010
0000
0000
0100
0000
0000
,
0002
0000
0000
0000
0000
0000
1003
0000
0000
0100
0000
0000
0010
0000
0000
1000
0000
0000
0010
0000
0100
0010
0000
0000
,
0001
0000
0000
1000
0000
0001
1000
0000
0000
0010
0000
1000
0200
0000
0000
0000
0000
0000
0310
0000
0100
0010
0000
0000
,
0001
0000
0000
1000
0000
0000
0010
0000
1000
0000
0000
0001
0000
0000
0100
0001
0000
0000
0100
0000
0010
1000
0000
0000
,
0001
0000
0000
0000
0000
0010
0000
0000
0000
0100
0000
0000
2000
0000
0000
0000
0000
0000
0001
0000
0000
3000
0000
0000
,
1000
0020
0230
0320
,
2030
3002
0023
0130
,
1000
0001
0100
0001
2000
0000
3200
0000
,
0320
0000
0000
0031
0000
0000
1000
0000
0000
0000
0000
0001
0000
0000
0000
0100
0000
0000
0001
0000
0000
0001
0000
0000
,
2000
0000
0000
0000
0000
3100
0000
0000
0000
0002
0000
0000
0000
0000
0000
0103
0000
0000
0010
0000
0000
0001
0000
0000
,
1000
0000
0000
0000
0000
0000
0000
0000
0200
0300
0000
0000
0000
0000
0000
0000
0200
0300
0000
0000
0000
0000
0000
0000
0001
0000
0000
0000
0000
0000
0000
0000
2000
0000
0000
0000
0000
0000
0000
0000
0000
0000
0000
0000
0000
0000
0000
0000
3010
0000
0000
0000
0000
0000
0000
0000
0100
0000
0000
0000
0000
0000
0000
0000
,
0002
0003
2000
3000
2200
3300
0022
0033
,
0001
0100
0010
1000
0000
0100
0010
0000
0000
0100
0000
0000
,
1000
0000
0001
0000
0000
1000
0000
0000
0010
0000
0000
0100
0000
0000
0001
0000
,
1000
0000
0100
0000
0000
1000
0000
0000
0001
0000
0000
0010
0000
0000
0100
0000
,
1000
0000
0001
0000
0000
0100
0000
0000
0010
0000
0000
1000
0000
0000
0010
0000
,
0100
0000
0001
0000
0000
1000
0000
0000
0100
0000
0000
0020
0000
0000
0030
0000
,
0110
0000
0000
0000
;

//--------------- dance-single - ----------------
#NOTEDATA:;
#STEPSTYPE:dance-single;
#DESCRIPTION:;
#DIFFICULTY:Challenge;
#METER:15;
#RADARVALUES:0.647358,0.7683,0.166076,0.616854,0.790839,573,552,21,78,0,0,0,0,0,0.647358,0.7683,0.166076,0.616854,0.790839,573,552,21,78,0,0,0,0,0;
#DISPLAYBPM:130.000;
#CHARTNAME:;
#CHARTHASH:2627838877;
#BANNER:;
#CHARTSTYLE:;
#METERF:0.000000;
#LASTSECONDHINT:123.692307;
#CREDIT:ZSL;
#NOTES:
0000
0000
0000
0000
,
0000
0000
0000
0000
,
0000
0000
0000
0000
,
2001
0000
0000
0000
0000
0000
0000
0000
0000
0000
0000
0000
3010
0000
0000
0000
0000
0000
0000
0000
0000
0000
0000
0000
1002
0000
0000
0000
0000
0000
0000
0000
0000
0000
0000
0000
0013
0000
0000
0000
0000
0000
0001
0000
0000
1000
0000
0000
0001
0000
0000
0000
0000
0000
0000
0000
0000
0000
0000
0000
1000
0000
0000
0000
0000
0000
0000
0000
0010
0000
0000
0000
0100
0000
0000
0000
0000
0000
0000
0000
0010
0000
0000
0000
0000
0000
0000
0000
0000
0000
0000
0000
0000
0000
0000
0000
,
1000
0000
0001
0000
0010
0001
0000
0000
1000
0000
0000
0100
0000
0010
0001
0000
,
0100
0000
0000
0000
0000
0000
0010
0000
0000
0000
0000
0000
1000
0000
0000
0001
0000
0000
0000
0000
0000
0000
0000
0000
0010
0000
0000
0000
0000
0000
0000
0000
0000
0100
0000
0000
1000
0000
0000
0000
0000
0000
1000
0000
0000
0000
0001
0000
,
0200
0000
0000
0300
0000
0000
0202
0000
0000
0303
0000
0000
0022
0000
0000
0033
0000
0001
0000
0000
0000
0010
0000
0000
,
0100
0010
0001
1000
0010
1000
0100
0000
0000
1000
0000
0000
,
0002
0000
0000
0000
0000
0000
0103
0000
0000
0010
1000
0010
0100
0000
0000
0001
0000
0000
0010
0000
0000
1000
0000
0000
,
0020
0000
0000
0000
0000
0000
0032
0000
0000
0000
0000
0000
1003
0000
0000
0010
0000
0100
0001
0000
1000
0001
0000
0010
,
0200
0000
0000
0000
0000
2300
0000
0000
0000
3001
0100
0010
1000
0000
0000
0010
0000
0000
0100
0000
0000
0010
0000
0000
,
0001
1000
0100
0001
0020
0000
0100
0030
,
2001
0000
0000
0000
0000
0000
3100
0000
0000
0010
0001
1000
0010
0000
0000
0100
0000
0000
0001
0000
0000
1000
0000
0000
,
0100
0000
0000
0001
0000
0000
0001
0000
0000
0100
0000
0000
2000
0000
0000
0000
0000
0000
3002
0000
0000
0103
0000
0010
,
2000
0000
0000
3001
0000
0010
0100
0000
1000
0010
0000
0100
0002
0000
0000
1003
0000
0000
0010
0000
0000
0010
0000
0000
,
2000
0000
0000
0000
0000
0000
3100
0000
0000
0010
0001
0010
0100
0000
0000
1000
0000
0000
0010
0000
0000
0001
0000
0000
,
0020
0000
0000
0000
0000
0000
2030
0000
0000
0000
0000
0000
3001
0000
0000
0010
0000
0100
1000
0000
0001
1000
0000
0010
,
0200
0000
0000
0000
0000
0302
0000
0000
0000
1003
0100
0010
0001
0000
0000
0010
0000
0000
0100
0000
0000
0010
0000
0000
,
1000
0001
0100
1000
0020
0000
0100
0030
,
1002
0000
0000
0000
0000
0000
0103
0000
0000
0010
1000
0001
0010
0000
0000
0100
0000
0000
1000
0000
0000
0001
0000
0000
,
0100
0000
0000
1000
0000
0000
1000
0000
0000
0100
0000
0000
0002
0000
0000
0000
0000
0000
2003
0000
0000
3100
0000
0010
,
0002
0000
0000
1003
0000
0010
0100
0000
0001
0010
0000
0100
2000
0000
0000
3001
0000
1000
0001
0000
1000
0001
0000
0000
,
0100
0000
0010
0000
0000
1000
0000
0000
0001
0010
0001
0010
0001
0000
0000
0000
0000
1000
0010
0000
1000
0001
0000
0000
,
0100
0000
0001
0000
0000
1000
0000
0000
0100
0000
0000
0010
0000
0100
1000
0000
,
0100
0000
0010
0000
0000
0001
0000
0000
1000
0000
0000
0010
0000
0000
0100
0000
,
0100
0000
0010
0000
0000
1000
0000
0000
0100
0000
0000
0010
0000
0001
1000
0000
,
1002
0000
0000
0000
0000
0000
0000
0000
0000
0000
0000
0000
0013
0000
0000
0000
0000
0000
0000
0000
0000
0000
0000
0000
2001
0000
0000
0000
0000
0000
0000
0000
0000
0000
0000
0000
3010
0000
0000
0000
0000
0000
1000
0000
0000
0001
0000
0000
1000
0000
0000
0000
0000
0000
0000
0000
0000
0000
0000
0000
0001
0000
0000
0000
0000
0000
0000
0000
0010
0000
0000
0000
0100
0000
0000
0000
0000
0000
0000
0000
0010
0000
0000
0000
0000
0000
0000
0000
0000
0000
0000
0000
0000
0000
0000
0000
,
0001
0000
1000
0000
0010
1000
0000
0000
0001
0000
0000
0100
0000
0010
1000
0000
,
0100
0000
0000
0000
0000
0000
0010
0000
0000
0000
0000
0000
0001
0000
0000
1000
0000
0000
0000
0000
0000
0000
0000
0000
0010
0000
0000
0000
0000
0000
0000
0000
0000
0100
0000
0000
0001
0000
0000
0000
0000
0000
0001
0000
0000
0000
1000
0000
,
0200
0000
0000
0300
0000
0000
2200
0000
0000
3300
0000
0000
2020
0000
0000
3030
0000
1000
0000
0000
0000
0010
0000
0000
,
0100
0010
1000
0001
0010
0001
0100
0000
0000
0020
0000
0000
,
1030
0000
0000
0000
0000
0010
0000
0000
0010
0000
0000
0000
0100
0000
0000
0000
0000
0001
0000
0000
0001
0000
0000
0000
,
1000
0000
0000
0000
0000
0100
0000
0000
0100
0000
0000
0000
0010
0000
0000
0000
0000
0001
0000
0000
0001
1000
0000
0000
,
0110
0000
0000
0000
0000
1000
0000
0000
1000
0000
0000
0000
0001
0000
0000
0000
0000
0010
0000
0000
0010
0000
0000
0000
,
0210
0000
0000
0000
0000
0000
0000
0000
0000
0000
0000
0000
1300
0000
0000
0000
0000
0000
0000
0000
0000
0000
0000
0000
0120
0000
0000
0000
0000
0000
0000
0000
0000
0000
0000
0000
0031
0000
0000
0000
0000
0000
1000
0000
0000
0010
0000
0000
1000
0000
0000
0000
0000
0000
0000
0000
0000
0000
0000
0000
0010
0000
0000
0000
0000
0000
0000
0000
0000
0000
0000
0000
0010
0000
0000
0000
0000
0000
0000
0000
0100
0000
0000
0000
0000
0000
0000
0000
0000
0000
0000
0000
0001
0000
0000
0000
,
1000
0000
0000
0000
0000
0100
0000
0000
0100
0000
0000
0010
0001
0000
0000
0000
0000
1000
0000
0000
1000
0000
0000
0010
,
0100
0000
0000
0000
0000
0001
0000
0000
0001
0000
0000
0000
0010
0000
0100
1000
0000
0000
0010
0000
0100
0001
0000
0000
,
0010
0000
0001
0100
0000
0000
0010
0000
1000
0100
0000
0000
0010
0000
0000
0010
0000
0000
0100
0000
0000
0100
0000
0000
,
1000
0000
0000
2001
,
3020
0000
0000
0000
0000
0000
0130
0000
0001
1000
0000
0001
0010
0000
0100
1000
0000
0000
0001
0000
1000
0001
0100
0010
,
1000
0000
0000
0001
0000
1000
0010
0000
1000
0100
0000
0000
0010
0000
0200
0000
0000
0000
1300
0000
0002
0000
0000
0000
,
0103
0000
0000
0010
0000
1000
0001
0000
0010
0100
0000
0010
0001
0000
0000
1000
0000
0000
0001
0100
0010
1000
0001
1000
,
0100
0000
1000
0000
0000
0001
0010
0000
0100
1000
0000
0001
0100
0000
0020
0000
0000
0000
1030
0000
0100
0010
0000
0001
,
2000
0000
0000
0000
0000
0000
3001
0000
0000
0100
0000
0000
1000
0000
0000
0100
0010
1000
0010
0000
0000
1000
0000
0000
,
0002
0000
0000
0000
0000
0000
2003
0000
0100
0000
0000
0000
3200
0000
0000
0300
0000
0000
0010
0000
0000
0001
0000
0000
,
0200
0000
0301
1000
0010
1000
0001
0010
,
1000
0000
0000
0010
0100
1000
0100
0000
0000
1000
0000
0000
0020
0000
0000
0000
0000
0000
1030
0001
0100
0001
1000
0001
,
0020
0000
0000
0000
0000
0000
0130
0000
0010
0100
0010
0001
2000
0000
0000
0000
0000
0000
3001
0000
0100
0010
0000
0100
,
0002
0000
0000
0000
0000
0000
0000
0000
0000
0000
0000
0000
0013
0000
0000
0100
0000
0000
1000
0000
0000
0000
0001
0000
0020
0000
0000
0000
0000
0000
0031
0000
0000
0000
0000
0000
1001
0000
0000
0000
1000
0000
0000
0000
0000
0000
0010
0000
,
0200
0000
0000
0000
0000
0310
1000
0010
0100
0001
1000
0001
0010
0000
0001
0000
0000
0000
0110
0000
0010
0000
0000
0001
,
1000
0000
0000
1000
0000
0010
0100
0000
0000
0001
0000
0000
0000
0000
1000
0001
0000
0000
1000
0000
0100
0010
0000
0001
,
0200
0000
0000
0000
0000
0000
0301
0000
0000
1000
0000
0000
0100
0000
0000
0001
0000
0000
0100
0010
0001
0010
0000
0000
,
0001
0000
1000
0010
0000
1000
0001
0000
0100
0010
0000
0100
2000
0000
0000
0000
0000
0000
3100
0000
0010
1000
0000
0010
,
0100
0000
0001
0010
0000
0001
1000
0000
0100
0000
0000
1000
0001
0000
0100
0001
0000
1000
0100
0000
0010
0100
0000
1000
,
0001
0000
0000
0000
0000
0100
0000
0000
0000
0010
0000
0000
2000
0000
0000
0000
0000
0000
0001
0000
0000
3000
0000
0000
,
1001
2000
3200
0320
,
0032
0000
0000
0000
0000
0000
0023
0000
0000
0000
0000
0000
0230
0000
0000
0000
0000
0000
1300
0000
0001
0000
0000
1000
,
0001
0000
0000
0100
0000
0010
1000
0000
0000
0001
0000
0010
0200
0000
0000
0000
0000
0000
0320
0000
0000
0000
0000
0000
,
0032
0000
0000
1003
0000
0000
0010
0000
1000
0000
0000
0010
0000
0000
0100
0010
0000
0000
1000
0000
0000
1000
0000
0000
,
0002
0000
0000
0000
0000
0013
0000
0000
0000
2000
0000
0000
0000
0000
0000
3010
0000
0000
0001
0000
0000
1000
0000
0000
,
0010
0000
0000
0100
0000
0001
1000
0000
0100
0010
0000
0100
0002
0000
0000
0000
0000
0000
0103
0000
0000
0010
0000
0001
,
2000
3000
2020
3030
0202
0303
0022
0033
,
1000
0010
0001
1000
0100
0001
0010
0000
0000
0100
0000
0000
,
1000
0000
0001
0000
0000
0100
0000
0000
0010
0000
0000
1000
0000
0001
0010
0000
,
0100
0000
1000
0000
0000
0001
0000
0000
0100
0000
0000
0010
0000
0000
0100
0000
,
0001
0000
0010
0000
0000
0100
0000
0000
0010
0000
0000
0001
0000
1000
0010
0000
,
0100
0000
0001
0000
0000
1000
0000
0000
0100
0000
0000
0020
0000
0000
0030
0000
,
1001
0000
0000
0000
;
