#VERSION:0.83;
#TITLE:Colorfull\:Encounter;
#SUBTITLE:;
#ARTIST:Reku Mochizuki;
#TITLETRANSLIT:;
#SUBTITLETRANSLIT:;
#ARTISTTRANSLIT:;
#GENRE:;
#ORIGIN:;
#TAGS:;
#CREDIT:;
#BANNER:ColorfullEncounter.png;
#BACKGROUND:ColorfullEncounter-bg.png;
#PREVIEWVID:;
#JACKET:ColorfullEncounter-jacket.png;
#CDIMAGE:;
#DISCIMAGE:;
#LYRICSPATH:;
#CDTITLE:;
#MUSIC:ColorfullEncounter.ogg;
#OFFSET:-0.671000;
#SAMPLESTART:22.715000;
#SAMPLELENGTH:15.000000;
#SELECTABLE:YES;
#DISPLAYBPM:185.000000;
#BPMS:0.000000=185.000000
,99.000000=370.000000
,99.666664=92.500000
,100.000000=185.000000
,128.000000=370.000000
,131.666672=92.500000
,132.000000=185.000000
,260.000000=370.000000
,261.000000=185.000000
;
#STOPS:128.000000=0.122000
,128.750000=0.121000
,129.500000=0.081000
,130.000000=0.041000
,130.250000=0.040000
,130.500000=0.041000
,130.750000=0.040000
,260.000000=0.041000
,260.250000=0.041000
,260.500000=0.040000
,260.750000=0.041000
;
#DELAYS:;
#WARPS:;
#TIMESIGNATURES:0.000000=4=4
;
#TICKCOUNTS:0.000000=4
;
#COMBOS:0.000000=1
;
#SPEEDS:0.000000=1.000000=0.000000=0
;
#SCROLLS:0.000000=1.000000
;
#FAKES:;
#LABELS:0.000000=Song Start
;
#BGCHANGES:;
#KEYSOUNDS:;
#ATTACKS:
;

//---------------dance-single - ----------------
#NOTEDATA:;
#CHARTNAME:;
#CHARTHASH:1710356770;
#STEPSTYPE:dance-single;
#BANNER:;
#DESCRIPTION:;
#CHARTSTYLE:;
#DIFFICULTY:Beginner;
#METER:3;
#METERF:0.000000;
#LASTSECONDHINT:118.725418;
#RADARVALUES:0.115297,0.183610,0.000000,0.016142,0.000000,100.000000,100.000000,0.000000,2.000000,0.000000,0.000000,0.000000,0.000000,0.000000,0.115297,0.183610,0.000000,0.016142,0.000000,100.000000,100.000000,0.000000,2.000000,0.000000,0.000000,0.000000,0.000000,0.000000;
#CREDIT:ZSL;
#DISPLAYBPM:185.000000;
#NOTES:
// measure 0
0000
0000
0000
0000
,  // measure 1
0000
0000
0000
0000
,  // measure 2
0000
0000
0000
0000
,  // measure 3
0000
0000
0000
0000
,  // measure 4
0000
0000
0000
0000
,  // measure 5
0001
0000
0000
0000
,  // measure 6
1000
0000
0000
0000
,  // measure 7
0010
0000
0000
0000
,  // measure 8
1000
0000
0000
0000
,  // measure 9
0100
0000
0000
0000
,  // measure 10
0010
0000
0000
0000
,  // measure 11
0001
0000
0000
0000
,  // measure 12
1000
0000
0000
0000
,  // measure 13
0010
0000
0000
0000
,  // measure 14
0100
0000
0000
0000
,  // measure 15
0001
0000
1000
0000
,  // measure 16
0001
0000
0000
0000
,  // measure 17
0010
0000
0100
0000
,  // measure 18
0010
0000
0001
0000
,  // measure 19
1000
0000
0000
0000
,  // measure 20
1000
0000
0000
0000
,  // measure 21
0010
0000
0100
0000
,  // measure 22
0010
0000
1000
0000
,  // measure 23
0001
0000
0000
0000
,  // measure 24
0010
0000
0000
0000
,  // measure 25
0100
0000
0010
0000
,  // measure 26
0001
0000
1000
0000
,  // measure 27
0010
0000
0000
0000
,  // measure 28
0010
0000
0000
0000
,  // measure 29
0100
0000
0010
0000
,  // measure 30
1000
0000
0001
0000
,  // measure 31
0010
0000
0000
0000
,  // measure 32
0200
0000
0000
0000
,  // measure 33
0300
0000
0000
0000
,  // measure 34
0000
0000
0000
1000
,  // measure 35
0000
0000
0000
0000
,  // measure 36
0000
0000
0000
0001
,  // measure 37
0000
0000
0000
0000
,  // measure 38
0000
0000
0000
0100
,  // measure 39
0000
0000
0000
0000
,  // measure 40
0000
0000
0000
0000
,  // measure 41
0010
0000
0000
0000
,  // measure 42
1000
0000
0000
0000
,  // measure 43
0001
0000
0000
0000
,  // measure 44
0010
0000
0000
0000
,  // measure 45
0100
0000
0000
0000
,  // measure 46
1000
0000
0000
0000
,  // measure 47
0001
0000
1000
0000
,  // measure 48
0001
0000
0000
0000
,  // measure 49
0100
0000
0010
0000
,  // measure 50
1000
0000
0000
0000
,  // measure 51
0001
0000
0010
0000
,  // measure 52
0100
0000
0000
0000
,  // measure 53
1000
0000
0001
0000
,  // measure 54
0100
0000
0000
0000
,  // measure 55
0010
0000
1000
0000
,  // measure 56
0001
0000
0000
0000
,  // measure 57
0010
0000
0010
0000
,  // measure 58
0100
0000
0000
0000
,  // measure 59
1000
0000
1000
0000
,  // measure 60
0001
0000
0000
0000
,  // measure 61
0100
0000
0000
0000
,  // measure 62
0001
0000
0000
0000
,  // measure 63
1000
0000
0000
0000
,  // measure 64
0010
0000
0010
0000
,  // measure 65
0000
0000
0100
0000
,  // measure 66
0001
0000
1000
0000
,  // measure 67
0100
0000
0000
0000
,  // measure 68
0100
0000
0000
0000
,  // measure 69
0010
0000
0100
0000
,  // measure 70
1000
0000
0001
0000
,  // measure 71
0100
0000
0000
0000
,  // measure 72
0100
0000
0000
0000
,  // measure 73
0010
0000
0100
0000
,  // measure 74
0001
0000
0010
0000
,  // measure 75
0100
0000
0000
0000
,  // measure 76
0100
0000
0000
0000
,  // measure 77
0010
0000
0001
0000
,  // measure 78
0100
0000
0010
0000
,  // measure 79
1000
0000
1000
0000
,  // measure 80
0001
0000
0000
0000
,  // measure 81
0010
0000
0000
0000
,  // measure 82
0000
0000
0000
0000
,  // measure 83
0000
0000
0000
0000
,  // measure 84
0000
0000
0000
0000
,  // measure 85
0100
0000
0000
0000
,  // measure 86
0000
0000
0000
0000
,  // measure 87
1000
0000
0000
0000
,  // measure 88
0000
0000
0000
0000
,  // measure 89
0002
0000
0000
0000
,  // measure 90
0000
0000
0000
0000
,  // measure 91
0003
0000
0000
0000
;

//---------------dance-single - ----------------
#NOTEDATA:;
#CHARTNAME:;
#CHARTHASH:357368570;
#STEPSTYPE:dance-single;
#BANNER:;
#DESCRIPTION:;
#CHARTSTYLE:;
#DIFFICULTY:Easy;
#METER:7;
#METERF:0.000000;
#LASTSECONDHINT:118.725418;
#RADARVALUES:0.255959,0.330498,0.016142,0.032283,0.000000,222.000000,220.000000,2.000000,4.000000,0.000000,0.000000,0.000000,0.000000,0.000000,0.255959,0.330498,0.016142,0.032283,0.000000,222.000000,220.000000,2.000000,4.000000,0.000000,0.000000,0.000000,0.000000,0.000000;
#CREDIT:ZSL;
#DISPLAYBPM:185.000000;
#NOTES:
0000
0000
0000
0000
,
0000
0000
0000
0000
,
0000
0000
0000
0000
,
0000
0000
0000
0000
,
0000
0000
0000
0000
,
0001
1000
0001
0000
,
1000
0000
0010
0000
,
0100
0001
0100
0000
,
0010
0000
1000
0000
,
0001
0010
0100
0000
,
1000
0000
0001
0000
,
0100
0010
1000
0000
,
0001
0000
1000
0000
,
0100
0010
0100
0000
,
1000
0001
1000
0000
,
0010
0100
0001
1000
,
0100
0000
1000
0000
,
0001
0100
0010
1000
,
0000
0010
0100
0001
,
1000
0000
1000
0000
,
0001
0010
0001
0000
,
1000
0100
0010
0001
,
0000
0010
0100
1000
,
0001
0000
0001
0000
,
1000
0010
1000
0000
,
0001
0010
0100
1000
,
0000
0010
0100
0001
,
1000
0000
1000
0000
,
0010
0100
0001
0000
,
1000
0010
0100
0001
,
0000
0010
0100
1000
,
0001
0000
0001
0000
,
2000
0000
3010
0200
,
0301
0000
0000
0000
,
0000
0000
0000
1000
,
0000
0000
0000
0001
,
0000
0000
0000
0010
,
0000
0000
0000
0100
,
0000
0000
0000
1000
,
0000
0000
0000
0001
,
0000
0000
0000
1000
,
1000
0000
0010
0000
,
0100
0001
0100
0000
,
0010
0000
1000
0000
,
0001
0010
0001
0000
,
0010
0100
1000
0000
,
0010
0100
0001
0000
,
1000
0001
0010
0100
,
1000
0000
0001
0000
,
0100
0010
0000
1000
,
0100
0010
0000
0001
,
0010
0100
0000
1000
,
0010
0010
1000
0000
,
0100
0010
0000
0001
,
0100
0010
0000
1000
,
0010
0100
0000
0001
,
0010
0010
0001
0000
,
1000
0010
1000
0001
,
0000
1001
0000
1000
,
0001
0010
0001
1000
,
0000
1001
0000
0001
,
0100
0010
1000
0000
,
0100
0010
0001
0000
,
1000
1000
0000
0010
,
0100
0001
0100
0000
,
0002
1003
0100
0010
,
0001
0100
0010
1000
,
0001
0000
1000
0000
,
0100
0010
0001
0000
,
1000
0001
0100
0010
,
1000
0100
0010
0001
,
1000
0000
0001
0000
,
0100
0010
1000
0000
,
0100
1000
0100
0010
,
0001
0100
0001
0010
,
0100
0000
1000
0000
,
0001
0100
0010
0000
,
0100
0001
0100
0010
,
1000
0100
1000
0010
,
0100
0100
0001
0001
,
1000
0000
0001
0000
,
0010
0000
0000
0000
,
0000
0000
0000
0000
,
0000
0000
0000
0000
,
0000
0000
0000
0000
,
0100
0000
0000
1000
,
0000
0000
0001
0000
,
0100
0000
0000
0010
,
0000
0000
1000
0001
,
2000
0000
0000
0000
,
0000
0000
0000
0000
,
3000
0000
0000
0000
;

//---------------dance-single - ----------------
#NOTEDATA:;
#CHARTNAME:;
#CHARTHASH:1862668170;
#STEPSTYPE:dance-single;
#BANNER:;
#DESCRIPTION:;
#CHARTSTYLE:;
#DIFFICULTY:Medium;
#METER:9;
#METERF:0.000000;
#LASTSECONDHINT:118.725418;
#RADARVALUES:0.360878,0.440664,0.225981,0.040354,0.000000,313.000000,285.000000,28.000000,5.000000,0.000000,0.000000,0.000000,0.000000,0.000000,0.360878,0.440664,0.225981,0.040354,0.000000,313.000000,285.000000,28.000000,5.000000,0.000000,0.000000,0.000000,0.000000,0.000000;
#CREDIT:ZSL;
#DISPLAYBPM:185.000000;
#NOTES:
0000
0000
0000
0000
,
0000
0000
0000
0000
,
0000
0000
0000
0000
,
0000
0000
0000
0000
,
0000
0000
0000
0000
,
0001
0000
1000
0000
0001
0000
0000
0010
,
0000
0100
0000
1000
0000
0000
0001
0000
,
0100
0000
0000
0010
0000
0000
1000
0001
,
0000
0010
0100
1000
,
1001
0001
0100
0010
,
1000
0000
0001
0000
0010
0100
0000
0100
,
0010
0001
1000
0010
,
0110
0100
0101
0001
,
1000
0001
0100
0010
,
1010
1000
0001
0010
,
0011
0001
1000
1000
,
0010
0000
0100
0000
,
0001
0000
0010
0000
0100
0000
0010
0001
,
0000
0010
0001
0000
1000
0000
0010
0000
,
0110
0000
0100
0001
,
1000
0100
1100
0000
,
1000
0000
0010
0000
0100
0000
0010
1000
,
0000
0010
1000
0000
0001
0000
0010
0000
,
0110
0000
0100
1000
,
0001
0100
0110
0020
,
1030
0000
0001
0000
0010
0000
0100
1000
,
0000
0001
1000
0000
0010
0000
0100
0000
,
0101
0000
0101
0001
,
1000
0100
0010
0010
,
0001
0000
1000
0000
0010
0000
0100
0001
,
0000
1000
0001
0000
0010
0000
0100
0000
,
1100
0000
1100
1000
,
0002
0000
0000
0000
0103
0010
0200
0000
,
0301
0000
0000
0000
,
0000
0000
0000
1000
,
0000
0000
0000
0100
,
0000
0000
0000
0010
,
0000
0000
0000
0001
,
0000
0000
0000
1000
,
0000
0000
0000
0010
,
0000
0000
0000
0110
,
0100
0001
0010
0100
,
1000
0000
0010
0000
1000
0001
0000
0000
,
0001
0010
0100
1000
,
1100
0100
0110
0010
,
0001
1000
0010
0100
,
0101
0001
0010
0100
,
1000
0001
0100
0100
,
0010
0000
1000
0000
,
0001
0000
0010
0100
0000
0010
0000
0001
,
0000
0100
0000
0010
0000
1000
0010
0000
,
0100
0000
0001
1000
0000
0100
0000
0010
,
0100
1000
0001
0001
,
1000
0000
0010
0100
0000
0010
0000
1000
,
0000
0100
0000
0010
0000
0001
0010
0000
,
0100
0000
1000
0001
0000
0100
0000
0010
,
0100
0001
1000
1000
,
0100
0000
0010
0000
0001
0000
1000
0010
,
0000
0000
1000
0010
0000
0000
0010
0000
,
0100
0000
0010
0000
1000
0000
0001
0010
,
0000
0000
0001
0010
0000
0000
0010
0000
,
0110
0100
1000
0001
,
0101
0100
0010
1000
,
1001
0000
0000
1001
0000
0000
0001
0000
,
0010
0100
1000
0001
,
2000
0000
3010
0000
0100
0000
0010
1000
,
0000
0001
0010
0000
0100
0000
0010
0000
,
0011
0000
1001
0000
,
1000
0010
0100
0000
,
0001
0000
0010
0000
0100
0000
0010
0001
,
0000
1000
0010
0000
0100
0000
0010
0000
,
1010
0000
1001
0000
,
0001
0010
0100
0000
,
1000
0000
0100
0000
0010
0000
0100
1000
,
0000
0010
0100
0000
0001
0000
0100
0000
,
0110
0010
1000
0001
,
0011
0010
0100
1000
,
0001
0000
0100
0000
0010
0000
0100
0001
,
0000
0010
0100
0000
1000
0000
0100
0000
,
0110
0010
0001
0001
,
1000
0000
0010
0100
,
0001
0000
0000
0000
,
0000
0000
0000
0000
,
0000
0000
0000
0000
,
0000
0000
0000
0000
,
1000
0000
0000
0001
,
0000
0000
0010
0000
,
0100
0000
0000
1000
0000
0000
0001
0000
,
0000
0100
0000
0000
0010
0000
1000
0000
,
0002
0000
0000
0000
,
0000
0000
0000
0000
,
0003
0000
0000
0000
;

//---------------dance-single - ----------------
#NOTEDATA:;
#CHARTNAME:;
#CHARTHASH:1399635720;
#STEPSTYPE:dance-single;
#BANNER:;
#DESCRIPTION:;
#CHARTSTYLE:;
#DIFFICULTY:Hard;
#METER:13;
#METERF:0.000000;
#LASTSECONDHINT:118.725418;
#RADARVALUES:0.538435,0.660996,0.080708,0.064566,0.040354,467.000000,457.000000,10.000000,8.000000,0.000000,0.000000,0.000000,0.000000,0.000000,0.538435,0.660996,0.080708,0.064566,0.040354,467.000000,457.000000,10.000000,8.000000,0.000000,0.000000,0.000000,0.000000,0.000000;
#CREDIT:ZSL;
#DISPLAYBPM:185.000000;
#NOTES:
0000
0000
0000
0000
,
0000
0000
0000
0000
,
0000
0000
0000
0000
,
0000
0000
0000
0000
,
0000
0000
0000
0000
,
0001
0000
1000
0000
0100
0000
0010
0100
,
0000
1000
0001
0100
0000
0000
0010
0100
,
0001
0000
1000
0010
0000
1000
0100
0010
,
0000
0100
0010
0011
,
0001
0000
1000
0000
0010
0000
0100
0001
,
0000
0100
0010
0100
0000
0110
0000
0000
,
1001
0000
0001
0010
0100
0000
1000
0000
,
1010
0000
0010
0000
0101
0100
0010
0000
,
1000
0000
0001
0000
0010
0000
0100
1000
,
0001
0000
0100
0000
0010
0100
0010
1000
,
0001
0000
1000
0100
0010
0001
0100
0010
,
1000
0001
0010
0110
,
0100
0000
0010
0001
0100
0010
1000
0001
,
0000
0010
0100
1000
0001
0100
0010
0010
,
1000
0000
0010
0100
0001
0000
1000
0001
,
0010
0000
0000
0100
0000
0000
1000
0000
0001
0000
1000
0000
0010
0000
0000
0000
,
0100
0000
0010
1000
0100
0010
0001
1000
,
0000
0010
0100
0001
1000
0100
0010
0010
,
0001
0000
0010
0100
1000
0000
0001
1000
,
0010
0000
0000
0100
0000
0000
0001
0000
1000
0000
0001
0000
0020
0000
0000
0000
,
0031
0000
0100
0001
0010
0001
0100
0010
,
0000
0001
0010
0100
0001
1000
0100
0100
,
1000
0000
0100
0010
0001
1000
0010
0100
,
0010
0000
0000
1000
0000
0000
0001
0000
0010
0000
0001
0000
1000
0000
0010
0000
,
1000
0000
0100
1000
0010
1000
0100
0010
,
0000
1000
0010
0100
1000
0001
0100
0100
,
0001
0000
0100
0010
1000
0001
0010
0100
,
0010
0000
0000
0001
0000
0000
1000
0000
0010
0000
0100
0000
0120
0000
0000
0000
,
1030
0000
0000
0000
,
0000
0000
0000
0000
0000
0000
0001
1000
,
0000
0000
0000
0000
0000
0000
0001
0010
,
0000
0000
0000
0000
0000
0000
0100
0010
,
0000
0000
0000
0000
0000
0000
0100
1000
,
0000
0000
0000
0000
0000
0000
0001
0100
,
0000
0000
0000
0000
0000
0000
0010
1000
,
0000
0000
0000
1001
,
0001
0010
0100
1000
,
0010
0000
0100
0000
0001
1000
0000
0010
,
0100
0001
0010
0100
,
1100
0000
1000
0000
1001
0001
0100
0000
,
0010
1000
0010
1000
0100
0010
0001
0000
,
1000
0001
0100
0001
0010
0000
0001
0000
,
1000
0100
1000
0001
0100
0010
1000
0100
,
0010
0001
1000
0001
,
0010
0100
1000
0010
0000
0100
0001
0010
,
0000
0100
1000
0001
0000
0100
0010
1000
,
0001
0010
0001
0100
0000
0001
0010
0100
,
0001
0100
1000
0001
0100
0010
1000
0000
,
0010
0100
0001
0010
0000
0100
1000
0010
,
0000
0100
0001
1000
0000
0100
0010
0001
,
1000
0010
1000
0100
0000
1000
0010
0100
,
1000
0100
0001
1000
0100
0010
0001
0000
,
1000
0010
0100
0010
1000
0002
0010
1000
,
0003
0002
0010
1000
0003
0001
1000
1000
,
0001
0010
0100
0010
0001
2000
0010
0001
,
3000
2000
0010
0001
3000
1000
0001
0010
,
0100
0000
0010
0001
0000
1000
0010
0100
,
0001
0000
0100
0010
0000
1000
0001
0010
,
0100
0000
1000
0100
0000
0010
0100
1000
,
0010
0100
0001
1000
0001
1000
0100
0100
,
0020
0000
0130
1000
0010
0100
0001
0100
,
0000
1000
0100
0001
1000
0100
0010
0010
,
0001
0000
1000
0010
0100
0000
0001
1000
,
0100
0000
0000
0010
0000
0000
0001
0000
1000
0000
0010
0000
1000
0000
0000
0000
,
0010
0000
0100
0001
0010
0100
1000
0100
,
0000
0001
0100
1000
0001
0100
0010
0010
,
1000
0000
0001
0010
0100
0000
1000
0001
,
0100
0000
0000
0010
0000
0000
1000
0000
0001
0000
0010
0000
0001
0000
0000
0000
,
1000
0100
0010
0001
0100
0010
1000
0001
,
0010
1000
0010
0001
0100
0010
1000
1000
,
0001
0000
0010
0100
1000
0000
0001
0000
,
0100
0000
0010
0000
1000
0000
0000
0000
0001
0000
0000
1000
0001
0000
1000
0000
,
0001
0100
0010
1000
0100
0010
0001
1000
,
0010
0001
0010
1000
0100
0010
0001
0000
,
0010
0000
0100
0000
0010
0000
0100
0000
1000
0001
1000
0000
0010
0000
0100
0001
,
0100
0001
1000
0100
,
0010
0000
0000
0000
,
0000
0000
0000
0000
,
0000
0000
0000
0000
,
0000
0000
0000
0000
,
0001
0000
0000
1000
0000
0000
0001
0000
,
0000
0000
0000
0000
0000
0000
1000
0000
0010
0000
0000
0100
0000
0000
0001
0000
,
1000
0000
0000
0100
0000
0000
0010
0000
,
0000
0001
0000
0000
1000
0000
0001
0001
,
0200
0000
0000
0000
,
0000
0000
0000
0000
,
0300
0000
0000
0000
;

//---------------dance-single - ----------------
#NOTEDATA:;
#CHARTNAME:;
#CHARTHASH:3609046277;
#STEPSTYPE:dance-single;
#BANNER:;
#DESCRIPTION:;
#CHARTSTYLE:;
#DIFFICULTY:Challenge;
#METER:17;
#METERF:17.000000;
#LASTSECONDHINT:118.725418;
#RADARVALUES:0.737898,0.991493,0.234052,0.064566,0.468104,640.000000,611.000000,29.000000,8.000000,0.000000,0.000000,0.000000,0.000000,0.000000,0.737898,0.991493,0.234052,0.064566,0.468104,640.000000,611.000000,29.000000,8.000000,0.000000,0.000000,0.000000,0.000000,0.000000;
#CREDIT:ZSL;
#DISPLAYBPM:185.000000;
#NOTES:
0000
0000
0000
0000
,
0000
0000
0000
0000
,
0000
0000
0000
0000
,
0000
0000
0000
0000
,
0000
0000
0000
0000
,
0001
0000
1000
0000
0010
0000
0100
0001
,
0000
0100
0010
1000
0000
0000
0001
0010
,
0100
0000
0010
0001
0000
1000
0010
0100
,
0000
0010
1000
1001
,
0001
0000
0010
0000
0100
0000
1000
0001
,
1000
0000
0010
0100
0010
0110
0000
1000
,
1100
0000
0100
0010
0001
0000
1000
0001
,
1001
0000
0000
0000
1000
0000
0000
0000
1010
0000
0010
0000
0100
0000
0010
0100
,
0001
1000
0010
1000
0100
1000
0001
0010
,
0100
0000
1000
0000
0010
0000
0100
0000
0001
0000
1000
0000
0010
0000
0100
0010
,
1000
0000
0010
0000
0100
0000
0001
0000
0010
0001
0010
0001
1000
0010
1000
0010
,
0100
0000
0010
0000
0100
0001
1001
0000
,
1000
0000
0000
0000
0100
0000
0010
0001
0010
0000
0001
0000
1000
0000
0010
0000
,
0100
0000
0000
0000
0000
0000
0010
0000
0000
1000
0000
0000
0001
0000
0000
0000
0000
0000
0010
0000
0000
0000
0000
0000
0100
0000
0000
0000
0000
0000
1000
0000
0000
0000
0000
0000
0001
0000
1000
0000
0001
0000
1000
0000
0000
0000
0000
0000
,
0001
0000
0000
0000
0100
0000
0001
1000
0001
0000
0000
0000
0010
0000
0100
0000
,
1100
0000
0000
1001
0000
0000
1100
0000
1000
0000
0001
0000
0100
0000
0000
0000
,
0001
0000
0000
0000
0100
0000
0010
1000
0010
0000
1000
0000
0001
0000
0010
0000
,
0100
0000
0000
0000
0000
0000
0010
0000
0000
0001
0000
0000
1000
0000
0000
0000
0000
0000
0010
0000
0000
0000
0000
0000
0100
0000
0000
0000
0000
0000
0001
0000
0000
0000
0000
0000
1000
0000
0001
0000
1000
0000
0001
0000
0000
0000
0000
0000
,
1000
0000
0000
0000
0100
0000
1000
0001
1000
0000
0000
0000
0010
0000
0100
0000
,
0101
0000
0000
1001
0000
0000
0101
0000
0001
0000
1000
0000
0200
0000
0000
0000
,
0310
0000
0000
0000
0100
0000
1000
0001
0100
0000
0001
0000
1000
0000
0100
0000
,
0010
0000
0000
0000
0000
0000
1000
0000
0000
0010
0000
0000
0100
0000
0000
0000
0000
0000
1000
0000
0000
0000
0000
0000
0001
0000
0000
0000
0000
0000
0100
0000
0000
0000
0000
0000
0010
0000
1000
0000
0010
0000
1000
0000
0000
0000
0000
0000
,
0010
0000
0000
0000
1000
0000
0100
0010
0001
0000
1000
0000
0010
0000
0100
0000
,
0101
0000
0000
0011
0000
0000
0110
0000
0100
0000
0010
0000
0001
0000
1000
0000
,
0010
0000
0000
0000
0100
0000
0001
1000
0100
0000
1000
0000
0001
0000
0100
0000
,
0010
0000
0000
0000
0000
0000
0001
0000
0000
0010
0000
0000
0100
0000
0000
0000
0000
0000
0001
0000
0000
0000
0000
0000
1000
0000
0000
0000
0000
0000
0100
0000
0000
0000
0000
0000
0010
0000
0001
0000
0010
0000
0001
0000
0000
0000
0000
0000
,
0010
0000
0000
0000
0001
0000
0100
0010
1000
0000
0001
0000
0010
0000
0100
0000
,
1100
0000
0000
1010
0000
0000
1100
0000
1000
0100
0010
0001
0200
0000
0000
0000
,
0310
0000
0000
0000
,
0000
0000
0000
0000
0000
0000
1000
0010
,
0000
0000
0000
0000
0000
0000
0100
0001
,
0000
0000
0000
0000
0000
0000
1000
0100
,
0000
0000
0000
0000
0000
0000
0010
0100
,
0000
0000
0000
0000
0000
0000
1000
0001
,
0000
0000
0000
0000
0000
0000
0100
0010
,
0000
0000
0000
1001
,
1000
0000
0010
1000
0001
0000
0010
0100
,
0010
0000
0100
1000
0001
0101
0000
0100
,
0110
0000
0010
1000
0100
0000
0010
0100
,
1100
0000
0000
0000
1000
0000
0001
0000
0101
0000
0100
0000
0010
0000
1000
0100
,
1000
0000
0100
0000
0010
0000
0100
0000
1000
0000
0100
0000
0010
0000
0001
1000
,
0010
0000
0100
0000
0001
0000
0100
0000
0010
1000
0001
0000
0010
0000
0100
1000
,
0001
0100
0001
0100
0010
1000
0010
1000
0001
1000
0001
1000
0100
0000
0010
0100
,
1000
0000
0001
0000
0100
0010
0100
0000
,
0001
0000
1000
0000
0100
0010
0001
0000
1000
0000
0010
0000
0100
0010
1000
0000
,
0001
0000
0000
0000
0000
0000
1000
0000
0000
0100
0000
0000
0010
0000
0000
0100
0000
0000
1000
0000
0000
0000
0000
0000
0100
0000
0000
0000
0000
0000
0010
0000
0000
0000
0000
0000
0100
0000
1000
0000
0100
0000
1000
0000
0000
0000
0000
0000
,
0001
0000
0100
0000
0010
1000
0001
0000
0010
0000
0100
1000
0001
1000
0100
0000
,
0001
0100
1000
0010
0100
0001
1002
0000
,
1003
0000
0001
0000
0100
0010
1000
0000
0001
0000
0010
0000
0100
0010
0001
0000
,
1000
0000
0000
0000
0000
0000
0001
0000
0000
0100
0000
0000
0010
0000
0000
0100
0000
0000
0001
0000
0000
0000
0000
0000
0100
0000
0000
0000
0000
0000
0010
0000
0000
0000
0000
0000
0100
0000
0001
0000
0100
0000
0001
0000
0000
0000
0000
0000
,
1000
0000
0100
0000
0010
0001
1000
0000
0010
0000
0100
0001
1000
0001
0100
0000
,
1000
0000
0000
0100
0000
0000
0001
0000
0000
0010
0000
0000
0100
0000
0000
1000
0000
0000
0010
1000
0010
1000
0000
0000
,
0001
0000
0010
0100
1000
0000
0001
0100
0010
0000
1000
0010
0001
0000
0020
0000
,
0000
0000
0000
0000
0000
0000
1030
0000
0000
0010
0000
0000
0001
0000
0000
0000
0000
0000
0020
0000
0000
0000
0000
0000
0000
0000
0000
0000
0000
0000
1030
0000
0000
0000
0000
0000
0001
0000
1000
0000
0001
0000
1000
0000
0000
0000
0000
0000
,
0001
0000
0100
0010
1000
0000
0001
0010
0100
0000
1000
0100
0001
0000
0200
0000
,
0000
0000
1300
0100
0001
0000
0200
0000
0000
0000
1300
0000
0001
0000
0100
0001
,
0010
0000
0100
0000
1000
0000
0001
0000
0100
0000
0010
0000
1000
0000
0100
1000
,
0001
0000
0100
0000
0010
0000
1000
0000
0001
0000
0010
0000
0100
0010
0001
1000
,
0010
0000
0100
0101
0000
0001
1000
0010
,
0001
0000
0000
1000
0000
0000
0100
0000
0000
0001
0000
0000
1000
0000
0000
0100
0000
0000
0010
0001
0010
0001
0000
0000
,
1000
0001
1000
0001
0100
0000
0010
0000
1000
0001
0100
0001
1000
0100
0010
0000
,
0100
0000
0000
0001
0000
0000
1000
0000
0000
0010
0000
0000
0001
0000
0000
1000
0000
0000
0010
1000
0010
1000
0000
0000
,
0001
0000
0100
0010
1010
0000
1000
0100
,
0010
0000
0000
0010
0000
0000
0100
0000
1100
0000
1000
0000
0001
0000
0100
0000
,
0010
0000
1000
0000
0100
0000
0010
0000
0001
1000
0100
1000
0001
0100
0010
0000
,
0100
0000
0000
1000
0000
0000
0001
0000
0000
0010
0000
0000
1000
0000
0000
0001
0000
0000
0010
0001
0010
0001
0000
0000
,
1000
0000
0100
0010
0011
0000
0001
0100
,
0010
0000
0000
0010
0000
0000
0100
0000
0101
0000
0001
0000
1000
0000
0001
1000
,
0010
0000
0100
0000
0001
0000
1000
0000
0100
0010
0001
0010
0100
1000
0010
0000
,
0100
0000
0000
1000
0000
0000
0001
0000
0000
1000
0000
0000
0100
0000
0000
0001
0000
0000
1000
0100
1000
0100
0000
0000
,
0010
0000
0100
1000
0001
0000
0100
0000
,
0010
0000
1000
0000
0001
0000
0010
0000
0100
0000
0000
1000
0010
0000
1000
0000
,
0001
0000
0010
0000
0100
0000
1000
0000
0010
0100
0001
0100
0010
0100
0001
1000
,
0100
0000
0001
0000
1000
0000
0001
0000
0100
1000
0001
0000
1000
0000
0010
0100
,
0001
1000
0001
1000
0010
0100
0010
0100
0001
1000
0100
1000
0010
0000
0100
0001
,
0010
0001
1000
0000
0001
0000
0010
0000
,
0100
0000
0000
0000
,
0000
0000
0000
0000
,
0000
0000
0000
0000
,
0000
0000
0000
0000
,
1000
0000
0000
0010
0000
0000
0100
0000
,
0000
0000
0000
0000
0000
0000
0001
0000
1000
0000
0000
0100
0000
0000
0010
0000
,
0001
0000
0000
1000
0000
0000
0010
0000
,
0000
0000
0100
0000
0000
0000
0000
0000
0001
0000
0000
0000
0100
0001
0100
0001
,
0020
0000
0000
0000
,
0000
0000
0000
0000
,
0030
0000
0000
0000
;
