#VERSION:0.83;
#TITLE:ALLNIGHT_DANCER;
#SUBTITLE:;
#ARTIST:brz1128;
#TITLETRANSLIT:;
#SUBTITLETRANSLIT:;
#ARTISTTRANSLIT:;
#GENRE:;
#ORIGIN:;
#TAGS:;
#CREDIT:;
#BANNER:ALLNIGHT_DANCER.png;
#BACKGROUND:ALLNIGHT_DANCER-bg.png;
#PREVIEWVID:;
#JACKET:ALLNIGHT_DANCER-jacket.png;
#CDIMAGE:;
#DISCIMAGE:;
#LYRICSPATH:;
#CDTITLE:;
#MUSIC:ALLNIGHT_DANCER.ogg;
#OFFSET:0.242000;
#SAMPLESTART:11.619000;
#SAMPLELENGTH:15.000000;
#SELECTABLE:YES;
#BPMS:0.000000=182.000000
;
#STOPS:;
#DELAYS:;
#WARPS:;
#TIMESIGNATURES:0.000000=4=4
;
#TICKCOUNTS:0.000000=4
;
#COMBOS:0.000000=1
;
#SPEEDS:0.000000=1.000000=0.000000=0
;
#SCROLLS:0.000000=1.000000
;
#FAKES:;
#LABELS:0.000000=Song Start
;
#BGCHANGES:;
#KEYSOUNDS:;
#ATTACKS:
;

//---------------dance-single - ----------------
#NOTEDATA:;
#CHARTNAME:;
#CHARTHASH:2758302469;
#STEPSTYPE:dance-single;
#BANNER:;
#DESCRIPTION:;
#CHARTSTYLE:;
#DIFFICULTY:Beginner;
#METER:5;
#METERF:0.000000;
#LASTSECONDHINT:125.032730;
#RADARVALUES:0.187135,0.259259,0.000000,0.007797,0.000000,168.000000,168.000000,0.000000,1.000000,0.000000,0.000000,0.000000,0.000000,0.000000,0.187135,0.259259,0.000000,0.007797,0.000000,168.000000,168.000000,0.000000,1.000000,0.000000,0.000000,0.000000,0.000000,0.000000;
#CREDIT:ZSL;
#NOTES:
// measure 0
0000
0000
0000
0000
,  // measure 1
0000
0000
0000
0000
,  // measure 2
0000
0000
0000
0000
,  // measure 3
0000
0000
0000
0000
,  // measure 4
0000
0000
0000
0000
,  // measure 5
1000
0000
0001
0000
,  // measure 6
0100
0000
0010
0000
,  // measure 7
1000
0000
0000
0001
0000
0000
0000
1000
,  // measure 8
0000
0000
0000
0000
,  // measure 9
0100
0010
0000
0100
,  // measure 10
1000
0000
0001
0000
,  // measure 11
1000
0010
0000
0100
,  // measure 12
0001
0000
1000
0000
,  // measure 13
0010
0100
0000
0010
,  // measure 14
1000
0000
0001
0000
,  // measure 15
1000
0100
0000
0010
,  // measure 16
0001
0000
1000
0000
,  // measure 17
0000
0000
0000
0000
,  // measure 18
0001
0000
0100
0000
,  // measure 19
0010
0000
1000
0000
,  // measure 20
0001
0000
0010
0000
,  // measure 21
0100
0000
0100
0000
,  // measure 22
1000
0000
0100
0000
,  // measure 23
0010
0000
0001
0000
,  // measure 24
1000
0000
0010
0000
,  // measure 25
0100
0000
0100
0000
,  // measure 26
0001
0000
1000
0000
,  // measure 27
0100
0100
0100
0000
,  // measure 28
0010
0000
0001
0000
,  // measure 29
1000
1000
1000
0000
,  // measure 30
0001
0000
0100
0000
,  // measure 31
0010
0010
0010
0000
,  // measure 32
1000
0000
0000
0000
,  // measure 33
0001
0001
0000
0000
,  // measure 34
0010
0000
0000
0000
,  // measure 35
0000
0000
0000
0000
,  // measure 36
0100
0000
0000
0000
,  // measure 37
0000
0000
0000
0000
,  // measure 38
1000
0000
0000
0000
,  // measure 39
0000
0000
0000
0000
,  // measure 40
0001
0000
0000
0000
,  // measure 41
0000
0000
0000
0000
,  // measure 42
0100
0000
0000
0000
,  // measure 43
0010
0000
0000
0000
,  // measure 44
1000
0000
0000
0000
,  // measure 45
0001
0000
0000
0000
,  // measure 46
0010
0000
0010
0000
,  // measure 47
0001
0000
0000
0000
,  // measure 48
0100
0000
0010
0000
,  // measure 49
0100
0000
0001
0000
,  // measure 50
1000
0000
0100
0100
,  // measure 51
0000
0000
0000
0000
,  // measure 52
0010
0000
0000
0001
0000
0000
1000
0000
,  // measure 53
0010
0000
0000
0100
0000
0000
0000
0000
,  // measure 54
0001
0000
0000
0100
0000
0000
0010
0000
,  // measure 55
1000
0000
0000
1000
0000
0000
0000
0000
,  // measure 56
0100
0000
0000
0010
0000
0000
0100
0000
,  // measure 57
1000
0000
0000
0001
0000
0000
0100
0000
,  // measure 58
0100
0000
0001
0000
,  // measure 59
1000
1000
0000
0000
,  // measure 60
0010
0000
0000
1000
0000
0000
0001
0000
,  // measure 61
0010
0000
0000
0100
0000
0000
0000
0000
,  // measure 62
1000
0000
0000
0100
0000
0000
0010
0000
,  // measure 63
0001
0000
0000
0001
0000
0000
0000
0000
,  // measure 64
0100
0000
0000
0010
0000
0000
0100
0000
,  // measure 65
0001
0000
0000
1000
0000
0000
0100
0000
,  // measure 66
0100
0000
0010
0000
,  // measure 67
0001
0001
0000
0000
,  // measure 68
0100
0000
0000
0000
,  // measure 69
0010
0000
0000
0000
,  // measure 70
1000
0000
0000
1000
0000
0000
0000
0000
,  // measure 71
0001
0010
0000
0000
,  // measure 72
0100
0000
0000
0000
,  // measure 73
0010
0000
0000
0000
,  // measure 74
0001
0000
0000
0001
0000
0000
0000
0000
,  // measure 75
1000
0010
0000
0000
,  // measure 76
0100
0000
0000
0000
,  // measure 77
0001
0000
0000
0000
,  // measure 78
1000
0000
1000
0000
,  // measure 79
0100
0010
0000
0000
,  // measure 80
0001
0000
1000
1000
,  // measure 81
1000
0000
0001
0001
,  // measure 82
0010
0000
0001
0000
,  // measure 83
0000
0000
0000
0000
,  // measure 84
0100
0010
0000
0100
,  // measure 85
0001
0000
1000
0000
,  // measure 86
0001
0010
0000
0100
,  // measure 87
1000
0000
0001
0000
,  // measure 88
0010
0100
0000
0010
,  // measure 89
0001
0000
1000
0000
,  // measure 90
0001
0100
0000
0010
,  // measure 91
1000
0000
0001
0000
,  // measure 92
1000
0000
0000
0000
0001
0000
0000
0200
,  // measure 93
0000
0000
0000
0000
,  // measure 94
0000
0000
0000
0000
,  // measure 95
0300
0000
0000
0000
;

//---------------dance-single - ----------------
#NOTEDATA:;
#CHARTNAME:;
#CHARTHASH:1901402530;
#STEPSTYPE:dance-single;
#BANNER:;
#DESCRIPTION:;
#CHARTSTYLE:;
#DIFFICULTY:Easy;
#METER:8;
#METERF:0.000000;
#LASTSECONDHINT:125.032730;
#RADARVALUES:0.337510,0.444444,0.124756,0.007797,0.120858,303.000000,287.000000,16.000000,1.000000,0.000000,0.000000,0.000000,0.000000,0.000000,0.337510,0.444444,0.124756,0.007797,0.120858,303.000000,287.000000,16.000000,1.000000,0.000000,0.000000,0.000000,0.000000,0.000000;
#CREDIT:ZSL;
#NOTES:
0000
0000
0000
0000
,
0000
0000
0000
0000
,
0000
0000
0000
0000
,
0000
0000
0000
0000
,
0000
0000
0000
0000
,
1000
0000
0000
0001
0000
0000
0000
0100
,
0000
0010
0000
1000
0000
0001
0000
0000
,
0010
0000
0000
0100
0000
0100
0000
1000
,
0000
0000
0000
0000
,
0001
0000
1000
0010
0000
0000
0100
0000
,
0010
0000
0000
1000
0000
0000
0000
0000
0001
0000
0000
0000
0010
0000
0000
0000
,
0100
0000
1000
0001
0000
0000
0100
0000
,
0010
0000
0000
0100
0000
0000
0000
0000
0001
0000
0000
0000
0010
0000
0000
0000
,
0001
0000
1000
0100
0000
0000
0010
0000
,
0100
0000
0000
1000
0000
0000
0000
0000
0001
0000
0000
0000
0100
0000
0000
0000
,
0010
0000
1000
0001
0000
0000
0010
0000
,
0100
0000
0000
0010
0000
0000
0000
0000
0001
0000
0000
0000
0100
0000
0000
0000
,
0000
0000
0000
0000
,
0010
0000
0000
0000
1000
0000
0000
0010
0000
0000
0000
0000
0100
0000
0000
0000
,
0001
0100
0001
1000
,
0100
0000
0000
0000
0010
0000
0000
0100
0000
0000
0000
0000
1000
0000
0000
0000
,
0001
0100
0001
0001
,
0010
0000
0000
0000
0001
0000
0000
0010
0000
0000
0000
0000
0100
0000
0000
0000
,
1000
0100
1000
0001
,
0100
0000
0000
0000
0010
0000
0000
0100
0000
0000
0000
0000
0001
0000
0000
0000
,
1000
0100
1000
1000
,
0110
0100
0010
0001
,
1001
0000
0000
0000
1000
0000
0000
1000
0000
0000
0000
0000
0010
0000
0000
0000
,
0101
0100
0010
1000
,
1001
0000
0000
0000
0001
0000
0000
0001
0000
0000
0000
0000
0010
0000
0000
0000
,
1100
0100
0010
0001
,
1001
0000
0000
0000
1000
0000
0000
1000
0000
0000
0000
0000
0010
0000
0000
0000
,
0100
0000
0000
0000
0010
0000
0000
1000
0000
0000
0000
0000
0001
0000
0000
0000
,
0110
0000
0000
0000
0110
0000
0000
1000
0000
0000
0000
0000
0000
0000
0000
0000
,
0001
0000
0000
0000
,
0010
0000
0000
0000
,
0100
0000
0000
0000
,
1000
0000
0000
0001
,
1000
0000
0000
0000
,
0010
0000
0000
0000
,
0100
0000
0000
0000
,
0001
0000
0000
1000
,
0001
0000
0000
0100
0000
0000
0001
0000
,
0010
0000
0000
0100
0000
0100
0000
0000
,
0010
0000
0000
0001
0000
0000
1000
0000
,
0010
0000
0000
0100
0000
0000
0001
0000
,
1000
0000
1000
0000
,
0001
0000
0000
0000
,
0010
0100
1000
0000
,
0010
0100
0001
0000
,
1000
0001
1000
0010
,
0000
0000
0000
0000
,
1000
0000
0000
0100
0000
0000
0010
0000
0000
0000
0000
0000
0001
0000
0000
0000
,
1000
0000
0000
0010
0000
0000
0100
0000
0000
0000
0001
0000
0000
0000
0000
0000
,
0100
0000
0000
0010
0000
0000
1000
0000
0000
0000
0000
0000
0001
0000
0000
0000
,
0100
0000
0000
0001
0000
0000
0010
0000
0000
0000
0000
0000
0100
0000
0000
0000
,
0010
0000
0000
0001
0000
0000
1000
0000
0000
0000
0000
0000
0010
0000
0000
0000
,
1000
0000
0000
0001
0000
0000
0010
0000
0000
0000
0000
0000
0100
0000
0000
0000
,
1100
1000
0001
0100
,
0101
0000
0000
0000
1001
0000
0000
0001
0000
0000
0000
0000
1000
0000
0000
0000
,
0001
0000
0000
0100
0000
0000
0010
0000
0000
0000
0000
0000
1000
0000
0000
0000
,
0001
0000
0000
0010
0000
0000
0100
0000
0000
0000
1000
0000
0000
0000
0000
0000
,
0100
0000
0000
0010
0000
0000
0001
0000
0000
0000
0000
0000
1000
0000
0000
0000
,
0100
0000
0000
1000
0000
0000
0010
0000
0000
0000
0000
0000
0100
0000
0000
0000
,
0010
0000
0000
1000
0000
0000
0001
0000
0000
0000
0000
0000
0010
0000
0000
0000
,
0001
0000
0000
1000
0000
0000
0010
0000
0000
0000
0000
0000
0100
0000
0000
0000
,
0101
0001
1000
0100
,
1100
0000
0000
0000
1001
0000
0000
0001
0000
0000
0000
0000
0000
0000
0000
0000
,
1000
0000
0000
0100
0000
0000
0000
0010
,
0000
0010
0000
0001
0000
0001
0000
0000
,
0100
0000
0000
0010
0000
0100
0000
0000
,
0001
1000
0000
1000
,
0001
0000
0000
0100
0000
0000
0000
0010
,
0000
0010
0000
1000
0000
1000
0000
0000
,
0100
0000
0000
0010
0000
0100
0000
0000
,
1000
0001
0000
0001
,
0100
0000
0000
0010
0000
0000
0000
1000
,
0000
1000
0000
0001
0000
0010
0000
0100
,
0000
1000
0100
0010
,
0001
1000
0000
1000
,
0001
0000
0100
0100
,
0100
0000
0010
0010
,
1000
0001
0010
0100
,
0000
0000
0000
0000
,
1000
0000
0001
0010
0000
0000
0100
0000
,
0010
0000
0000
0001
0000
0000
0000
0000
1000
0000
0000
0000
0010
0000
0000
0000
,
0100
0000
0001
1000
0000
0000
0100
0000
,
0010
0000
0000
0100
0000
0000
0000
0000
1000
0000
0000
0000
0010
0000
0000
0000
,
1000
0000
0001
0100
0000
0000
0010
0000
,
0100
0000
0000
0001
0000
0000
0000
0000
1000
0000
0000
0000
0100
0000
0000
0000
,
0010
0000
0001
1000
0000
0000
0010
0000
,
0100
0000
0000
0010
0000
0000
0000
0000
1000
0000
0000
0000
0100
0000
0000
0000
,
0110
0000
0001
0000
1001
0000
1000
0020
,
0000
0000
0000
0000
,
0000
0000
0000
0000
,
0030
0000
0000
0000
;

//---------------dance-single - ----------------
#NOTEDATA:;
#CHARTNAME:;
#CHARTHASH:356769080;
#STEPSTYPE:dance-single;
#BANNER:;
#DESCRIPTION:;
#CHARTSTYLE:;
#DIFFICULTY:Medium;
#METER:12;
#METERF:0.000000;
#LASTSECONDHINT:125.032730;
#RADARVALUES:0.494570,0.555556,0.132554,0.218324,0.163743,444.000000,427.000000,17.000000,28.000000,0.000000,0.000000,0.000000,0.000000,0.000000,0.494570,0.555556,0.132554,0.218324,0.163743,444.000000,427.000000,17.000000,28.000000,0.000000,0.000000,0.000000,0.000000,0.000000;
#CREDIT:ZSL;
#NOTES:
0000
0000
0000
0000
,
0000
0000
0000
0000
,
0000
0000
0000
0000
,
0000
0000
0000
0000
,
0000
0000
0000
0000
,
1001
0000
1000
0002
0000
0003
2000
0010
,
0000
0001
0000
0100
0000
3020
0000
0130
,
0001
0000
0000
0100
0000
0010
0000
0220
,
0000
0000
0330
0000
,
2000
0000
3001
0010
0000
0100
1000
0100
,
0010
0000
0000
0001
0000
0000
1000
0000
0001
0000
1000
0000
0010
0000
0000
0000
,
0200
0000
0301
0100
0000
0010
1000
0001
,
0010
0000
0000
0100
0000
0000
0010
0000
0100
0000
1000
0000
0010
0000
0000
0000
,
2000
0000
3001
0100
0000
0010
1000
0010
,
0100
0000
0000
0001
0000
0000
1000
0000
0001
0000
1000
0000
0100
0000
0000
0000
,
0020
0000
0031
0010
0000
0100
1000
0001
,
0100
0000
0000
0010
0000
0000
0100
0000
0010
0000
1000
0000
0100
0000
0000
0000
,
0000
0000
0000
0000
,
1000
0000
0000
0000
0001
0000
0000
0100
0000
0001
0000
0000
0100
0000
0010
0000
,
1000
0000
0001
0000
0010
0100
0010
0001
,
1000
0000
0000
0000
0010
0000
0000
0100
0000
0010
0000
0000
1000
0000
0001
0000
,
0010
0000
0100
0000
1000
0001
0100
0000
,
0001
0000
0000
0000
1000
0000
0000
0100
0000
1000
0000
0000
0100
0000
0010
0000
,
0001
0000
1000
0000
0010
0100
0010
1000
,
0001
0000
0000
0000
0010
0000
0000
0100
0000
0010
0000
0000
0001
0000
1000
0000
,
0010
0000
0100
0000
0001
0001
1000
0000
,
0100
0000
0010
0100
1000
0000
1100
0000
,
0001
0000
0010
0000
0100
0000
0000
1000
0000
0000
0001
0000
0100
0000
0010
0000
,
0100
0000
0010
0100
0001
0000
0101
0000
,
1000
0000
0010
0000
0100
0000
0000
0001
0000
0000
1000
0000
0100
0000
1000
0000
,
0001
0000
0100
0010
1000
0000
1010
0000
,
0001
0000
0100
0000
0010
0000
0000
1000
0000
0000
0001
0000
0010
0000
0100
0000
,
1000
0000
0000
0000
0100
0000
0000
0010
0000
0000
0100
0000
1000
0000
0000
0000
,
0001
0000
1000
0000
0001
0000
1000
0020
0000
0000
0000
0000
0030
0000
0000
0000
,
0100
0000
0000
0001
0000
0000
0000
0000
,
1000
0000
0000
0100
0000
0000
0000
0000
,
0010
0000
0000
0001
0000
0000
0000
0000
,
1000
0000
0000
0010
0000
0000
1000
0000
,
0100
0000
0000
1000
0000
0000
0000
0000
,
0001
0000
0000
0100
0000
0000
0000
0000
,
0010
0000
0000
1000
0000
0000
0000
0000
,
0001
0000
0000
0010
0000
0000
0100
0000
,
1000
0000
0000
0001
0000
0000
1000
0000
0000
0000
0000
0000
0100
0000
0000
0000
,
0010
0000
0000
0001
0000
0000
0010
0000
0000
0000
0001
0000
0000
0000
0000
0000
,
1000
0000
0000
0010
0000
0000
1000
0000
0000
0000
0000
0000
0001
0000
0000
0000
,
0100
0000
0000
0010
0000
0000
1000
0000
0000
0000
0001
0000
1000
0000
0000
0000
,
1001
0000
0110
0000
,
1001
0000
0000
1000
0000
0000
0001
0000
0000
0000
0010
0000
0100
0000
0000
0000
,
1000
0000
0100
0010
0001
0000
1000
0000
,
0001
0000
0100
0010
1000
0000
0001
0000
,
0010
0100
1000
0000
0010
0100
0001
1000
,
0000
0000
0000
0000
,
0010
0000
0000
1000
0000
0000
0001
0000
0000
0000
1000
0000
0100
0000
0010
0000
,
0100
0000
0000
1000
0000
0000
0001
0000
0000
0000
0101
0000
0000
0000
0000
0000
,
0100
0000
0000
0001
0000
0000
1000
0000
0000
0000
0100
0000
1000
0000
0001
0000
,
0100
0001
0000
0100
0000
0000
0020
0000
0000
0000
1030
0000
0100
0000
0000
0000
,
0010
0000
0000
0100
0000
0000
1000
0000
0000
0000
0001
0000
0100
0000
0010
0000
,
1000
0000
0000
0010
0000
0000
0100
0000
0000
0000
0010
0000
1000
0000
0001
0000
,
0010
0000
0100
0010
0001
0000
0101
0000
,
0100
0000
0010
0000
0100
0000
0010
1000
0000
0000
1000
0000
0001
0000
0000
0000
,
0010
0000
0000
0001
0000
0000
1000
0000
0000
0000
0001
0000
0100
0000
0010
0000
,
0100
0000
0000
0001
0000
0000
1000
0000
0000
0000
1100
0000
0000
0000
0000
0000
,
0100
0000
0000
1000
0000
0000
0001
0000
0000
0000
0100
0000
0001
0000
1000
0000
,
0100
1000
0000
0100
0000
0000
0020
0000
0000
0000
0031
0000
0100
0000
0000
0000
,
0010
0000
0000
0100
0000
0000
0001
0000
0000
0000
1000
0000
0100
0000
0010
0000
,
0001
0000
0000
0010
0000
0000
0100
0000
0000
0000
0010
0000
0001
0000
1000
0000
,
0010
0000
0100
0010
1000
0000
1100
0000
,
0100
0000
0010
0000
0100
0000
0010
0001
0000
0000
0001
0000
1000
0000
0000
0000
,
0020
0000
0130
0002
0000
0000
1003
0200
,
0000
0010
0000
1000
0000
0310
0001
0000
,
1000
0000
0001
0100
0000
0001
1000
0000
,
0100
1000
0001
1000
0000
0000
0001
0000
,
0020
0000
0130
2000
0000
0000
3001
0200
,
0000
0010
0000
0001
0000
0310
1000
0000
,
0001
0000
1000
0100
0000
1000
0001
0000
,
0100
0001
1000
0001
0000
0000
0010
0000
,
0200
0000
1300
0020
0000
0000
0130
0002
,
0000
1000
0000
0100
0000
0010
0000
0203
,
0000
0301
0100
0010
2000
0000
3010
0000
,
1000
0001
0010
0100
0000
0000
1000
0000
,
0001
0000
0101
1010
,
1001
0000
1100
0011
,
1000
0000
0010
0100
0001
0000
1000
0000
,
0000
0000
0000
0000
,
0002
0000
1003
0010
0000
0100
0001
0100
,
0010
0000
0000
1000
0000
0000
0001
0000
1000
0000
0001
0000
0010
0000
0000
0000
,
0200
0000
1300
0100
0000
0010
0001
1000
,
0010
0000
0000
0100
0000
0000
0010
0000
0100
0000
0001
0000
0010
0000
0000
0000
,
0002
0000
1003
0100
0000
0010
0001
0010
,
0100
0000
0000
1000
0000
0000
0001
0000
1000
0000
0001
0000
0100
0000
0000
0000
,
0020
0000
1030
0010
0000
0100
0001
1000
,
0100
0000
0000
0010
0000
0000
0100
0000
0010
0000
0001
0000
0100
0000
0000
0000
,
0001
1000
0100
0000
1000
0001
0100
0020
,
0000
0000
0000
0000
,
0000
0000
0000
0000
,
0030
0000
0000
0000
;

//---------------dance-single - ----------------
#NOTEDATA:;
#CHARTNAME:;
#CHARTHASH:2303648611;
#STEPSTYPE:dance-single;
#BANNER:;
#DESCRIPTION:;
#CHARTSTYLE:;
#DIFFICULTY:Hard;
#METER:14;
#METERF:0.000000;
#LASTSECONDHINT:125.032730;
#RADARVALUES:0.646060,0.703704,0.116959,0.288499,0.265107,580.000000,565.000000,15.000000,37.000000,0.000000,0.000000,0.000000,0.000000,0.000000,0.646060,0.703704,0.116959,0.288499,0.265107,580.000000,565.000000,15.000000,37.000000,0.000000,0.000000,0.000000,0.000000,0.000000;
#CREDIT:ZSL;
#NOTES:
0000
0000
0000
0000
,
0000
0000
0000
0000
,
0000
0000
0000
0000
,
0000
0000
0000
0000
,
0000
0000
0000
0000
,
1001
0000
0001
2000
0000
3100
1000
0100
,
0010
0001
0010
0100
0010
2000
0000
3010
,
0100
0000
1000
0001
0000
0110
0000
2002
,
0000
0000
3003
0000
,
2000
0000
0000
0000
3010
0000
1000
0000
0010
0100
0010
0000
0100
0000
0001
0000
,
1000
0000
0000
0100
0000
0000
0010
0000
0001
0000
1000
0000
0010
0000
0100
0000
,
0020
0000
0000
0000
1030
0000
0001
0000
1000
0100
1000
0000
0001
0000
0100
0000
,
0010
0000
0000
0100
0000
0000
0001
0000
1000
0000
0010
0000
0001
0000
0010
0000
,
2000
0000
0000
0000
3100
0000
1000
0000
0100
0010
0100
0000
0010
0000
0001
0000
,
1000
0000
0000
0010
0000
0000
0100
0000
0001
0000
1000
0000
0100
0000
0010
0000
,
0200
0000
0000
0000
1300
0000
0001
0000
1000
0010
1000
0000
0001
0000
0010
0000
,
0100
0000
0000
0010
0000
0000
0001
0000
1000
0000
0100
0000
0010
0000
0000
0000
,
0000
0000
0000
0000
,
0001
0000
1000
0000
0010
1000
0000
0010
0000
1000
0010
0000
0100
0000
0001
0000
,
1000
0000
0100
0000
0010
0100
0000
0010
0001
0000
1000
0000
0001
0000
0100
0000
,
0010
0000
1000
0000
0001
1000
0000
0001
0000
1000
0100
0000
0010
0000
0001
0000
,
0100
0000
0010
0000
0110
0100
0010
0000
,
1000
0000
0001
0000
0010
0001
0000
0010
0000
0001
0010
0000
0100
0000
1000
0000
,
0001
0000
0100
0000
0010
0100
0000
0010
1000
0000
0001
0000
1000
0000
0100
0000
,
0010
0000
0001
0000
1000
0001
0000
1000
0000
0001
0100
0000
0010
0000
1000
0000
,
0100
0000
0000
0000
0010
0000
0000
0000
0001
1000
0001
0000
1000
0000
0000
0000
,
0001
0100
0001
1000
0100
1000
0010
0100
,
0001
0000
1000
0000
0100
0000
1000
0001
0000
1000
0100
0000
0010
0000
0100
0000
,
1000
0100
1000
0001
0100
0001
0010
0100
,
1000
0000
0001
0000
0100
0000
0001
1000
0000
0001
0100
0000
1000
0000
0100
0000
,
0001
0010
0001
1000
0010
1000
0100
0010
,
0001
0000
1000
0000
0010
0000
1000
0001
0000
1000
0010
0000
0100
0000
0010
0000
,
1000
0000
0000
0000
0001
0000
0100
0001
0000
0100
0001
0000
1000
0000
0100
0000
,
1100
0000
1000
0000
0100
0000
0010
0200
0000
0000
0000
0000
0300
0000
0000
0000
,
1000
0000
0000
0001
0000
0000
0000
1000
,
0010
0000
0000
0100
0000
0000
0000
0001
,
0100
0000
0000
0001
0000
0000
0000
0010
,
0100
0000
0000
1000
0000
0000
0100
0000
,
0010
0000
0000
0001
0000
0000
0000
1000
,
0010
0000
0000
1000
0000
0000
0000
0001
,
0010
0000
0000
0001
0000
0000
0000
0100
,
0010
0000
0000
1000
0000
0000
0001
0000
,
0010
0000
0000
0001
0000
0000
1000
0000
0000
0000
0001
0000
0100
0000
0010
0000
,
1000
0000
0000
0100
0000
0000
0010
0000
0000
0000
0100
0000
0000
0000
1000
0000
,
0001
0000
0000
1000
0000
0000
0010
0000
0000
0000
0100
0000
0001
0000
1000
0000
,
0100
0000
0000
0010
0000
0000
0001
0000
0000
0000
1000
0000
0001
0000
0000
0000
,
0100
0000
0000
0001
0000
0000
0100
0000
0010
0000
1000
0000
0001
0000
0010
0000
,
0100
0000
0000
0010
0000
0000
0001
0000
0000
0000
1000
0000
0001
0000
0000
0000
,
0100
0010
0100
0001
1000
0001
0010
0000
,
0100
0010
0100
1000
0001
1000
0010
0000
,
0100
0001
1000
0100
0010
0001
1000
0010
,
0000
0000
0000
0000
,
0200
0000
0000
0310
1000
0000
0001
0000
1000
0000
0100
0000
0010
0000
0100
0000
,
1000
0000
0001
0100
0000
0000
0001
0000
1000
0000
0100
0010
0000
0000
0010
0000
,
0002
0000
0000
1003
0010
0000
0100
0000
0020
0000
0000
0000
0130
0000
0001
0000
,
1000
0100
0000
0010
0100
0000
0002
0000
0000
0000
0103
0000
1000
0000
0000
0000
,
0020
0000
0000
0130
0001
0000
1000
0000
0001
0000
0010
0000
0100
0000
1000
0000
,
0010
0000
0100
0001
0000
0000
0100
0000
0010
1000
0010
0000
1000
0000
0001
0000
,
0010
0100
1000
0010
0100
0001
1000
0100
,
0110
0000
0010
0000
0001
0000
1000
0010
0000
0000
1000
0000
0001
0000
1000
0000
,
0200
0000
0000
0310
0001
0000
1000
0000
0001
0000
0100
0000
0010
0000
0100
0000
,
0001
0000
1000
0100
0000
0000
1000
0000
0001
0000
0100
0010
0000
0000
0010
0000
,
2000
0000
0000
3001
0010
0000
0100
0000
0020
0000
0000
0000
0130
0000
1000
0000
,
0001
0100
0000
0010
0100
0000
2000
0000
0000
0000
3100
0000
0001
0000
0000
0000
,
0020
0000
0000
0130
1000
0000
0001
0000
1000
0000
0010
0000
0100
0000
0001
0000
,
0010
0000
0100
1000
0000
0000
0100
0000
0010
0001
0010
0000
0001
0000
1000
0000
,
0010
0100
0001
0010
0100
1000
0001
0100
,
0110
0000
0010
0000
1000
0000
0001
0010
0000
0000
0010
0000
0100
0000
1000
0000
,
0020
0000
1030
0002
0000
0000
0023
1000
,
0000
0001
0000
1000
0000
0031
1000
0010
,
0100
0000
0010
1000
0000
1000
0001
0000
,
0010
0100
1000
0001
1000
0010
0100
0001
,
0020
0000
0031
2000
0000
0000
3020
0001
,
0000
1000
0000
0001
0000
1030
0001
0010
,
0100
0000
0010
0001
0000
0001
1000
0000
,
0010
0100
0001
1000
0001
0010
0100
1000
,
0002
0000
0013
0002
0000
0000
0203
1000
,
0000
0001
0000
2300
0000
0001
0000
3002
,
0000
0013
1000
0100
0020
0000
1030
0001
,
0100
0010
0001
1000
0010
0100
0001
0010
,
0100
0000
0000
0000
0110
0100
0010
0001
,
1001
0000
0000
0000
1010
1000
0001
0010
,
0100
0010
0001
0100
0010
1000
0001
1000
,
0000
0000
0000
0000
,
0002
0000
0000
0000
0013
0000
0001
0000
0010
0100
0010
0000
0100
0000
1000
0000
,
0001
0000
0000
0100
0000
0000
0010
0000
1000
0000
0001
0000
0010
0000
0100
0000
,
0020
0000
0000
0000
0031
0000
1000
0000
0001
0100
0001
0000
1000
0000
0100
0000
,
0010
0000
0000
0100
0000
0000
1000
0000
0001
0000
0010
0000
1000
0000
0010
0000
,
0002
0000
0000
0000
0103
0000
0001
0000
0100
0010
0100
0000
0010
0000
1000
0000
,
0001
0000
0000
0010
0000
0000
0100
0000
1000
0000
0001
0000
0100
0000
0010
0000
,
0200
0000
0000
0000
0301
0000
1000
0000
0001
0010
0001
0000
1000
0000
0010
0000
,
0110
0000
0000
0101
0000
0000
1000
0000
0001
0000
0100
0000
0010
0000
0000
0000
,
1010
1000
0100
0000
0011
0001
0100
0220
,
0000
0000
0000
0000
,
0000
0000
0000
0000
,
0330
0000
0000
0000
;

//---------------dance-single - ----------------
#NOTEDATA:;
#CHARTNAME:;
#CHARTHASH:2184682611;
#STEPSTYPE:dance-single;
#BANNER:;
#DESCRIPTION:;
#CHARTSTYLE:;
#DIFFICULTY:Challenge;
#METER:16;
#METERF:0.000000;
#LASTSECONDHINT:125.032730;
#RADARVALUES:0.802005,0.888889,0.304094,0.397661,0.538012,720.000000,681.000000,39.000000,51.000000,0.000000,0.000000,0.000000,0.000000,0.000000,0.802005,0.888889,0.304094,0.397661,0.538012,720.000000,681.000000,39.000000,51.000000,0.000000,0.000000,0.000000,0.000000,0.000000;
#CREDIT:ZSL;
#NOTES:
0000
0000
0000
0000
,
0000
0000
0000
0000
,
0000
0000
0000
0000
,
0000
0000
0000
0000
,
0000
0000
0000
0000
,
1002
0000
0000
0000
1003
0001
0200
0000
0000
0000
0310
0000
1000
0000
0100
0000
,
0010
0100
0010
0000
0100
0000
1000
0000
0001
0000
0100
0000
0010
0000
0100
0000
,
0101
0000
0001
1001
0000
1100
0000
0220
,
0000
0000
0330
0000
,
0020
0000
0000
0000
0031
1000
0010
0000
0100
0010
0100
0000
0001
0000
1000
0000
,
0100
0000
0010
0001
0000
0010
0001
0000
1000
0000
1000
0000
0010
0000
0100
0000
,
0002
0000
0000
0000
1003
0100
0010
0000
0100
1000
0100
0000
0010
0000
0001
0000
,
1000
0010
1000
0010
1000
0000
0001
0000
0020
0000
0001
0000
0130
0000
1000
0000
,
0020
0000
0000
0000
1030
0001
0010
0000
0100
0010
0100
0000
1000
0000
0001
0000
,
0100
0000
0010
1000
0000
0010
1000
0000
0001
0000
0001
0000
0010
0000
0100
0000
,
2000
0000
0000
0000
3001
0100
0010
0000
0100
0001
0100
0000
0010
0000
1000
0000
,
1001
0000
0000
0011
0000
0000
0010
0000
0110
0000
1000
0000
1001
0000
0000
0000
,
0000
0000
0000
0000
,
1000
0000
0010
0000
0100
0001
0100
0001
0000
0001
0100
0000
0010
0000
1000
0000
,
0100
0000
1000
0000
0001
0010
0001
0010
0100
0000
1000
0000
0001
0000
0100
0000
,
0010
0000
1000
0000
0001
0100
0001
0100
0000
0100
0010
0000
1000
0000
0001
0000
,
0010
0000
0100
1000
0010
0000
0100
0000
0101
0000
0001
0000
1001
0000
0000
0000
,
0001
0000
0010
0000
0100
1000
0100
1000
0000
1000
0100
0000
0010
0000
0001
0000
,
0100
0000
0001
0000
1000
0010
1000
0010
0100
0000
0001
0000
1000
0000
0100
0000
,
0010
0000
0001
0000
1000
0100
1000
0100
0000
0100
0010
0000
0001
0000
1000
0000
,
0010
0000
0000
0000
0100
0000
0000
0000
0010
0100
0010
0000
0110
0000
0000
0000
,
0002
0010
1003
0200
0010
1300
0010
0010
,
1000
0001
1000
0001
0010
0000
0001
0100
0000
0001
0100
0010
0100
0000
0001
0000
,
2000
0010
3001
0200
0010
0301
0010
0010
,
0001
1000
0001
1000
0010
0000
1000
0100
0000
1000
0100
0010
0001
0000
1000
0000
,
0002
0100
1003
0020
0100
1030
0100
0100
,
1000
0001
1000
0001
0100
0000
0001
0010
0000
0001
0010
0100
0010
0001
0010
0001
,
1000
0000
0000
0000
0001
0000
0001
0100
0000
0100
0010
0000
1000
0000
0001
0000
,
1001
0000
1000
0000
1100
0000
0100
0020
0000
0000
0000
0000
0030
0000
0000
0000
,
0001
0000
0000
0000
0000
0000
1000
0000
0000
0000
0000
0000
0000
0000
0010
1000
,
0010
0000
0000
0000
0000
0000
0100
0000
0000
0000
0000
0000
0000
0000
0001
0100
,
0001
0000
0000
0000
0000
0000
1000
0000
0000
0000
0000
0000
0000
0000
0100
0010
,
0100
0000
0000
0010
0000
0000
0001
0000
,
1000
0000
0000
0000
0000
0000
0001
0000
0000
0000
0000
0000
0000
0000
0010
0001
,
0010
0000
0000
0000
0000
0000
0100
0000
0000
0000
0000
0000
0000
0000
1000
0100
,
1000
0000
0000
0000
0000
0000
0001
0000
0000
0000
0000
0000
0000
0000
0100
0010
,
0100
0000
0000
0010
0000
0000
1000
0000
,
0001
0000
0010
0100
0000
0000
0010
0000
0000
0000
0001
0000
1000
0000
0010
0000
,
0100
0000
0001
0100
0000
0000
0001
0000
1000
0000
0100
0000
1000
0000
0001
0000
,
0100
0000
0010
1000
0000
0000
0001
0000
0000
0000
0010
0000
0100
0000
1000
0000
,
0010
0000
1000
0001
0000
0000
0010
0000
0100
1000
0100
0000
0010
0000
0000
0000
,
0110
0000
0000
0100
0000
0000
1000
0000
1001
0000
0001
0000
0100
0000
0010
0000
,
1010
0000
0000
0100
0000
0000
1001
0000
0000
0000
0001
0000
0110
0000
0000
0000
,
2000
0100
3001
2000
0100
3001
1000
1000
,
0002
0100
1003
0002
0100
1003
0001
0001
,
0010
0100
0010
0000
0100
0010
0100
0000
1000
0001
1000
0000
0001
0100
0010
1000
,
0000
0000
0000
0000
,
0002
0000
0000
1003
0100
0000
0010
0000
0100
1000
0100
0000
1000
0000
0001
0000
,
0100
0000
0010
1000
0000
0010
0100
0000
0001
0100
0010
1000
0001
0000
1000
0000
,
0200
0000
0000
1300
0001
0000
0100
0000
0001
1000
0100
0000
0010
0000
0001
0000
,
1000
0010
1000
0001
0010
0001
0200
0000
0000
0000
0310
0000
0101
0000
0000
0000
,
2000
0000
0000
3100
0010
0000
0100
0000
1000
0001
1000
0000
0010
0000
0100
0000
,
0001
0000
1000
0100
0000
1000
0001
0000
0010
0001
0100
0010
1000
0000
0001
0000
,
0200
0010
0301
0020
0100
0031
0100
0100
,
1010
0000
0010
0000
1001
0000
1000
0100
0000
0000
0010
0000
0001
1000
0001
0000
,
2000
0000
0000
3001
0100
0000
0010
0000
0100
0001
0100
0000
0001
0000
1000
0000
,
0100
0000
0010
0001
0000
0010
0100
0000
1000
0100
0010
0001
1000
0000
0001
0000
,
0200
0000
0000
0301
1000
0000
0100
0000
1000
0001
0100
0000
0010
0000
1000
0000
,
0001
0010
0001
1000
0010
1000
0200
0000
0000
0000
0310
0000
1100
0000
0000
0000
,
0002
0000
0000
0103
0010
0000
0100
0000
0001
1000
0001
0000
0010
0000
0100
0000
,
1000
0000
0001
0100
0000
0001
1000
0000
0010
1000
0100
0010
0001
0000
1000
0000
,
0200
0010
1300
0020
0100
1030
0100
0100
,
0011
0000
0010
0000
1001
0000
0001
0100
0000
0000
0010
0000
0100
0010
1000
0001
,
0020
0000
0031
2000
0000
0000
3010
0100
,
0010
1000
0010
0100
0010
1000
0001
0010
,
0200
0000
0000
0000
0310
0001
1000
0000
0000
0000
0001
0000
0100
0000
0001
0000
,
1000
0000
0010
0000
0100
0000
0010
1000
0001
0010
0100
0000
0010
0000
0001
0100
,
0020
0000
1030
0002
0000
0000
0013
0100
,
0010
0001
0010
0100
0010
0001
1000
0010
,
0200
0000
0000
0000
0310
1000
0001
0000
0000
0000
1000
0000
0100
0000
1000
0000
,
0001
0000
0010
0000
0100
0000
0010
0001
1000
0010
0100
0000
0010
0000
1000
0100
,
0020
0000
0031
0200
0000
0000
0301
0010
,
0001
0100
0001
0010
0001
1000
0001
0100
,
0010
1000
0100
0010
0002
0000
0103
0010
,
1000
0000
0001
0000
1000
0000
0100
0010
0001
1000
0010
0000
0100
0000
0001
1000
,
0200
0000
0000
0310
0110
0100
1100
1000
,
1001
0000
0000
0000
1010
1000
1001
0001
,
0020
0100
0031
0200
0010
0301
1000
1000
,
0000
0000
0000
0000
,
0200
0000
0000
0000
1300
0001
0100
0000
0010
0100
0010
0000
1000
0000
0001
0000
,
0010
0000
0100
1000
0000
0100
1000
0000
0001
0000
0001
0000
0100
0000
0010
0000
,
2000
0000
0000
0000
3001
0010
0100
0000
0010
0001
0010
0000
0100
0000
1000
0000
,
0001
0100
0001
0100
0001
0000
1000
0000
0200
0000
1000
0000
0310
0000
0001
0000
,
0200
0000
0000
0000
0301
1000
0100
0000
0010
0100
0010
0000
0001
0000
1000
0000
,
0010
0000
0100
0001
0000
0100
0001
0000
1000
0000
1000
0000
0100
0000
0010
0000
,
0002
0000
0000
0000
1003
0010
0100
0000
0010
1000
0010
0000
0100
0000
0001
0000
,
1001
0000
0000
1100
0000
0000
0100
0000
0110
0000
0001
0000
1001
0000
0000
0000
,
0101
1000
1100
0000
1100
0001
0101
0220
,
0000
0000
0000
0000
,
0000
0000
0000
0000
,
0330
0000
0000
0000
;
