#VERSION:0.83;
#TITLE:ストレイソウル・アラウンド;
#SUBTITLE:;
#ARTIST:みーに;
#TITLETRANSLIT:Stray soul around;
#SUBTITLETRANSLIT:;
#ARTISTTRANSLIT:Mini;
#GENRE:;
#CREDIT:;
#MUSIC:Stray soul around.ogg;
#BANNER:Stray soul around.png;
#BACKGROUND:Stray soul around-bg.png;
#CDTITLE:;
#SAMPLESTART:65.625;
#SAMPLELENGTH:15.000;
#SELECTABLE:YES;
#OFFSET:-0.034;
#BPMS:0.000=150.000
,100.000=75.000
,108.000=150.000
,284.000=75.000
,292.000=150.000
;
#STOPS:;
#SPEEDS:0.000=1.000=0.000=0;
#SCROLLS:0.000=1.000;
#TICKCOUNTS:0.000=4;
#TIMESIGNATURES:0.000=4=4;
#LABELS:0.000=Song Start;
#COMBOS:0.000=1;
#ORIGIN:;
#TAGS:;
#PREVIEWVID:;
#JACKET:Stray soul around-jacket.png;
#CDIMAGE:;
#DISCIMAGE:;
#BGCHANGES:;
#FGCHANGES:;

//--------------- dance-single - ----------------
#NOTEDATA:;
#STEPSTYPE:dance-single;
#DESCRIPTION:;
#DIFFICULTY:Beginner;
#METER:3;
#RADARVALUES:0.099518,0.144195,0,0.037453,0.014981,93,93,0,5,0,0,0,0,0,0.099518,0.144195,0,0.037453,0.014981,93,93,0,5,0,0,0,0,0;
#CHARTNAME:;
#CHARTHASH:1964422882;
#BANNER:;
#CHARTSTYLE:;
#METERF:0.000000;
#LASTSECONDHINT:129.634003;
#CREDIT:ZSL;
#NOTES:
0000
0000
0000
0000
,
0000
0000
0000
0000
,
0000
0000
0000
0000
,
0000
0000
0000
0000
,
0000
0000
0000
0000
,
1000
0000
1000
0000
,
0000
0000
0000
0000
,
0001
0000
0001
0000
,
0000
0000
0000
0000
,
0010
0000
0000
0000
,
0100
0000
0000
0000
,
1000
0000
0000
0000
,
0001
0000
0000
0000
,
0100
0000
0100
0000
,
0010
0000
0000
0000
,
1000
0000
1000
0000
,
0000
0000
0000
0000
,
0100
0000
0010
0000
,
0100
0000
1000
0000
,
0001
0000
0100
0000
,
0010
0000
0000
0000
,
0100
0000
0001
0000
,
1000
0000
0100
0000
,
0010
0000
0001
0000
,
1000
0000
0000
0000
,
0002
0003
0000
0000
0000
0000
0000
0000
0000
0000
0000
0000
0000
0000
0000
0000
0001
0000
0000
0000
0000
0000
0000
0000
0000
0000
0000
0000
0000
0000
0000
0000
,
1000
0000
1000
0000
,
0020
0030
0000
0000
0000
0000
0000
0000
0010
0000
0000
0000
0000
0000
0000
0000
,
0100
0000
0000
0000
,
0001
0000
0001
0000
,
1000
0000
0000
0000
,
0100
0000
0000
0000
,
0000
0000
0000
0000
,
0010
0000
0000
0000
,
0000
0000
0000
0000
,
0100
0000
1000
0000
,
0001
0000
0000
0000
,
0100
0000
0010
0000
,
0000
0000
0000
0000
,
1000
0000
0010
0000
,
0000
0000
0000
0000
,
1000
0000
0001
0000
,
0000
0000
0000
0000
,
0010
0000
0001
0000
,
0000
0000
0000
0000
,
0010
0000
0100
0000
,
0000
0000
0000
0000
,
1000
0000
0001
0000
,
1000
0000
0000
0000
,
0001
0000
0100
0000
,
0000
0000
0000
0000
,
0010
0000
1000
0000
,
0010
0000
0000
0000
,
0100
0000
0001
0000
,
0000
0000
0000
0000
,
1000
0000
0000
0000
,
0100
0000
0000
0000
,
1000
0000
0000
0000
,
0001
0000
0000
0000
,
0100
0000
0001
0000
,
0100
0000
0000
0000
,
0010
0000
0100
0000
,
0000
0000
0000
0000
,
0000
0001
0000
0000
,
0000
0000
0000
1000
,
1000
0000
0001
0000
,
0010
0000
0000
0000
,
0100
0000
1000
0000
,
0001
0000
0000
0000
,
0100
0000
0010
0000
,
1000
0000
0000
0000
,
0002
0003
0000
0000
0000
0000
0000
0000
0000
0000
0000
0000
0000
0000
0000
0000
0001
0000
0000
0000
0000
0000
0000
0000
0000
0000
0000
0000
0000
0000
0000
0000
,
1000
0000
1000
0000
,
0200
0300
0000
0000
0000
0000
0000
0000
0100
0000
0000
0000
0000
0000
0000
0000
,
0010
0000
0000
0000
,
0001
0000
0001
0000
,
0000
0000
0100
0200
,
0300
0000
0000
0000
;

//--------------- dance-single - ----------------
#NOTEDATA:;
#STEPSTYPE:dance-single;
#DESCRIPTION:;
#DIFFICULTY:Easy;
#METER:7;
#RADARVALUES:0.260032,0.374906,0.149813,0.127341,0.044944,243,223,20,17,0,0,0,0,0,0.260032,0.374906,0.149813,0.127341,0.044944,243,223,20,17,0,0,0,0,0;
#CHARTNAME:;
#CHARTHASH:827057328;
#BANNER:;
#CHARTSTYLE:;
#METERF:0.000000;
#LASTSECONDHINT:129.634003;
#CREDIT:ZSL;
#NOTES:
0000
0000
0000
0000
,
0000
0000
0000
0000
,
0000
0000
0000
0000
,
0000
0000
0000
0000
,
0000
0000
0000
0000
,
1000
0000
0001
0000
0010
0000
0000
0001
,
0000
1000
0000
0010
,
0100
0000
0000
0000
0001
0000
0000
0000
1000
0000
0000
0000
0100
0000
0000
2000
,
0000
0000
3001
0000
,
1001
0000
1000
0000
,
0010
0000
0100
0000
,
0010
0000
1000
0000
,
0100
0010
0100
0000
,
0110
0010
0001
0000
,
0100
0010
1000
0000
,
0001
0000
0000
0000
0010
0000
0000
0000
0100
0000
0000
0000
1000
0000
0000
0002
,
0000
0000
1003
0000
,
0010
0100
1000
0100
,
0010
0100
0001
0010
,
0100
0001
0100
1000
,
0010
0000
0000
0110
0000
0000
0100
0000
,
0001
0010
0100
0001
,
0100
1000
0010
0001
,
0010
1000
0001
1000
,
0100
0000
0000
1100
0000
0000
1000
0000
,
0002
0003
0000
0000
0000
0000
0000
0000
0100
0000
0000
0000
0000
0000
0000
0000
0010
0000
0000
0000
0000
0000
0000
0000
1000
0000
0000
0000
0000
0000
0000
0000
,
1100
0000
0000
0000
0001
0000
0000
0000
1001
0000
0000
2000
0000
0000
3000
0000
,
0020
0030
0000
0000
1000
0000
0000
0000
0001
0000
0000
0000
0000
0000
0000
0000
,
0010
0010
0100
0000
,
0010
0001
1000
0010
,
0100
0000
0000
0110
0000
0000
0000
0000
,
0001
0000
0000
0000
0000
0000
0000
1000
,
0000
0000
0000
0000
,
0100
0000
0000
0000
0000
0000
0000
0110
,
0000
0000
0000
0000
,
0010
0001
1000
0000
,
0010
0100
0001
0000
,
1000
0000
0100
0000
0010
0000
0000
0011
,
0000
0000
0001
0000
,
1000
0000
0010
0000
1000
0000
0000
0001
,
0000
0010
0000
0100
,
1000
0000
0001
0000
0100
0000
0000
0110
,
0000
0000
0000
1010
0000
0000
0000
0000
,
1000
0000
0001
0000
0010
0000
0000
0100
,
0000
0010
0000
0001
,
0100
0000
0000
0000
0010
0000
0000
0000
1000
0000
0000
0000
0100
0000
0000
0020
,
0000
0000
0130
0000
,
1000
0010
0100
0010
,
0001
0000
0010
0000
,
1000
0001
0010
0100
,
0000
0100
1000
0000
,
0001
0010
0100
0010
,
1000
0000
0010
0001
,
0100
0000
0000
0000
0001
0000
0000
0000
0010
0000
0000
0000
0100
0000
0000
2000
,
0000
0000
3001
0000
,
0101
0000
0100
0000
,
0010
0000
1000
0000
,
0100
0000
0010
0000
,
0001
1000
0010
0000
,
0110
0100
0001
0000
,
0010
0100
1000
0000
,
0001
0000
0000
0000
0100
0000
0000
0000
0010
0000
0000
0000
1000
0000
0000
0200
,
0000
0000
0310
0000
,
0100
2100
0000
3002
,
0000
0203
0000
0310
,
1010
1000
0001
0010
,
0110
0000
0000
1100
0000
0000
1000
0000
,
0010
0001
0010
1000
,
0100
0001
0100
1000
,
0010
0100
0001
1000
,
1001
0000
0000
0110
0000
0000
0001
0000
,
2000
3000
0000
0000
0000
0000
0000
0000
0100
0000
0000
0000
0000
0000
0000
0000
0010
0000
0000
0000
0000
0000
0000
0000
0001
0000
0000
0000
0000
0000
0000
0000
,
0101
0000
0000
0000
1000
0000
0000
0000
1001
0000
0000
0002
0000
0000
0003
0000
,
0020
0030
0000
0000
0100
0000
0000
0000
1000
0000
0000
0000
0001
0000
0000
0000
,
0100
0010
0100
0001
,
0010
0000
0000
0000
1000
0000
0000
0000
0010
0000
0000
0000
0001
0000
0000
0200
,
0000
0000
0310
0220
,
0330
0000
0000
0000
;

//--------------- dance-single - ----------------
#NOTEDATA:;
#STEPSTYPE:dance-single;
#DESCRIPTION:;
#DIFFICULTY:Medium;
#METER:12;
#RADARVALUES:0.504013,0.663296,0.2397,0.247191,0.269663,471,439,32,33,0,0,0,0,0,0.504013,0.663296,0.2397,0.247191,0.269663,471,439,32,33,0,0,0,0,0;
#CHARTNAME:;
#CHARTHASH:48082762;
#BANNER:;
#CHARTSTYLE:;
#METERF:0.000000;
#LASTSECONDHINT:129.634003;
#CREDIT:ZSL;
#NOTES:
0000
0000
0000
0000
,
0000
0000
0000
0000
,
0000
0000
0000
0000
,
0000
0000
0000
0000
0000
0000
0000
0010
,
0000
0100
0000
2001
0000
0000
3001
0000
,
0010
0000
0100
0000
1000
0000
0000
0000
0100
0000
0000
0010
0000
0000
0001
0000
,
0000
0000
1000
0000
0010
0000
0000
0100
0000
0000
0010
0000
1000
0000
0001
0000
,
0010
0000
0001
0000
1000
0000
0010
0000
0100
0000
0001
0000
0010
0100
0000
2000
,
0000
0000
0000
0000
3001
1000
0001
0000
,
0100
0000
0000
0100
0000
0000
0001
0000
0000
0001
0000
0000
1000
0000
0000
1000
,
0000
0000
0100
0000
0000
0100
0000
0000
0020
0000
0000
0000
0030
0000
0000
0000
,
0100
0000
0000
0100
0000
0000
1000
0000
0000
1000
0000
0000
0010
0000
0000
0010
,
0100
0001
1000
0100
0010
0000
1100
0000
,
1000
0001
0100
0000
0010
0000
0100
0001
,
1000
0000
0100
0010
0100
0000
1000
0001
,
0100
0000
0010
0000
1000
0000
0001
0000
0010
0000
0001
0000
0100
0010
0000
2000
,
0000
0000
0000
0000
3001
1000
0100
0000
,
0110
0000
0010
0001
1000
0010
1000
0001
,
0100
0010
0001
0010
0100
0001
1000
0000
,
1001
0000
0001
0001
0010
0010
0100
0000
,
1100
0000
0000
1000
0000
0000
0001
0000
1000
0000
0100
0000
0001
0000
0100
0000
,
1000
0000
0001
0000
0100
0000
0010
1000
,
0001
1000
0010
0100
1000
0100
0001
0001
,
1000
0000
1001
0000
0001
0010
0100
0000
,
0110
0000
0000
1000
0000
0000
1001
0000
0000
0000
0001
0000
0100
0000
0010
0000
,
2000
3000
0000
0000
0001
0000
0000
0000
0010
0000
0000
0000
0100
0000
0100
0000
0010
0000
0000
0000
0100
0000
0100
0000
1000
0000
0000
0000
0010
0000
0010
0000
,
0100
0000
0000
0000
0001
0000
0000
0000
1000
0000
0000
0000
0001
0000
0010
0000
0100
0000
0000
0100
0000
0000
1000
0000
0010
0000
0000
0000
1010
0000
0000
0000
,
2000
3000
0000
0000
0001
0000
0000
0000
0010
0000
0000
0010
0000
0000
0100
0000
,
0110
0000
0000
0000
0010
0000
0000
0000
0001
0000
0000
0001
0000
0000
1000
0000
,
0010
0000
0100
0001
0010
0100
1000
0001
,
0101
0000
0000
0100
0000
0000
0110
0000
0000
0000
0010
0000
1000
0000
0000
0000
,
1001
0000
0000
0000
0001
0000
0000
0010
,
0000
0000
0100
0000
,
1000
0000
0000
0000
0001
0000
0000
0100
,
0000
0100
0000
0010
1000
0000
0001
0000
,
0010
0000
0100
0000
0010
0000
0000
0000
0100
0000
0000
1000
0000
0000
0020
0000
,
0000
0000
0130
0000
0010
0000
0100
0002
0000
0000
0000
0000
1003
0000
0010
0000
,
0100
0001
1000
0100
0010
0010
0100
1100
,
0000
1000
0001
0000
0100
0000
0110
0000
,
0010
0000
1000
0000
0010
0000
0000
0000
0100
0000
0000
0001
0000
0000
0020
0000
,
0000
0000
0130
0000
1000
0000
0100
2000
0000
0000
3000
0000
0001
0000
0100
0001
,
0000
0100
0010
1000
0001
0010
0100
0110
,
0000
0010
0000
0012
0000
1003
0010
0000
,
0100
0000
0001
0000
1000
0000
0000
0000
0010
0000
0000
1000
0000
0000
0200
0000
,
0000
0000
0310
0000
0100
0000
1000
0002
0000
0000
0003
0000
0010
0100
0000
1000
,
0000
0000
0010
0000
0100
0000
0010
0000
1000
0000
0100
0000
0010
0001
0000
2000
,
0000
0000
0000
0000
3001
0100
0001
0000
,
1000
0000
0000
0000
0010
0000
0000
0000
2010
0000
0000
0001
0000
0000
3200
0000
,
0000
0000
0310
0000
0001
0010
0000
0001
0000
0000
0000
0000
1000
0010
0000
0100
,
0000
0000
0001
0000
0010
0000
0100
1000
0000
0000
0010
0000
1000
0000
1001
0000
,
0000
0000
0001
0000
0010
0000
0100
0000
0010
0000
0000
0001
0100
0000
0000
0000
,
0001
0000
1000
0000
0100
0000
0000
0000
0012
0000
0000
1000
0000
0000
0203
0000
,
0000
0000
0310
0000
1000
0010
0000
1000
0000
0000
0000
0000
0001
0000
0010
0000
,
0100
0000
0010
0000
0001
0000
1000
0000
0010
0000
0100
0000
0001
1000
0000
0200
,
0000
0000
0000
0000
0310
0001
1000
0000
,
0001
0000
0000
0001
0000
0000
0010
0000
0000
0010
0000
0000
0100
0000
0000
0100
,
0000
0000
1000
0000
0000
1000
0000
0000
0020
0000
0000
0000
0030
0000
0000
0000
,
1000
0000
0000
1000
0000
0000
0100
0000
0000
0100
0000
0000
0010
0000
0000
0001
,
1000
0010
0100
0001
0010
0000
1100
0000
,
0010
0001
0100
0000
0010
0000
1000
0100
,
0010
0000
0001
0010
0100
0000
1000
0010
,
0100
0000
0001
0000
0010
0000
0100
0000
0010
0000
0001
0000
0100
0010
0000
2000
,
0000
0000
0000
0000
3001
0010
0100
0000
,
1000
2001
3002
0203
,
0320
0000
2030
0000
3002
0003
1001
0000
,
1000
1000
0100
0100
0010
0001
0100
0000
,
0110
0000
0000
1010
0000
0000
1001
0000
0001
0000
0010
0000
1000
0000
0010
0000
,
0001
0000
0010
0010
0100
1000
0010
0000
,
0100
0100
1000
0100
0001
1000
0100
0000
,
1000
1000
0001
0001
0100
0010
1000
0100
,
0110
0000
0000
0011
0000
0000
1001
0000
0000
0000
1000
0000
0100
0000
0010
0000
,
0002
0003
0000
0000
1000
0000
0000
0000
0010
0000
0000
0000
0100
0000
0100
0000
0010
0000
0000
0000
0100
0000
0100
0000
0001
0000
0000
0000
0010
0000
0010
0000
,
0100
0000
0000
0000
1000
0000
0000
0000
0001
0000
0000
0000
1000
0000
0010
0000
0100
0000
0000
0100
0000
0000
0001
0000
0010
0000
0000
0000
0011
0000
0000
0000
,
0002
0003
1000
0000
0010
0000
0000
0000
0102
0000
0000
1000
0000
0000
0013
0000
,
0001
0000
1000
0000
0010
0000
1000
0100
0000
0000
0000
0000
0010
0000
0001
0000
,
0100
0000
0010
0000
1000
0000
0100
0000
0001
0000
0100
0000
1000
0001
0000
0200
,
0000
0000
0000
0000
0310
0100
0220
0000
,
0330
0000
0000
0000
;

//--------------- dance-single - ----------------
#NOTEDATA:;
#STEPSTYPE:dance-single;
#DESCRIPTION:;
#DIFFICULTY:Hard;
#METER:15;
#RADARVALUES:0.666667,0.980524,0.374532,0.322097,0.636704,623,573,50,43,0,0,0,0,0,0.666667,0.980524,0.374532,0.322097,0.636704,623,573,50,43,0,0,0,0,0;
#CHARTNAME:;
#CHARTHASH:586597827;
#BANNER:;
#CHARTSTYLE:;
#METERF:0.000000;
#LASTSECONDHINT:129.634003;
#CREDIT:ZSL;
#NOTES:
0000
0000
0000
0000
,
0000
0000
0000
0000
,
0000
0000
0000
0000
,
0000
0000
0000
0000
0000
0000
0000
1001
,
0000
1100
0000
0210
0000
0310
0100
0000
,
1000
0000
0001
0000
0100
0000
0000
0000
0010
0000
0000
0100
0000
0000
0201
0000
,
0000
0000
0301
0000
1000
0000
0100
0010
0000
0000
0100
0000
1000
0000
0001
0100
,
0001
0000
1000
0000
0010
0000
0100
0001
1000
0000
0100
0000
0010
0100
0000
2200
,
0000
0300
0000
0000
3001
1000
1001
0000
,
0001
0000
0000
0001
0000
0000
0100
0000
0000
0100
0000
0000
0010
0000
0000
0010
,
0000
0000
1000
0000
0000
1000
0000
0000
0100
0000
0000
0010
0000
0000
0100
0000
,
1000
0000
0000
1000
0000
0000
0100
0000
0000
0100
0000
0000
0010
0000
0000
0010
,
0001
0000
1000
0000
0010
0100
0010
0100
0001
0000
1000
0100
0010
0000
0000
0000
,
0100
0000
0010
0000
0001
0000
1000
0000
0010
0000
0100
0001
0100
0000
0010
0000
,
1000
0000
0001
0000
0010
0000
0001
0100
0001
0000
1000
0000
0100
0000
0010
0001
,
1000
0000
0010
0000
1000
0000
0001
0000
0010
0100
0010
0100
1000
0001
0000
0202
,
0000
0003
0000
0000
0310
1000
0110
0000
,
1001
0000
0000
0000
1000
0000
0001
0000
0100
0001
1000
0100
0000
0100
1000
0001
,
0000
0001
1000
0010
0000
0010
1000
0001
0000
0001
0010
0100
1000
0000
0100
0000
,
0210
0000
0010
2300
0001
3100
0010
0000
,
0011
0000
0000
0101
0000
0000
1010
0000
0010
0000
1000
0000
0001
1000
0100
0010
,
0001
0000
0000
0000
0011
0000
0000
0000
0010
0000
0000
0000
0100
1000
0001
0100
,
0000
0100
0001
0010
0000
0010
0100
1000
0000
1000
0010
0100
0001
0000
0001
0000
,
0010
0000
0100
0000
0010
0000
0000
0000
0001
0000
1000
0000
0020
0000
0000
1030
,
0001
0000
0010
0100
1000
0000
0002
0000
0000
0000
1003
0000
0100
0000
1000
0000
,
2002
3003
0000
0000
0001
0000
0100
0001
0100
0000
0000
0000
0010
0000
0010
0000
0001
0000
0001
0000
0010
0000
0010
0000
1000
0000
1000
0000
0100
0000
0100
0000
,
0010
0000
0000
0000
0100
0000
1000
0001
1000
0000
0000
0000
0010
0100
0010
0100
0010
0000
0000
1010
0000
0000
1001
0000
0001
0000
1000
0000
0100
0000
0000
0000
,
0020
0030
0000
0000
0100
0000
0000
0000
1000
0000
0000
1000
0000
0000
0001
0000
,
0100
0000
0100
0000
0100
0000
0000
0000
0010
0000
0000
0010
0000
0000
1000
0000
,
0001
0000
1000
0000
0100
0000
0010
0000
0001
0010
0001
0010
0100
1000
0100
1000
,
0001
0000
0000
0101
0000
0000
0110
0000
0000
0000
0010
0000
1010
0000
0000
0000
,
1001
0000
0000
0000
0001
0000
0000
0010
,
0000
0000
0100
0000
,
0010
0000
0000
0000
0001
0000
0000
0101
,
0000
0100
0000
0010
1010
1000
0001
0000
,
0010
0000
0100
0000
1000
0000
0000
0000
0001
0000
0000
0100
0000
0000
2000
0000
,
0000
0000
3100
0000
0010
0000
1000
0002
0000
0000
0000
0000
1003
0000
0100
0000
,
0010
0000
0100
0000
1000
0000
0001
0000
1000
0010
1000
0001
0010
0000
0110
0000
,
0000
0100
1000
0000
0001
1000
1010
0000
,
1001
0000
0001
0000
0010
0000
0000
0000
0001
0000
0000
0100
0000
0000
0020
0000
,
0000
0000
0130
0000
0001
0000
1000
0200
0000
0000
1300
0000
0010
0000
0100
0001
,
0100
0000
0010
0000
1000
0000
0001
0000
0010
0100
0010
0000
0100
0000
1100
0000
,
0000
0000
1001
0000
0000
0000
0102
0000
0000
0000
0103
0010
1000
0000
0000
0000
,
0001
0000
0010
0000
0100
0000
0000
0000
1000
0000
0000
0010
0000
0000
0002
0000
,
0000
0000
0013
0000
0100
0000
0001
2000
0000
0000
3001
0000
0010
0100
0000
0100
,
1000
0000
0001
0000
0010
0000
0001
1000
0010
0000
0100
0000
0001
1000
0000
2200
,
0000
3000
0000
0000
0310
0001
1001
0000
,
1000
0000
0100
0000
0001
0000
0100
0000
1000
0000
0001
0100
0001
0000
0010
0000
,
0100
0000
1000
0000
0010
0100
0000
0200
0000
0000
0310
0000
0100
0001
1000
0010
,
1000
0000
0001
0000
0010
0000
0001
0100
0010
0000
1000
0000
0001
0000
0110
0000
,
0000
0000
0001
0000
1000
0000
0100
0010
0001
0000
0000
1000
0010
0000
0000
0000
,
1000
0000
0100
0000
0010
0000
0001
0000
0100
0000
0010
1000
0010
0000
0001
0000
,
0010
0000
1000
0000
0001
0010
0000
0020
0000
0000
0130
0000
1000
0001
0100
0001
,
1000
0000
0100
0000
0010
0000
0001
1000
0010
0100
0001
1000
0100
0010
0000
0022
,
0000
0003
0000
0000
0130
1000
1010
0000
,
0010
0000
0000
0010
0000
0000
0100
0000
0000
0100
0000
0000
0001
0000
0000
0001
,
0000
0000
0010
0000
0000
0010
0000
0000
0100
0000
0000
0010
0000
0000
0001
0000
,
0100
0000
0000
0100
0000
0000
0010
0000
0000
0010
0000
0000
1000
0000
0000
1000
,
0100
0000
0010
0000
0001
1000
0001
1000
0010
0000
0100
0001
0010
0000
0000
0000
,
0100
0000
1000
0000
0001
0000
0100
0000
0010
0000
1000
0100
1000
0000
0010
0000
,
0100
0000
0001
0000
1000
0000
0100
0010
0001
0000
0010
0000
0100
1000
0001
0100
,
0010
0000
1000
0000
0001
0000
1000
0100
0010
0001
0100
0010
1000
0100
0000
0220
,
0000
0300
0000
0000
0031
0100
1001
0000
,
0001
0102
2003
3200
,
0320
0000
0032
0000
2003
3000
1001
0000
,
0001
0000
0002
0000
1000
0000
0013
0000
0100
1000
0100
0000
0010
0000
0001
0000
,
0101
0000
0000
0011
0000
0000
1100
0000
1000
0000
0001
0000
0100
0010
1000
0001
,
0010
0000
0010
0000
0100
1000
0001
1000
0100
1000
0001
1000
0010
0000
0000
0000
,
0100
0000
0100
0000
0010
0100
0001
0100
0010
1000
0001
1000
0100
0000
0000
0000
,
1000
0000
2000
0000
0001
0000
3010
0000
0100
0001
0100
0001
1000
0100
0010
0100
,
1000
0000
0000
1001
0000
0000
0101
0000
0000
0000
0001
0000
0100
0000
0010
0000
,
2002
3003
0000
0000
1000
0000
0100
1000
0100
0000
0000
0000
0010
0000
0010
0000
1000
0000
1000
0000
0010
0000
0010
0000
0001
0000
0001
0000
0100
0000
0100
0000
,
0010
0000
0000
0000
0100
0000
0001
1000
0001
0000
0000
0000
0010
0100
0010
0100
0010
0000
0000
0011
0000
0000
1001
0000
1000
0000
0001
0000
0100
0000
0000
0000
,
0020
0030
1000
0000
0001
0000
0000
0000
1001
0000
0000
0011
0000
0010
0001
0000
,
1000
0000
0010
0000
0100
0000
0001
0010
0100
0000
0000
1000
0001
0010
0001
0100
,
0010
0000
1000
0000
0100
0000
1000
0010
0100
0001
0010
0100
1000
0010
0000
0220
,
0000
0300
0000
0000
0130
0010
2002
0000
,
3003
0000
0000
0000
;
