#VERSION:0.83;
#TITLE:NINJA-ish;
#SUBTITLE:;
#ARTIST:U-ske feat. ななひら;
#TITLETRANSLIT:;
#SUBTITLETRANSLIT:;
#ARTISTTRANSLIT:U-ske feat. Nanahira;
#GENRE:;
#CREDIT:;
#MUSIC:NINJA-ish.ogg;
#BANNER:NINJA-ish.png;
#BACKGROUND:NINJA-ish-bg.png;
#CDTITLE:;
#SAMPLESTART:35.100;
#SAMPLELENGTH:15.000;
#SELECTABLE:YES;
#OFFSET:-0.024;
#BPMS:0.000=170.000;
#STOPS:;
#SPEEDS:0.000=1.000=0.000=0;
#SCROLLS:0.000=1.000;
#TICKCOUNTS:0.000=4;
#TIMESIGNATURES:0.000=4=4;
#LABELS:0.000=Song Start;
#COMBOS:0.000=1;
#ORIGIN:;
#TAGS:;
#PREVIEWVID:;
#JACKET:NINJA-ish-jacket.png;
#CDIMAGE:;
#DISCIMAGE:;
#BGCHANGES:;
#FGCHANGES:;

//--------------- dance-single - ----------------
#NOTEDATA:;
#STEPSTYPE:dance-single;
#DESCRIPTION:;
#DIFFICULTY:Beginner;
#METER:4;
#RADARVALUES:0.164466,0.208613,0,0.008403,0,137,137,0,1,0,0,0,0,0,0.164466,0.208613,0,0.008403,0,137,137,0,1,0,0,0,0,0;
#CHARTNAME:;
#CHARTHASH:1548796113;
#BANNER:;
#CHARTSTYLE:;
#METERF:0.000000;
#LASTSECONDHINT:116.847534;
#CREDIT:ZSL;
#NOTES:
0000
0000
0000
0000
,
0000
0000
0000
0000
,
0000
0000
0000
0000
,
0000
0000
0000
0000
,
0000
0000
0000
0000
,
1000
1000
1000
0000
,
0100
0000
0010
0000
,
0001
0001
0001
0000
,
0100
0000
0000
0100
0000
0000
0000
0000
,
0001
0000
0001
0000
,
1000
0000
1000
0000
,
0010
0000
0010
0000
,
1000
0000
0001
0000
,
1000
0000
1000
0000
,
0100
0000
0100
0000
,
0010
0000
0000
0000
0001
0000
0000
0001
,
0000
0000
0000
0000
,
1000
0000
0000
0000
,
0001
0000
0000
0000
,
1000
0000
0000
0000
,
0100
0000
0000
0000
,
1000
0000
0001
0000
,
0100
0000
0000
0000
,
0001
0000
1000
0000
,
0010
0000
0000
0000
,
0100
0000
0001
0000
,
0100
0000
0010
0000
,
1000
0000
0000
0000
0001
0000
0000
0001
,
0000
0000
0000
0000
,
0010
0000
0100
0000
,
1000
0000
0001
0000
,
0100
0000
0000
0000
0010
0000
0000
0010
,
0000
0000
0000
0000
,
1000
0000
0010
0010
,
0000
0000
1000
0000
,
0001
0000
0010
0010
,
0000
0000
0100
0000
,
1000
0000
0001
0001
,
0000
0000
1000
0000
,
0010
0000
0000
0000
0100
0000
0000
0100
,
0000
0000
0001
0000
,
1000
0000
0000
0000
,
0100
0000
0010
0000
,
0001
0000
0000
0000
,
1000
0000
0100
0000
,
0010
0000
0000
0000
,
0100
0000
1000
0000
,
0001
0000
0000
0000
1000
0000
0000
1000
,
0000
0000
0010
0000
,
0100
0000
0000
0000
,
0000
0000
0000
0000
,
0001
0000
0000
0000
,
0000
0000
0000
0000
,
0010
0000
0000
0000
,
0000
0000
0000
0000
,
0100
0000
0000
0000
,
0010
0000
0010
0000
,
0100
0000
1000
0000
,
0100
0000
0010
0000
,
0001
0000
0000
0000
1000
0000
0000
1000
,
0000
0000
0000
0000
,
0010
0000
0100
0000
,
0001
0000
1000
0000
,
0100
0000
0000
0000
0010
0000
0000
0010
,
0000
0000
0000
0000
,
0001
0000
0100
0100
,
0000
0000
0010
0000
,
1000
0000
0100
0100
,
0000
0000
0010
0000
,
0001
0000
1000
1000
,
0000
0000
0010
0000
,
0100
0000
0000
0000
0001
0000
0000
0001
,
0000
0000
1000
0000
,
0001
0001
0001
0000
,
0100
0000
0010
0000
,
1000
1000
1000
0000
,
0001
0000
0000
0000
,
0010
0010
0010
0000
,
0100
0000
1000
0000
,
0010
0010
0010
0000
,
0100
0000
0000
0100
0000
0000
0000
0000
,
0010
0000
0000
0010
0000
0000
0000
0000
,
1000
0000
0000
0000
0000
0000
0000
0000
0002
0000
0000
0000
0000
0003
0000
0000
;

//--------------- dance-single - ----------------
#NOTEDATA:;
#STEPSTYPE:dance-single;
#DESCRIPTION:;
#DIFFICULTY:Easy;
#METER:7;
#RADARVALUES:0.289316,0.347689,0.042017,0.008403,0,241,236,5,1,0,0,0,0,0,0.289316,0.347689,0.042017,0.008403,0,241,236,5,1,0,0,0,0,0;
#CHARTNAME:;
#CHARTHASH:1499671120;
#BANNER:;
#CHARTSTYLE:;
#METERF:0.000000;
#LASTSECONDHINT:116.847534;
#CREDIT:ZSL;
#NOTES:
0000
0000
0000
0000
,
0000
0000
0000
0000
,
0000
0000
0000
0000
,
0000
0000
0000
0000
,
0000
0000
0000
0000
,
1000
0000
0100
0010
0100
0000
1000
0000
,
1000
0000
1100
0000
,
0001
0000
0100
0010
0100
0000
0001
0000
,
0001
0000
0000
1000
0000
0000
0100
0000
,
0010
0000
0100
0000
0010
0000
0000
0001
,
0000
0000
1000
0000
0010
0000
0000
0100
,
0000
0000
0010
0000
1000
0000
0000
0001
,
0000
0000
1000
0000
0100
0000
0000
0010
,
0000
0000
0001
0000
1000
0000
0000
0001
,
0000
0000
1000
0000
0010
0000
0000
1000
,
0001
0000
0010
0000
0010
0000
0000
0100
,
0000
1000
1000
0000
,
0001
0000
0010
0000
,
0001
0000
1000
0000
,
0001
0000
1000
0000
,
0010
0000
1000
0000
,
0001
0100
0010
0000
,
0100
0001
1000
0000
,
0100
0000
0010
0000
0100
1000
0100
0000
,
1000
0000
0000
0000
,
0001
0000
0100
0000
0010
0000
1000
0010
,
0000
1000
0001
0010
,
0100
0000
0010
0000
0001
0000
0010
0100
,
0000
1000
1000
0000
,
0010
0000
0100
0000
0001
0000
0100
0001
,
0000
1000
0100
0010
,
0001
0000
0000
0000
0011
0000
0000
1000
,
0000
0000
0010
0100
,
0010
0000
0000
0010
0100
0000
0100
0010
,
0000
0000
1000
0001
,
0010
0000
0000
0010
0001
0000
0001
0010
,
0000
0000
0100
1000
,
0001
0000
0000
0001
1000
0000
1000
0001
,
0000
0000
0100
0010
,
1000
0000
0000
0000
0001
0000
0000
0100
,
0000
0001
1000
0001
,
0010
0000
0000
0000
,
0001
0000
0000
0001
1000
0000
0000
0000
,
0010
0000
0000
0000
0000
0000
0000
1000
,
0010
0000
0100
0100
,
0001
0000
0000
0000
,
1000
0000
0000
1000
0100
0000
0000
0000
,
0010
0000
0001
0000
1000
0000
0000
1001
,
0000
0000
0001
0000
0100
0000
0001
1000
,
0001
0000
0000
0000
0000
0000
0000
0010
,
0000
0000
0100
0000
,
1000
0000
0000
0000
,
0000
0000
0000
0000
,
1000
0000
0000
0000
0000
0000
0000
0010
,
0000
0000
0100
0000
,
0001
0000
0000
0000
,
0100
0100
0010
0010
,
1000
0000
0100
0000
0010
0000
0001
0010
,
0000
0001
1000
0010
,
0100
0000
0010
0000
1000
0000
0010
0100
,
0000
0001
0001
0000
,
0010
0000
0100
0000
1000
0000
0100
1000
,
0000
0001
0100
0010
,
1000
0000
0000
0000
1010
0000
0000
0001
,
0000
0000
0010
0100
,
0010
0000
0000
0010
0001
0000
0001
1000
,
0000
0000
0010
0100
,
0001
0000
0000
0001
1000
0000
1000
0100
,
0000
0000
0010
0001
,
0100
0000
0000
0100
0010
0000
0010
1000
,
0000
0000
0001
0010
,
0100
0000
0000
0000
1000
0000
0000
0010
,
0000
1000
0100
1000
,
0001
0000
0010
0100
0010
0000
0001
0000
,
0001
0000
0011
0000
,
1000
0000
0010
0100
0010
0000
1000
0000
,
1000
0000
0000
0000
,
0001
0000
1000
0001
0010
0000
0100
0000
,
0100
0000
0110
0000
,
1000
0000
0001
1000
0010
0000
0100
0000
,
0100
0000
0000
0010
0000
0000
0010
0000
,
1000
0000
0000
0100
0000
0000
0100
0000
,
0010
0000
0000
0000
0000
0000
0000
0000
0002
0000
0000
0000
0000
0003
0000
0000
;

//--------------- dance-single - ----------------
#NOTEDATA:;
#STEPSTYPE:dance-single;
#DESCRIPTION:;
#DIFFICULTY:Medium;
#METER:10;
#RADARVALUES:0.406963,0.417227,0.184874,0.07563,0.016807,339,317,22,9,0,0,0,0,0,0.406963,0.417227,0.184874,0.07563,0.016807,339,317,22,9,0,0,0,0,0;
#CHARTNAME:;
#CHARTHASH:11035906;
#BANNER:;
#CHARTSTYLE:;
#METERF:0.000000;
#LASTSECONDHINT:116.847534;
#CREDIT:ZSL;
#NOTES:
0000
0000
0000
0000
,
0000
0000
0000
0000
,
0000
0000
0000
0000
,
0000
0000
0000
0000
,
0000
0000
0000
0000
,
1000
0001
0010
0000
0010
0000
0001
0010
,
0100
0000
0000
1000
0100
0000
1000
0000
,
0001
1000
0010
0000
0010
0000
1000
0010
,
0100
0000
0000
0101
0000
0000
1001
0000
,
0001
0000
1000
0000
0100
0000
1000
0001
,
0000
0100
0010
0000
1000
0001
0000
0010
,
0000
0100
0010
0000
0001
1000
0000
0010
,
0000
1000
0100
0000
0010
0100
0000
0010
,
0000
0001
1000
0000
0010
0000
0100
0001
,
0000
1000
0100
0000
0010
0001
0000
1000
,
0010
0000
0100
0000
0100
0000
0010
1000
,
0000
0010
0100
0000
0001
0000
1001
0000
,
1000
0000
0100
0000
,
0010
0001
1000
0010
,
0100
0000
0010
1000
,
0001
0010
0100
0010
,
0001
0000
1000
0010
,
0100
0001
0010
0100
,
0010
0000
0010
0000
0001
1000
0001
1000
,
0010
0000
0000
0000
0000
0000
0000
1000
,
0100
0000
0100
0010
0001
0000
0001
1000
,
0000
1000
0001
0000
0010
0000
0010
0000
,
0001
0000
0001
1000
0010
0000
0010
0100
,
0000
0100
0010
0000
1000
0000
0000
0000
,
0010
0000
0010
1000
0100
0000
0100
0010
,
0000
0010
0001
0000
1000
0000
1000
0000
,
1010
0000
0000
0000
0110
0000
0000
0101
,
0000
0000
0000
0001
,
1001
0000
0000
1000
0001
1000
0100
1000
,
0000
0100
0100
1000
,
1001
0000
0000
0001
1000
0001
0100
0001
,
0000
1000
1000
0001
,
0011
0000
0000
0010
0001
0010
0100
0010
,
0000
0001
0001
0100
,
0110
0000
0000
0010
1000
0000
1000
0001
,
0000
0010
0001
0100
,
0001
0000
0000
0000
0100
0020
0000
0000
,
1030
0000
0000
1000
0000
0000
1000
0000
0001
0000
0000
0000
0001
0000
0000
0000
,
0010
0000
0100
0000
0010
0002
0000
1003
,
0001
0000
0000
0001
0000
0000
0001
0000
2000
0000
0000
0000
0000
0000
0000
0000
,
3100
0000
1000
0000
0001
0200
0000
0000
,
0310
0000
0000
0010
0000
0000
0010
0000
2000
0000
0000
0000
0000
0000
0000
0000
,
3002
0000
0000
0013
0001
0000
0010
0100
,
0000
0000
1000
0000
0001
0100
0001
0100
,
0010
0000
0000
0000
0100
0000
0000
0001
,
0000
1000
0100
0000
,
0020
0000
0000
0000
,
0030
0000
0000
0000
,
0100
0000
0000
0000
1000
0000
0000
0001
,
0000
0100
0010
0000
,
2000
0000
0000
0000
,
3001
0010
0011
0001
,
0100
0000
0100
0010
1000
0000
1000
0001
,
0000
0001
1000
0000
0010
0000
0010
0000
,
1000
0000
1000
0001
0010
0000
0010
0100
,
0000
0100
0010
0000
0001
0000
0000
0000
,
0010
0000
0010
0001
0100
0000
0100
0010
,
0000
0010
1000
0000
0001
0000
0001
0000
,
0011
0000
0000
0000
0110
0000
0000
1100
,
0000
0000
0000
1000
,
1001
0000
0000
0001
0100
0010
1000
0001
,
0000
0010
0010
0001
,
1001
0000
0000
1000
0100
0010
0001
1000
,
0000
0001
0001
1000
,
1010
0000
0000
0010
0100
0001
1000
0100
,
0000
0010
0010
0001
,
1001
0000
0000
1000
0010
0000
0010
0100
,
0000
0001
0010
0100
,
1000
0001
0100
0000
0100
0000
0001
0100
,
0010
0000
0000
1000
0010
0000
1000
0000
,
0001
1000
0100
0000
0100
0000
1000
0100
,
0010
0000
0000
0100
,
0010
0001
1000
0000
1000
0000
0100
1000
,
0010
0000
0000
0100
0001
0000
1000
0000
,
0010
1000
0001
0000
0001
0000
0100
0001
,
0010
0000
0000
0110
0000
0000
1100
0000
,
1000
0000
0000
1010
0000
0000
0110
0000
,
0001
0000
0000
0001
0000
0000
0001
0000
0200
0000
0000
0000
0000
0300
0000
0000
;

//--------------- dance-single - ----------------
#NOTEDATA:;
#STEPSTYPE:dance-single;
#DESCRIPTION:;
#DIFFICULTY:Hard;
#METER:14;
#RADARVALUES:0.660264,0.695378,0.268908,0.260504,0.239496,550,518,32,31,0,0,0,0,0,0.660264,0.695378,0.268908,0.260504,0.239496,550,518,32,31,0,0,0,0,0;
#CHARTNAME:;
#CHARTHASH:4165576481;
#BANNER:;
#CHARTSTYLE:;
#METERF:0.000000;
#LASTSECONDHINT:116.847534;
#CREDIT:ZSL;
#NOTES:
0000
0000
0000
0000
,
0000
0000
0000
0000
,
0000
0000
0000
0000
,
0000
0000
0000
0000
,
0000
0000
0000
0000
,
1000
0000
0001
0010
0002
0000
0010
0000
1003
0000
0010
0000
0100
0000
0001
0000
,
1000
0000
0000
0000
0001
0000
1000
0100
1000
0000
0100
0000
0010
0000
0000
0000
,
0001
0000
1000
0010
2000
0000
0010
0000
3001
0000
0010
0000
0100
0000
1000
0000
,
0001
0100
0000
0000
0010
0000
1000
0001
0000
0000
0000
0000
0010
0100
0000
0000
,
1000
0000
0001
0100
0001
0000
0100
0000
0010
0000
1000
0000
0001
0000
0001
0000
,
0000
0010
0100
1000
0010
0010
0000
1010
,
0000
1000
0001
0010
0100
0100
0000
0210
,
0000
0000
0310
0001
0010
0000
0001
0000
0100
0000
0100
0000
0000
0000
0101
0000
,
0000
0000
0001
1000
0001
0000
1000
0000
0100
0000
0010
0000
0001
0000
0001
0000
,
0000
1000
0010
0100
0010
0010
0000
1000
,
1000
0000
0100
0000
0010
0000
0100
1100
,
0000
0000
1000
0000
0001
1000
0000
0000
0010
0000
0100
0000
0101
0000
0000
0000
,
0001
1000
0000
1000
0100
0000
0010
0000
,
0001
0000
1000
0001
0100
0000
0010
0000
,
1000
0001
0000
0001
0010
0000
0100
0000
,
1000
0000
0001
1000
0010
0000
0100
0000
,
0010
1000
0000
1000
0001
0010
0100
0010
,
0001
1000
0010
1000
0100
0000
0010
0000
,
0100
0000
1000
0000
0001
0000
0100
0000
0001
0100
0001
0000
0100
0001
0100
0001
,
1000
0000
0000
0000
0000
0000
0000
0100
,
1100
0000
1000
0001
0100
0020
0100
1030
,
0000
0001
0010
0100
1000
0001
0100
0000
,
0110
0000
0010
1000
0100
2000
0001
3010
,
0000
0100
0001
0100
0010
1000
1000
0001
,
0011
0000
0010
0100
1000
0002
0100
1003
,
0000
0010
1000
0001
0010
0100
1000
0100
,
0110
0000
0000
0010
0011
0000
0000
1001
,
0000
1000
0001
0100
0010
0000
0100
0000
,
0101
0000
0000
0000
0001
0000
1000
0100
0010
0000
0200
0000
0010
0000
1300
0000
,
0000
0000
0100
1000
0100
0000
1000
0001
1000
0000
0001
0000
0100
0000
0010
0000
,
1010
0000
0000
0000
1000
0000
0001
0010
0100
0000
0020
0000
0100
0000
0031
0000
,
0000
0000
1000
0000
0010
0000
1000
0000
0100
0000
0010
0001
0010
0000
0001
0000
,
1001
0000
0000
0000
1000
0000
0001
0100
0010
0000
0200
0000
0010
0000
0301
0000
,
0000
0000
0100
0001
0100
0000
0001
1000
0001
0000
1000
0000
0100
0000
0010
0000
,
0110
0000
0000
0000
0100
0000
1000
0001
0100
0000
0020
0000
0100
0000
2030
0000
,
0000
3001
0010
0100
1000
0001
0100
0010
,
0110
0000
0100
0000
0001
2000
0000
0000
,
3100
0000
0000
0100
0000
0000
0100
0000
1000
0000
0001
0000
0100
0000
0001
0000
,
0010
0000
0000
0000
0100
0000
0000
0000
1000
0000
0020
0000
0000
0000
1030
0001
,
0010
0000
0000
0000
0000
0000
0000
0000
0000
0010
0000
0000
0000
0000
0000
0000
0000
0000
0010
0000
0000
0000
0000
0000
0100
0000
0000
0000
0010
0000
0000
0000
0001
0000
0000
0000
0100
0000
0000
0000
0010
0000
0000
0000
1000
0000
0000
0000
,
0001
0000
1000
0000
0100
0020
0000
0000
,
0031
0000
0000
0001
0000
0000
0001
0000
1000
0000
0010
0000
0100
0000
0001
0000
,
1000
0000
0001
0000
1000
0000
0001
0010
0100
0000
0010
0000
0100
0000
1100
0000
,
0000
0000
1000
0000
0010
0000
0100
0000
0001
1000
0001
1000
0001
0000
0010
0000
,
0100
0000
0000
0000
0010
0000
0000
0001
,
0000
1000
0010
0000
0100
0000
0001
0000
,
2000
0000
0000
0000
,
3000
0000
0000
0000
0000
0000
0000
0001
,
0010
0000
0100
0000
1000
0000
0001
0100
,
0000
0001
0010
0000
0001
1000
0010
0000
,
0200
0000
0000
0000
,
0301
0000
0000
0000
1001
0000
0000
0000
1000
0000
0001
1000
0001
0000
0100
0000
,
0101
0000
0001
1000
0100
0020
0100
0031
,
0000
1000
0010
0100
0001
1000
0100
0000
,
0110
0000
0010
0001
0100
0002
1000
0013
,
0000
0100
1000
0100
0010
0001
0001
1000
,
1010
0000
0010
0100
0001
2000
0100
3001
,
0000
0010
0001
1000
0010
0100
0001
0100
,
0110
0000
0000
0010
1010
0000
0000
1001
,
0000
0001
1000
0100
0010
0000
0100
0000
,
1100
0000
0000
0000
1000
0000
0001
0100
0010
0000
2000
0000
0100
0000
3001
0000
,
0000
0000
1000
0010
1000
0000
0001
0100
0001
0000
1000
0000
0100
0000
0010
0000
,
0011
0000
0000
0000
0001
0000
1000
0010
0100
0000
0002
0000
0010
0000
1003
0000
,
0000
0000
0010
0000
0100
0000
0001
0000
1000
0000
0100
0010
0100
0000
1000
0000
,
1010
0000
0000
0000
0010
0000
1000
0100
0010
0000
0002
0000
0100
0000
1003
0000
,
0000
0000
0001
0010
0001
0000
1000
0100
1000
0000
0001
0000
0100
0000
0001
0000
,
0011
0000
0000
0000
0010
0000
0001
0100
0010
0000
2000
0000
0010
0000
3002
0000
,
0000
0103
0010
1000
0001
0010
0200
0000
,
1300
0000
0001
0100
0002
0000
0100
0000
1003
0000
0100
0000
0010
0000
0001
0000
,
1000
0000
0000
0000
0001
0000
1000
0010
1000
0000
0010
0000
0100
0000
0000
0000
,
0001
0000
1000
0100
2000
0000
0100
0000
3001
0000
0100
0000
0010
0000
1000
0000
,
1100
0000
0000
1002
,
0013
0000
0001
1000
0020
0000
1000
0000
0130
0000
0001
0000
1000
0000
0100
0000
,
0010
0000
0000
0000
0001
0000
1000
0010
1000
0000
0001
0000
0100
0000
0000
0000
,
0010
0000
1000
0001
0020
0000
0001
0000
0130
0000
1000
0000
0001
0000
0100
0000
,
0010
1000
0000
0000
0001
0000
0010
0100
0000
0000
0000
0000
1000
0001
0000
0000
,
0100
0010
0100
0000
0001
0000
0010
0100
1000
0000
0001
0000
0100
0010
1000
0000
,
0001
0000
0000
1001
0000
0000
1001
0000
0200
0000
0000
0000
0000
0300
0000
0000
;
